osu file format v14

[General]
AudioFilename: ODESZA - How Did I Get Here.mp3
AudioLeadIn: 0
PreviewTime: -1
Countdown: 0
SampleSet: Soft
StackLeniency: 0.7
Mode: 0
LetterboxInBreaks: 0
WidescreenStoryboard: 0

[Editor]
Bookmarks: 20008,40008
DistanceSpacing: 2
BeatDivisor: 8
GridSize: 4
TimelineZoom: 1.8

[Metadata]
Title:How Did I Get Here
TitleUnicode:How Did I Get Here
Artist:ODESZA
ArtistUnicode:ODESZA
Creator:Fookiezi
Version:Chill
Source:
Tags:chill trap future bass chillout edm electronic
BeatmapID:865368
BeatmapSetID:397920

[Difficulty]
HPDrainRate:5
CircleSize:4
OverallDifficulty:8
ApproachRate:9.2
SliderMultiplier:3.5
SliderTickRate:1

[Events]
//Background and Video events
0,0,"db1f93e4f70d4bd3863d88251436315dgg.jpg",0,0
//Break Periods
//Storyboard Layer 0 (Background)
//Storyboard Layer 1 (Fail)
//Storyboard Layer 2 (Pass)
//Storyboard Layer 3 (Foreground)
//Storyboard Sound Samples

[TimingPoints]
8,625,4,2,0,80,1,0
20008,-100,4,2,0,80,0,0
22508,-200,4,2,0,80,0,0
25008,-100,4,2,0,80,0,0
27508,-200,4,2,0,80,0,0
30008,-100,4,2,0,80,0,0
32508,-200,4,2,0,80,0,0
35008,-100,4,2,0,80,0,0
37508,-200,4,2,0,80,0,0
40008,-100,4,2,0,80,0,0
42508,-200,4,2,0,80,0,0
45008,-100,4,2,0,80,0,0
47508,-200,4,2,0,80,0,0
50008,-100,4,2,0,80,0,0
52508,-200,4,2,0,80,0,0
55008,-100,4,2,0,80,0,0
57508,-200,4,2,0,80,0,0
60008,-200,4,2,0,80,0,0
79383,-100,4,2,0,80,0,0
97508,-133.333333333333,4,2,0,80,0,0
100008,-200,4,2,0,80,0,0

[Colours]
Combo1 : 203,12,40
Combo2 : 155,16,207
Combo3 : 123,13,166
Combo4 : 242,24,57

[HitObjects]
272,132,20008,6,0,L|359:125,1,87.5,8|0,0:0|0:0,0:0:0:0:
216,183,20320,1,0,0:0:0:0:
465,130,20476,2,0,P|424:117|381:123,1,87.5,8|0,0:0|0:0,0:0:0:0:
284,207,20789,2,0,B|163:186|163:186|236:181,1,175,8|0,0:0|0:0,0:0:0:0:
240,277,21258,6,0,L|344:294,1,87.5,8|0,0:0|0:0,0:0:0:0:
97,162,21570,2,0,L|-7:145,1,87.5,8|0,0:0|0:0,0:0:0:0:
216,183,21883,2,0,P|259:179|301:190,1,87.5,8|0,0:0|0:0,0:0:0:0:
121,256,22195,2,0,P|78:260|36:249,1,87.5,8|0,0:0|0:0,0:0:0:0:
240,277,22508,6,0,L|419:303,1,175
413,302,23445,1,0,0:0:0:0:
415,214,23758,5,0,0:0:0:0:
415,214,24070,1,0,0:0:0:0:
416,126,24383,2,0,L|352:121,1,43.75
292,86,24695,2,0,L|248:82,1,43.75
283,0,25008,6,0,P|246:36|97:23,1,175,8|0,0:0|0:0,0:0:0:0:
208,148,25476,1,8,0:0:0:0:
93,207,25633,2,0,L|109:33,1,175,0|8,0:0|0:0,0:0:0:0:
18,126,26101,1,0,0:0:0:0:
224,162,26258,6,0,L|231:259,1,87.5
283,99,26570,2,0,P|209:78|185:87,1,87.5,8|0,0:0|0:0,0:0:0:0:
122,117,26883,1,8,0:0:0:0:
36,96,27039,1,0,0:0:0:0:
172,188,27195,1,0,0:0:0:0:
98,34,27351,1,0,0:0:0:0:
267,118,27508,6,0,P|262:165|170:186,1,153.125
151,177,28133,2,0,L|55:170,1,87.5
118,257,28758,6,0,L|31:251,1,87.5
205,249,29383,2,0,L|292:255,1,87.5
395,95,30008,6,0,P|377:134|385:204,1,87.5,8|0,0:0|0:0,0:0:0:0:
461,160,30320,1,0,0:0:0:0:
302,112,30476,2,0,L|204:119,1,87.5,8|0,0:0|0:0,0:0:0:0:
383,198,30789,2,0,P|401:237|367:400,1,175,8|0,0:0|0:0,0:0:0:0:
269,219,31258,5,8,0:0:0:0:
353,196,31414,1,0,0:0:0:0:
204,287,31570,1,8,0:0:0:0:
288,310,31726,1,0,0:0:0:0:
292,134,31883,1,8,0:0:0:0:
412,254,32039,1,0,0:0:0:0:
235,201,32195,1,8,0:0:0:0:
469,187,32351,1,0,0:0:0:0:
213,204,32508,6,0,B|92:215|92:215|27:200,1,175
39,202,33445,1,0,0:0:0:0:
138,302,33758,6,0,L|229:293,1,87.5
312,282,34383,2,0,L|361:291,1,43.75
376,292,34695,2,0,L|425:283,1,43.75
367,213,35008,6,0,L|376:36,1,175,8|0,0:0|0:0,0:0:0:0:
450,148,35476,1,8,0:0:0:0:
450,148,35633,2,0,P|369:113|284:156,1,175,0|8,0:0|0:0,0:0:0:0:
241,214,36101,1,0,0:0:0:0:
241,214,36258,6,0,L|66:222,2,175,0|8|8,0:0|0:0|0:0,0:0:0:0:
167,139,37039,1,0,0:0:0:0:
155,313,37195,1,0,0:0:0:0:
183,140,37351,1,0,0:0:0:0:
170,313,37508,6,0,B|239:335|281:313|281:313|258:318|226:307,1,153.125
242,300,38133,2,0,L|251:248,1,43.75
269,171,38445,2,0,L|312:178,1,43.75
398,192,38758,5,0,0:0:0:0:
484,176,38914,1,0,0:0:0:0:
370,276,39070,1,0,0:0:0:0:
456,260,39226,1,0,0:0:0:0:
398,192,39383,1,0,0:0:0:0:
424,348,39539,1,0,0:0:0:0:
484,176,39695,1,0,0:0:0:0:
338,364,39851,1,0,0:0:0:0:
429,108,40008,6,0,B|368:113|368:113|311:143,1,87.5,8|0,0:0|0:0,0:0:0:0:
275,178,40320,1,0,0:0:0:0:
267,90,40476,2,0,L|277:201,1,87.5,8|0,0:0|0:0,0:0:0:0:
307,18,40789,2,0,P|241:12|190:108,1,175,8|0,0:0|0:0,0:0:0:0:
286,195,41258,6,0,L|293:282,1,87.5,8|0,0:0|0:0,0:0:0:0:
389,267,41570,1,8,0:0:0:0:
293,107,41726,1,0,0:0:0:0:
293,107,41883,2,0,L|285:194,1,87.5,8|0,0:0|0:0,0:0:0:0:
190,179,42195,1,8,0:0:0:0:
285,19,42351,1,0,0:0:0:0:
285,19,42508,6,0,L|292:106,1,87.5
298,193,42976,1,0,0:0:0:0:
298,193,43133,2,0,P|354:188|393:201,1,87.5
465,227,43601,1,0,0:0:0:0:
465,227,43758,6,0,L|472:314,1,87.5
386,295,44226,1,0,0:0:0:0:
386,295,44383,2,0,P|347:294|316:308,1,65.625
304,316,44695,2,0,L|234:311,1,65.625
221,324,45008,6,0,L|214:141,1,175,8|0,0:0|0:0,0:0:0:0:
211,61,45476,1,8,0:0:0:0:
47,32,45633,2,0,P|93:61|228:52,1,175,0|8,0:0|0:0,0:0:0:0:
292,31,46101,1,0,0:0:0:0:
282,224,46258,6,0,L|196:215,1,87.5
359,275,46570,2,0,P|432:289|480:279,1,87.5,8|0,0:0|0:0,0:0:0:0:
422,113,46883,2,0,L|431:26,1,87.5,8|0,0:0|0:0,0:0:0:0:
372,189,47195,2,0,P|358:262|368:310,1,87.5
382,359,47508,6,0,L|168:341,1,175
120,335,48445,1,0,0:0:0:0:
128,247,48758,6,0,L|136:147,1,87.5
192,93,49383,2,0,L|185:5,1,87.5
256,192,50008,12,8,51258,0:0:0:0:
258,193,51570,21,8,0:0:0:0:
258,193,51883,2,0,L|372:203,1,87.5,8|0,0:0|0:0,0:0:0:0:
197,115,52195,2,0,P|212:191|180:258,1,131.25,8|0,0:0|0:0,0:0:0:0:
177,254,52508,6,0,L|89:246,1,87.5
119,328,52976,1,0,0:0:0:0:
119,328,53133,2,0,L|206:335,1,87.5
335,254,53758,6,0,L|422:246,1,87.5
393,328,54226,1,0,0:0:0:0:
393,328,54383,2,0,L|311:334,1,65.625
305,330,54695,2,0,P|246:325|225:332,1,65.625
219,333,55008,6,0,L|20:318,1,175,8|0,0:0|0:0,0:0:0:0:
62,222,55476,1,8,0:0:0:0:
159,227,55633,2,0,P|202:223|243:240,1,87.5
93,301,55945,2,0,P|68:265|62:222,1,87.5,8|0,0:0|0:0,0:0:0:0:
83,137,56258,6,0,L|72:50,1,87.5
144,199,56570,1,8,0:0:0:0:
151,24,56726,1,0,0:0:0:0:
144,199,56883,2,0,L|155:296,1,87.5,8|0,0:0|0:0,0:0:0:0:
151,24,57195,2,0,L|145:184,1,131.25
144,199,57508,6,0,P|191:190|238:193,1,87.5
315,210,57976,1,0,0:0:0:0:
315,210,58133,2,0,L|410:204,1,87.5
205,323,58758,6,0,L|198:274,1,43.75
178,165,59070,2,0,L|220:184,1,43.75
327,221,59383,2,0,L|287:256,1,43.75
205,323,59695,1,0,0:0:0:0:
235,238,60008,5,0,0:0:0:0:
269,157,60320,1,0,0:0:0:0:
356,153,60633,2,0,L|459:149,1,87.5,8|0,0:0|0:0,0:0:0:0:
219,253,61258,2,0,L|116:249,1,87.5
293,326,61883,2,0,P|309:266|307:223,1,87.5,8|0,0:0|0:0,0:0:0:0:
301,150,62508,5,0,0:0:0:0:
466,206,62820,2,0,P|406:200|373:183,1,87.5,0|8,0:0|0:0,0:0:0:0:
301,150,63445,2,0,P|241:156|208:173,1,87.5
146,219,64070,1,0,0:0:0:0:
104,294,64383,1,8,0:0:0:0:
146,219,64695,1,0,0:0:0:0:
216,167,65008,5,0,0:0:0:0:
206,80,65320,1,0,0:0:0:0:
134,134,65633,2,0,L|36:123,1,87.5,8|0,0:0|0:0,0:0:0:0:
2,48,66258,2,0,L|88:38,1,87.5
217,157,66883,2,0,L|119:146,1,87.5,8|0,0:0|0:0,0:0:0:0:
303,178,67508,5,0,0:0:0:0:
343,100,67820,2,0,P|357:58|353:15,1,87.5,0|8,0:0|0:0,0:0:0:0:
443,103,68445,2,0,P|425:142|393:172,1,87.5
303,178,69070,1,0,0:0:0:0:
215,172,69383,1,8,0:0:0:0:
303,178,69695,1,0,0:0:0:0:
392,172,70008,5,0,0:0:0:0:
472,138,70320,1,0,0:0:0:0:
474,220,70633,2,0,L|463:309,1,87.5,8|0,0:0|0:0,0:0:0:0:
389,259,71258,2,0,P|340:255|294:270,1,87.5
227,308,71883,2,0,L|140:318,1,87.5,8|0,0:0|0:0,0:0:0:0:
52,325,72508,5,0,0:0:0:0:
90,246,72820,2,0,L|176:236,1,87.5,0|8,0:0|0:0,0:0:0:0:
264,227,73445,2,0,P|261:182|277:135,1,87.5
317,66,74070,1,0,0:0:0:0:
389,17,74383,1,8,0:0:0:0:
317,66,74695,1,0,0:0:0:0:
344,149,75008,5,0,0:0:0:0:
256,156,75320,1,0,0:0:0:0:
168,164,75633,2,0,L|77:170,1,87.5,8|0,0:0|0:0,0:0:0:0:
112,88,76258,2,0,L|24:82,1,87.5
195,42,76883,2,0,P|205:90|188:137,1,87.5,8|0,0:0|0:0,0:0:0:0:
152,202,77508,5,0,0:0:0:0:
238,191,77820,1,0,0:0:0:0:
325,180,78133,2,0,L|395:173,1,65.625
411,177,78445,2,0,P|412:227|432:255,1,65.625
434,254,78758,2,0,L|368:260,1,65.625
346,261,79070,2,0,P|313:268|279:295,1,65.625
270,300,79383,22,0,L|132:283,2,116.666666666667
211,53,80008,38,0,P|200:102|219:216,1,131.25
218,200,80320,2,0,L|262:205,1,43.75
278,292,80476,2,0,L|234:287,1,43.75
158,264,80633,2,0,L|334:248,1,175
419,238,81101,1,0,0:0:0:0:
424,12,81258,6,0,P|429:76|405:149,1,131.25
401,159,81570,1,0,0:0:0:0:
330,69,81726,1,0,0:0:0:0:
359,228,81883,2,0,P|310:223|229:289,1,131.25
233,284,82195,1,0,0:0:0:0:
250,140,82351,1,0,0:0:0:0:
319,314,82508,6,0,L|132:301,1,175
58,315,82976,1,0,0:0:0:0:
13,145,83133,2,0,P|74:142|159:203,1,131.25
151,187,83445,2,0,L|236:180,1,43.75
281,193,83601,2,0,L|366:186,1,43.75
412,183,83758,6,0,L|500:196,1,87.5
341,272,84070,1,0,0:0:0:0:
389,104,84226,1,0,0:0:0:0:
341,272,84383,2,0,P|269:291|194:249,1,131.25
201,257,84695,2,0,P|186:218|265:224,1,131.25
271,211,85008,5,0,0:0:0:0:
219,44,85164,1,0,0:0:0:0:
389,83,85320,1,0,0:0:0:0:
221,133,85476,2,0,L|134:121,1,87.5
389,83,85789,1,0,0:0:0:0:
271,211,85945,2,0,L|184:222,1,87.5
51,106,86258,6,0,P|62:155|47:202,1,87.5,8|0,0:0|0:0,0:0:0:0:
18,270,86570,1,0,0:0:0:0:
184,221,86726,1,0,0:0:0:0:
18,270,86883,2,0,P|7:319|22:366,1,87.5,8|0,0:0|0:0,0:0:0:0:
184,221,87195,1,0,0:0:0:0:
13,183,87351,1,0,0:0:0:0:
184,221,87508,6,0,P|231:235|265:272,1,87.5,8|0,0:0|0:0,0:0:0:0:
303,335,87820,1,0,0:0:0:0:
314,160,87976,1,0,0:0:0:0:
303,335,88133,2,0,L|416:328,1,87.5,8|0,0:0|0:0,0:0:0:0:
477,324,88445,1,0,0:0:0:0:
338,232,88601,1,0,0:0:0:0:
477,324,88758,6,0,L|470:211,1,87.5,8|0,0:0|0:0,0:0:0:0:
466,149,89070,1,0,0:0:0:0:
338,232,89226,1,0,0:0:0:0:
466,149,89383,2,0,L|459:36,1,87.5,8|0,0:0|0:0,0:0:0:0:
333,145,89695,2,0,L|340:258,1,87.5
378,73,90008,6,0,P|292:69|248:135,1,131.25
248,113,90320,2,0,L|204:108,1,43.75
120,131,90476,2,0,L|76:136,1,43.75
0,180,90633,2,0,P|55:170|173:237,1,175
207,291,91101,1,0,0:0:0:0:
22,296,91258,6,0,P|-12:242|0:179,1,131.25
12,162,91570,1,0,0:0:0:0:
87,343,91726,1,0,0:0:0:0:
75,117,91883,2,0,P|137:128|191:93,1,131.25
204,75,92195,1,0,0:0:0:0:
162,264,92351,1,0,0:0:0:0:
252,240,92508,6,0,L|65:227,1,175
103,311,92976,1,0,0:0:0:0:
284,161,93133,2,0,P|321:187|330:281,1,131.25
329,288,93445,2,0,L|335:340,1,43.75
375,117,93601,2,0,L|369:65,1,43.75
425,256,93758,6,0,L|513:269,1,87.5
352,195,94070,1,0,0:0:0:0:
376,367,94226,1,0,0:0:0:0:
352,195,94383,2,0,P|280:176|205:218,1,131.25
212,209,94695,2,0,B|117:204|117:204|54:219,1,131.25
62,222,95008,5,0,0:0:0:0:
94,49,95164,1,0,0:0:0:0:
57,243,95320,1,0,0:0:0:0:
0,123,95476,2,0,L|113:139,1,87.5
173,146,95789,1,0,0:0:0:0:
94,49,95945,2,0,L|207:33,1,87.5
86,158,96258,6,0,L|199:142,1,87.5,8|0,0:0|0:0,0:0:0:0:
258,132,96570,1,0,0:0:0:0:
202,297,96726,1,0,0:0:0:0:
258,132,96883,2,0,L|371:116,1,87.5,8|0,0:0|0:0,0:0:0:0:
430,106,97195,1,0,0:0:0:0:
374,271,97351,1,0,0:0:0:0:
430,106,97508,6,0,B|382:122|367:176|367:176|396:138|435:117|488:127,1,229.687508761883
500,138,98133,2,0,B|481:199|481:199|484:282|484:282|486:230|435:188,1,229.687508761883
435,193,98758,6,0,L|187:211,1,229.687508761883
185,220,99383,2,0,P|141:206|68:227,1,98.4375037550928
72,228,99695,2,0,L|81:109,1,98.4375037550928
82,107,100008,6,0,B|136:113|136:113|176:110,1,87.5
251,97,100476,1,0,0:0:0:0:
251,97,100633,2,0,L|345:91,1,87.5,8|0,0:0|0:0,0:0:0:0:
421,85,101101,1,0,0:0:0:0:
421,85,101258,6,0,P|416:143|420:188,1,87.5
437,257,101726,1,0,0:0:0:0:
437,257,101883,2,0,P|379:252|334:256,1,87.5,8|0,0:0|0:0,0:0:0:0:
263,263,102351,1,0,0:0:0:0:
269,175,102508,6,0,L|262:270,1,87.5
257,349,102976,1,0,0:0:0:0:
257,349,103133,2,0,B|221:335|221:335|155:340,1,87.5,8|0,0:0|0:0,0:0:0:0:
86,352,103601,1,0,0:0:0:0:
86,352,103758,6,0,L|91:280,1,65.625
93,264,104070,2,0,L|98:192,1,65.625
99,176,104383,2,0,P|103:144|121:107,1,65.625
129,96,104695,2,0,P|152:74|190:57,1,65.625
203,53,105008,6,0,P|237:47|306:63,1,87.5
369,87,105476,1,0,0:0:0:0:
369,87,105633,2,0,B|366:141|366:141|378:184,1,87.5,8|0,0:0|0:0,0:0:0:0:
406,254,106101,1,0,0:0:0:0:
406,254,106258,6,0,L|301:246,1,87.5
231,240,106726,1,0,0:0:0:0:
231,240,106883,2,0,P|198:229|143:246,1,87.5,8|0,0:0|0:0,0:0:0:0:
80,296,107351,1,0,0:0:0:0:
70,209,107508,6,0,L|79:295,1,87.5
91,382,107976,1,0,0:0:0:0:
91,382,108133,2,0,B|124:362|124:362|186:357,1,87.5,8|0,0:0|0:0,0:0:0:0:
259,351,108601,1,0,0:0:0:0:
259,351,108758,6,0,P|263:302|279:274,1,65.625
279,267,109070,2,0,P|275:218|259:190,1,65.625
258,183,109383,2,0,L|190:178,1,65.625
170,175,109695,2,0,B|123:171|123:171|101:162,1,65.625
88,150,110008,6,0,L|92:252,1,87.5
99,324,110476,1,0,0:0:0:0:
99,324,110633,2,0,P|131:303|190:312,1,87.5,8|0,0:0|0:0,0:0:0:0:
254,349,111101,1,0,0:0:0:0:
254,349,111258,6,0,P|233:317|242:258,1,87.5
268,188,111726,1,0,0:0:0:0:
268,188,111883,2,0,L|370:183,1,87.5,8|0,0:0|0:0,0:0:0:0:
442,178,112351,1,0,0:0:0:0:
437,91,112508,6,0,P|443:123|441:180,1,87.5
426,263,112976,1,0,0:0:0:0:
425,262,113133,2,0,L|321:267,1,87.5,8|0,0:0|0:0,0:0:0:0:
250,270,113601,1,0,0:0:0:0:
250,270,113758,6,0,P|203:270|168:277,1,65.625
163,279,114070,2,0,P|126:309|104:337,1,65.625
100,340,114383,2,0,L|26:332,1,65.625
13,328,114695,2,0,P|11:286|25:250,1,65.625
28,244,115008,6,0,L|39:149,1,87.5
51,70,115476,1,0,0:0:0:0:
51,70,115633,2,0,P|91:81|141:76,1,87.5,8|0,0:0|0:0,0:0:0:0:
220,52,116101,1,0,0:0:0:0:
220,52,116258,6,0,B|223:115|223:115|241:144,1,87.5
293,201,116726,1,0,0:0:0:0:
293,201,116883,2,0,L|391:189,1,87.5,8|0,0:0|0:0,0:0:0:0:
466,176,117351,1,0,0:0:0:0:
467,89,117508,6,0,P|461:125|469:191,1,87.5
481,261,117976,1,0,0:0:0:0:
481,261,118133,2,0,L|388:253,1,87.5,8|0,0:0|0:0,0:0:0:0:
306,262,118601,1,0,0:0:0:0:
306,262,118758,6,0,L|213:270,2,87.5
