osu file format v14

[General]
AudioFilename: ODESZA - Always This Late.mp3
AudioLeadIn: 1200
PreviewTime: 66337
Countdown: 0
SampleSet: Soft
StackLeniency: 0.7
Mode: 0
LetterboxInBreaks: 0
WidescreenStoryboard: 0

[Editor]
Bookmarks: 22731,45320,67908,90496,98554
DistanceSpacing: 1.4
BeatDivisor: 4
GridSize: 32
TimelineZoom: 1.1

[Metadata]
Title:Always This Late
TitleUnicode:Always This Late
Artist:ODESZA
ArtistUnicode:ODESZA
Creator:Milan-
Version:Normal
Source:
Tags:chillout lullaby in return blues
BeatmapID:515868
BeatmapSetID:220443

[Difficulty]
HPDrainRate:3
CircleSize:3.5
OverallDifficulty:3
ApproachRate:4
SliderMultiplier:1.3
SliderTickRate:1

[Events]
//Background and Video events
0,0,"Konachan.com - 188240 aira_mamiya original scenic tagme.jpg",0,0
//Break Periods
//Storyboard Layer 0 (Background)
//Storyboard Layer 1 (Fail)
//Storyboard Layer 2 (Pass)
//Storyboard Layer 3 (Foreground)
//Storyboard Sound Samples

[TimingPoints]
160.610494014377,705.882352941176,4,2,1,42,1,0
22748,-100,4,2,2,35,0,0
45337,-100,4,2,1,45,0,0
67219,-100,4,2,1,35,0,0
67925,-100,4,2,1,48,0,1
87690,-100,4,2,1,35,0,0
90513,-100,4,2,2,42,0,0

[Colours]
Combo1 : 0,152,225
Combo2 : 167,84,84
Combo3 : 9,126,136

[HitObjects]
51,69,160,6,0,L|182:55,1,130,8|8,1:2|0:0,0:0:0:0:
265,88,1219,1,0,3:0:0:0:
193,144,1572,1,8,0:0:0:0:
162,229,1925,2,0,L|130:285,2,65,2|8|2,0:0|0:0|0:0,0:0:0:0:
206,220,2807,1,0,3:0:0:0:
251,213,2984,5,8,1:2:0:0:
421,148,3690,2,0,P|442:208|424:270,1,130,8|8,0:0|0:0,0:0:0:0:
346,317,4748,2,0,P|345:349|350:381,2,65,2|8|2,0:0|0:0|0:0,0:0:0:0:
345,271,5631,1,0,3:0:0:0:
336,226,5807,5,8,1:2:0:0:
251,64,6513,2,0,L|171:70,1,65,8|0,0:0|3:0,0:0:0:0:
102,32,7219,1,8,0:0:0:0:
24,78,7572,2,0,P|15:46|14:14,2,65,2|8|2,0:0|0:0|0:0,0:0:0:0:
59,108,8454,1,0,3:0:0:0:
97,133,8631,6,0,P|126:189|116:252,1,130,8|8,1:2|0:0,0:0:0:0:
257,368,10042,1,8,0:0:0:0:
323,305,10395,2,0,P|366:301|406:307,1,65,2|8,0:0|0:0,0:0:0:0:
472,336,11101,1,2,0:0:0:0:
482,291,11278,1,0,3:0:0:0:
462,250,11454,6,0,P|457:200|460:102,1,130,8|8,1:2|0:0,0:0:0:0:
485,33,12513,1,0,3:0:0:0:
395,47,12866,1,8,0:0:0:0:
304,38,13219,2,0,P|272:34|240:34,2,65,2|8|2,0:0|0:0|0:0,0:0:0:0:
319,81,14101,1,0,3:0:0:0:
318,126,14278,5,8,1:2:0:0:
139,95,14984,2,0,P|76:108|30:152,1,130,8|8,0:0|0:0,0:0:0:0:
32,243,16042,2,0,L|26:332,2,65,2|8|2,0:0|0:0|0:0,0:0:0:0:
75,227,16925,1,0,3:0:0:0:
117,210,17101,5,8,1:2:0:0:
274,300,17807,2,0,L|338:295,1,65,8|0,0:0|3:0,0:0:0:0:
423,261,18513,1,8,0:0:0:0:
430,170,18866,2,0,P|461:177|488:195,2,65,2|8|2,0:0|0:0|0:0,0:0:0:0:
384,174,19748,1,0,3:0:0:0:
341,190,19925,6,0,P|278:190|226:152,1,130,8|8,1:2|0:0,0:0:0:0:
80,41,21337,1,8,0:0:0:0:
109,127,21690,2,0,P|118:159|118:191,1,65,2|8,0:0|0:0,0:0:0:0:
98,279,22395,1,2,0:0:0:0:
121,318,22572,1,0,3:0:0:0:
161,339,22748,6,0,B|209:335|209:335|243:341|243:341|290:337,1,130,2|0,0:0|0:0,0:0:0:0:
483,151,24513,5,0,0:0:0:0:
400,111,24866,2,0,B|352:107|352:107|318:113|318:113|271:109,1,130,0|2,0:0|0:0,0:0:0:0:
55,272,27337,5,0,0:0:0:0:
128,325,27690,2,0,B|181:316|181:316|214:335|270:324,1,130,0|2,0:0|0:0,0:0:0:0:
393,42,30160,5,0,0:0:0:0:
379,131,30513,2,0,B|380:167|380:167|387:225,2,65,0|0|2,0:0|0:0|0:0,0:0:0:0:
45,220,32984,5,0,0:0:0:0:
96,295,33337,2,0,L|182:300,1,65,0|0,0:0|0:0,0:0:0:0:
252,303,34042,1,2,0:0:0:0:
476,44,35807,5,0,0:0:0:0:
395,84,36160,2,0,B|343:77|343:77|318:63|318:63|263:54,1,130,0|2,0:0|0:0,0:0:0:0:
78,161,38631,5,0,0:0:0:0:
122,240,38984,2,0,B|97:302|144:311|122:373,1,130,0|2,0:0|0:0,0:0:0:0:
453,238,41454,5,0,0:0:0:0:
415,155,41807,2,0,B|431:117|431:117|438:88,2,65,0|0|2,0:0|0:0|0:0,0:0:0:0:
174,66,44278,5,0,0:0:0:0:
123,141,44631,2,0,L|123:209,1,65,0|0,0:0|0:0,0:0:0:0:
83,288,45337,6,0,P|145:296|197:259,1,130,8|8,1:2|0:0,0:0:0:0:
261,88,46748,2,0,L|285:168,1,65,8|8,0:0|0:0,0:0:0:0:
288,241,47454,2,0,L|312:321,1,65,8|2,0:0|0:0,0:0:0:0:
345,328,47984,1,0,3:0:0:0:
389,339,48160,6,0,P|446:313|471:255,1,130,8|8,1:2|0:0,0:0:0:0:
451,74,49572,2,0,L|432:136,1,65,8|8,0:0|0:0,0:0:0:0:
366,199,50278,2,0,L|347:136,1,65,8|2,0:0|0:0,0:0:0:0:
311,108,50807,1,0,3:0:0:0:
272,84,50984,6,0,L|128:88,1,130,8|8,1:2|0:0,0:0:0:0:
75,149,52042,2,0,P|55:123|48:91,2,65,0|8|8,3:0|0:0|0:0,0:0:0:0:
162,175,53101,6,0,L|291:171,2,130,8|8|8,0:0|1:2|0:0,0:0:0:0:
59,325,55219,2,0,L|86:260,1,65,8|8,0:0|0:0,0:0:0:0:
175,266,55925,2,0,L|199:326,1,65,8|2,0:0|0:0,0:0:0:0:
241,344,56454,1,0,3:0:0:0:
284,360,56631,6,0,P|335:326|415:321,1,130,8|8,1:2|0:0,0:0:0:0:
481,273,57690,2,0,P|490:303|491:336,2,65,0|8|8,3:0|0:0|0:0,0:0:0:0:
427,198,58748,2,0,P|417:167|416:134,1,65,8|2,0:0|0:0,0:0:0:0:
435,93,59278,1,0,3:0:0:0:
467,61,59454,6,0,L|327:68,1,130,8|8,1:2|0:0,0:0:0:0:
173,147,60866,2,0,L|239:150,1,65,8|8,0:0|0:0,0:0:0:0:
290,224,61572,2,0,L|201:229,1,65,8|2,0:0|0:0,0:0:0:0:
179,231,62101,1,0,0:0:0:0:
133,226,62278,6,0,P|89:171|98:106,2,130,8|8|8,1:2|0:0|0:0,0:0:0:0:
179,147,64042,1,8,0:0:0:0:
257,192,64395,2,0,P|262:224|262:280,1,65,8|2,0:0|0:0,0:0:0:0:
265,302,64925,1,0,3:0:0:0:
269,347,65101,6,0,P|311:355|356:357,2,65,8|2|8,1:2|0:0|0:0,0:0:0:0:
151,207,66513,2,0,P|118:211|86:217,1,65,8|8,0:0|0:0,0:0:0:0:
10,167,67219,2,0,L|10:73,1,65
64,28,67925,6,0,P|153:22|216:15,1,130,8|8,1:2|0:0,0:0:0:0:
274,64,68984,1,0,3:0:0:0:
304,152,69337,2,0,L|319:229,1,65,8|2,0:0|0:0,0:0:0:0:
393,264,70042,2,0,L|405:200,1,65,8|2,0:0|0:0,0:0:0:0:
400,154,70572,1,0,3:0:0:0:
386,110,70748,6,0,P|336:68|273:64,1,130,8|8,1:2|0:0,0:0:0:0:
191,106,71807,1,0,3:0:0:0:
101,90,72160,2,0,L|13:101,1,65,8|2,0:0|0:0,0:0:0:0:
13,186,72866,2,0,L|77:194,1,65,8|2,0:0|0:0,0:0:0:0:
112,223,73395,1,0,3:0:0:0:
149,249,73572,6,0,L|290:238,1,130,8|8,1:2|0:0,0:0:0:0:
357,192,74631,1,0,3:0:0:0:
432,243,74984,2,0,P|444:213|446:180,1,65,8|2,0:0|0:0,0:0:0:0:
391,108,75690,6,0,L|261:97,2,130,8|8|8,0:0|1:2|0:0,0:0:0:0:
357,192,77454,1,0,3:0:0:0:
284,248,77807,2,0,P|284:280|286:312,1,65,8|2,0:0|0:0,0:0:0:0:
220,375,78513,2,0,P|186:366|130:364,1,65,8|2,0:0|0:0,0:0:0:0:
110,363,79042,1,0,3:0:0:0:
66,377,79219,6,0,L|51:239,1,130,8|8,1:2|0:0,0:0:0:0:
76,159,80278,1,0,3:0:0:0:
156,202,80631,2,0,L|233:195,1,65,8|2,0:0|0:0,0:0:0:0:
262,114,81337,2,0,L|339:107,1,65,8|2,0:0|0:0,0:0:0:0:
367,129,81866,1,0,3:0:0:0:
404,156,82042,6,0,P|413:92|381:37,1,130,8|8,1:2|0:0,0:0:0:0:
291,28,83101,1,0,3:0:0:0:
262,114,83454,2,0,P|258:157|262:194,1,65,8|2,0:0|0:0,0:0:0:0:
258,269,84160,2,0,P|232:288|203:303,1,65,8|2,0:0|0:0,0:0:0:0:
157,309,84690,1,0,3:0:0:0:
121,281,84866,6,0,P|124:218|167:170,1,130,8|8,1:2|0:0,0:0:0:0:
259,178,85925,1,0,3:0:0:0:
333,125,86278,2,0,L|398:122,1,65,8|2,0:0|0:0,0:0:0:0:
477,166,86984,2,0,B|441:224|490:244|460:311,1,130,8|2,0:0|0:0,0:0:0:0:
256,192,87866,12,2,90513,0:0:0:0:
