osu file format v14

[General]
AudioFilename: OCTiV_-_Lens.mp3
AudioLeadIn: 0
PreviewTime: 43438
Countdown: 0
SampleSet: Soft
StackLeniency: 0.7
Mode: 0
LetterboxInBreaks: 0
WidescreenStoryboard: 0

[Editor]
DistanceSpacing: 0.8
BeatDivisor: 4
GridSize: 8
TimelineZoom: 3.399999

[Metadata]
Title:Lens
TitleUnicode:Lens
Artist:OCTiV
ArtistUnicode:OCTiV
Creator:Rue
Version:3071
Source:
Tags:drumstep dubstep
BeatmapID:747654
BeatmapSetID:337992

[Difficulty]
HPDrainRate:5
CircleSize:4
OverallDifficulty:6
ApproachRate:9.3
SliderMultiplier:1.4
SliderTickRate:1

[Events]
//Background and Video events
0,0,"3071.jpg",0,0
//Break Periods
2,103981,119684
//Storyboard Layer 0 (Background)
//Storyboard Layer 1 (Fail)
//Storyboard Layer 2 (Pass)
//Storyboard Layer 3 (Foreground)
//Storyboard Sound Samples

[TimingPoints]
924,342.857142857143,4,2,0,50,1,0
3238,-117.647058823529,4,2,1,20,0,0
5038,-117.647058823529,4,2,1,30,0,0
26981,-100,4,2,1,30,0,0
43352,-100,4,2,1,30,0,1
43438,-71.4285714285714,4,2,1,50,0,1
43781,-71.4285714285714,4,2,1,50,0,0
46095,-71.4285714285714,4,2,1,50,0,1
49095,-71.4285714285714,4,2,1,50,0,0
50209,-71.4285714285714,4,2,1,50,0,0
52266,-71.4285714285714,4,2,1,50,0,1
54066,-71.4285714285714,4,2,0,30,0,1
54409,-71.4285714285714,4,2,1,50,0,1
54752,-71.4285714285714,4,2,1,50,0,0
58524,-71.4285714285714,4,2,1,50,0,1
59809,-71.4285714285714,4,2,1,50,0,0
59895,-100,4,2,1,50,0,1
60924,-100,4,2,1,50,0,0
64352,-100,4,2,1,50,0,0
64695,-100,4,2,0,40,0,0
65295,-100,4,2,0,50,0,0
65381,-133.333333333333,4,2,1,50,0,0
89981,-100,4,2,0,50,0,0
120152,-100,4,2,0,50,0,0
147666,-71.4285714285714,4,2,0,50,0,0
148266,-133.333333333333,4,2,0,40,0,0
149038,-71.4285714285714,4,2,1,40,0,0
150152,-133.333333333333,4,2,1,40,0,0
151009,-58.8235294117647,4,2,1,40,0,0
153752,-133.333333333333,4,2,1,40,0,0
154781,-58.8235294117647,4,2,1,40,0,0
155124,-133.333333333333,4,2,1,40,0,0
155809,-58.8235294117647,4,2,1,40,0,0
156495,-133.333333333333,4,2,1,40,0,0
157181,-58.8235294117647,4,2,1,40,0,0
159238,-133.333333333333,4,2,1,40,0,0
160181,-58.8235294117647,4,2,1,40,0,0
161381,-133.333333333333,4,2,1,40,0,0
162924,-58.8235294117647,4,2,1,40,0,0
164124,-133.333333333333,4,2,1,40,0,0
166781,-58.8235294117647,4,2,1,40,0,0
169609,-117.647058823529,4,2,1,40,0,0
193524,-117.647058823529,4,2,1,20,0,0

[Colours]
Combo1 : 17,254,176
Combo2 : 173,255,95
Combo3 : 255,88,100
Combo4 : 255,94,55

[HitObjects]
320,208,3324,6,0,P|328:248|328:296,2,89.2500017023087,0|0|0,1:0|1:0|1:0,0:0:0:0:
184,136,4095,1,0,0:0:0:0:
184,136,4181,1,2,0:0:0:0:
320,208,4352,5,4,1:0:0:0:
280,104,4524,1,4,0:0:0:0:
216,240,4695,1,0,1:0:0:0:
408,136,4866,1,2,0:0:0:0:
408,136,4952,1,0,0:0:0:0:
408,136,5038,2,0,P|432:216|416:368,2,238.00000453949,4|8|4,1:0|1:2|0:0,0:0:0:0:
272,160,6752,2,0,P|256:128|248:96,1,59.5000011348725,0|0,1:0|0:0,0:0:0:0:
296,168,7095,2,0,P|200:184|64:224,1,238.00000453949,8|4,1:2|0:1,0:0:0:0:
65,224,8124,6,0,P|56:200|51:156,1,59.5000011348725,2|0,0:0|0:0,0:0:0:0:
160,232,8466,1,8,1:2:0:0:
64,224,8638,1,0,0:0:0:0:
160,232,8809,2,0,P|176:296|176:360,2,119.000002269745,4|0|2,0:0|1:0|0:0,0:0:0:0:
120,160,9666,1,2,0:0:0:0:
120,160,9752,1,0,0:0:0:0:
120,160,9838,2,0,L|184:168,1,59.5000011348725,0|0,1:0|0:0,0:0:0:0:
102,82,10181,1,4,0:0:0:0:
86,2,10352,5,4,0:0:0:0:
86,2,10438,1,0,0:0:0:0:
86,2,10524,2,0,P|192:16|328:32,2,238.00000453949,4|8|4,1:0|1:2|0:0,0:0:0:0:
248,72,12238,1,0,1:0:0:0:
328,120,12409,1,0,0:0:0:0:
400,56,12581,2,0,P|416:144|406:305,1,238.00000453949,8|4,1:2|0:0,0:0:0:0:
320,144,13609,1,2,0:0:0:0:
264,264,13781,1,0,0:0:0:0:
304,168,13952,2,0,P|255:171|56:184,2,238.00000453949,8|4|0,1:2|0:0|1:0,0:0:0:0:
440,72,15666,1,4,0:2:0:0:
440,72,15838,5,6,0:0:0:0:
448,88,15924,1,0,0:0:0:0:
456,104,16009,2,0,P|472:192|464:288,1,178.500003404617,4|0,1:0|2:2,0:0:0:0:
368,368,16695,2,0,P|352:280|360:184,1,178.500003404617,8|0,1:2|2:2,0:0:0:0:
360,192,17381,2,0,P|296:208|232:216,2,119.000002269745,0|0|8,1:0|1:2|1:2,1:0:0:0:
368,104,18238,1,0,2:0:0:0:
280,112,18409,2,0,P|288:72|288:40,1,59.5000011348725,4|0,1:0|2:0,1:0:0:0:
472,136,18752,6,0,P|480:184|480:208,1,59.5000011348725,4|2,1:0|0:0,0:0:0:0:
387,102,19095,1,0,0:0:0:0:
421,18,19267,1,2,0:0:0:0:
501,50,19438,1,8,1:2:0:0:
387,102,19609,5,2,0:0:0:0:
325,2,19781,1,0,0:0:0:0:
205,50,19953,1,2,0:0:0:0:
277,154,20124,1,4,0:0:0:0:
293,74,20295,5,2,0:0:0:0:
240,232,20466,1,0,0:0:0:0:
240,232,20638,1,2,0:0:0:0:
328,224,20809,5,8,1:2:0:0:
208,312,20981,1,0,0:0:0:0:
192,160,21152,1,4,1:0:0:0:
328,224,21324,1,6,0:2:0:0:
328,224,21409,1,0,0:0:0:0:
328,224,21495,2,0,P|344:264|352:288,1,59.5000011348725,4|0,1:0|0:0,0:0:0:0:
349,279,21838,2,0,L|229:295,1,119.000002269745,0|8,1:0|1:2,0:0:0:0:
192,160,22352,1,2,0:0:0:0:
192,160,22524,2,0,P|184:120|184:96,1,59.5000011348725,4|0,1:0|0:0,0:0:0:0:
296,56,22866,5,4,1:0:0:0:
384,112,23038,1,0,0:0:0:0:
280,192,23209,2,0,P|285:132|293:74,2,119.000002269745,0|8|4,1:0|1:2|1:0,0:0:0:0:
456,112,24066,1,2,0:0:0:0:
392,232,24238,2,0,P|380:290|373:350,1,119.000002269745,4|0,1:0|0:0,0:0:0:0:
168,344,24752,5,0,0:0:0:0:
224,280,24924,2,0,P|253:285|281:295,1,59.5000011348725,8|2,1:2|0:0,0:0:0:0:
48,240,25266,1,4,1:0:0:0:
48,240,25609,2,0,P|51:272|54:297,1,48.9999985046387,4|2,1:0|0:0,0:0:0:0:
32,152,25952,1,0,1:0:0:0:
168,344,26124,1,0,1:0:0:0:
256,192,26295,1,8,1:2:0:0:
128,32,26466,1,2,0:0:0:0:
32,152,26638,1,4,1:2:0:0:
113,283,26809,5,4,0:0:0:0:
136,320,26895,1,0,0:0:0:0:
176,352,26981,2,0,P|232:376|312:376,1,140,4|0,1:0|1:0,0:0:0:0:
352,184,27495,1,2,0:0:0:0:
464,192,27666,2,0,P|461:235|456:272,1,70,8|0,1:2|0:0,0:0:0:0:
352,184,28009,2,0,P|354:140|360:104,1,70,4|0,0:2|0:0,0:0:0:0:
344,304,28352,5,4,1:0:0:0:
344,304,28695,2,0,L|264:320,1,70,4|0,0:0|0:0,0:0:0:0:
256,224,29038,2,0,P|248:176|248:96,1,105,8|0,1:2|0:0,0:0:0:0:
246,119,29381,2,0,L|328:128,1,70,4|0,1:0|0:0,0:0:0:0:
280,32,29724,2,0,P|256:88|240:168,1,140,4|0,1:0|1:0,0:0:0:0:
264,352,30238,1,2,0:0:0:0:
240,256,30409,2,0,L|152:272,1,70,8|0,1:2|0:0,0:0:0:0:
264,352,30752,1,4,1:0:0:0:
264,352,31095,2,0,L|332:339,1,70,4|0,1:0|0:0,0:0:0:0:
208,200,31438,1,4,1:0:0:0:
328,184,31609,1,4,1:0:0:0:
208,200,31781,2,0,L|48:224,1,140,8|4,1:2|0:0,0:0:0:0:
56,96,32295,5,4,0:0:0:0:
96,88,32381,1,0,0:0:0:0:
136,80,32466,2,0,L|288:56,1,140,4|0,1:0|1:0,0:0:0:0:
440,32,32981,1,0,0:0:0:0:
440,32,33152,1,8,1:2:0:0:
440,32,33324,1,2,0:0:0:0:
440,32,33495,2,0,P|400:40|360:64,1,70,4|0,0:0|0:0,0:0:0:0:
304,96,33838,2,0,P|312:160|304:248,1,140,4|0,1:0|1:0,0:0:0:0:
216,256,34352,1,2,0:0:0:0:
128,288,34524,2,0,P|144:336|152:376,1,70,8|0,1:2|0:0,0:0:0:0:
216,256,34866,2,0,P|200:208|192:168,1,70,4|0,1:0|0:0,0:0:0:0:
72,56,35209,6,0,P|96:120|120:200,1,140,4|2,1:0|0:0,0:0:0:0:
216,256,35724,1,2,0:0:0:0:
256,144,35895,1,8,1:2:0:0:
256,24,36066,1,4,0:0:0:0:
256,144,36238,1,2,0:0:0:0:
360,80,36409,1,0,1:0:0:0:
360,80,36495,5,0,0:0:0:0:
360,80,36581,2,0,P|424:72|504:112,1,140,4|2,1:0|0:0,0:0:0:0:
344,264,37095,2,0,P|345:229|352:194,2,70,0|8|2,1:0|1:2|2:0,1:0:0:0:
432,360,37609,2,0,P|440:312|440:280,1,70,0|2,1:0|0:0,0:0:0:0:
424,160,37952,1,0,1:0:0:0:
424,160,38295,1,0,1:0:0:0:
424,160,38638,5,0,1:0:0:0:
512,208,38809,1,4,2:0:0:0:
208,208,38981,5,0,1:0:0:0:
304,160,39152,1,4,2:0:0:0:
64,120,39324,5,4,1:0:0:0:
64,120,39666,1,0,1:0:0:0:
64,120,40009,6,0,L|112:144|128:152,1,70,0|4,1:0|0:0,0:0:0:0:
128,48,40352,6,0,L|80:24|64:16,1,70,0|4,1:0|0:0,0:0:0:0:
256,80,40695,6,0,L|280:32|288:16,1,70,0|4,1:0|1:0,0:0:0:0:
384,104,41038,6,0,L|432:128|448:136,1,70,2|2,2:0|0:0,0:0:0:0:
248,264,41381,6,0,L|296:288|312:296,1,70,0|4,1:0|1:0,0:0:0:0:
248,144,41724,6,0,L|296:168|312:176,1,70,2|2,2:0|0:0,0:0:0:0:
384,104,42066,1,0,1:0:0:0:
448,32,42238,1,2,1:2:0:0:
336,200,42409,1,2,1:2:0:0:
352,304,42581,1,2,1:2:0:0:
248,144,42752,6,2,B|195:131|168:135|168:135|201:133|218:137|218:137|133:124|80:168,1,245,6|0,1:0|2:0,1:0:0:0:
104,144,43438,6,0,P|112:232|112:352,1,195.999994018555,4|0,1:0|0:0,0:0:0:0:
112,339,44124,6,0,P|64:336|48:240,1,146.999995513916,4|0,1:2|0:0,0:0:0:0:
48,232,44466,2,0,P|112:240|152:240,1,97.9999970092774,4|0,1:0|0:0,0:0:0:0:
312,304,44809,2,0,P|264:313|215:317,1,97.9999970092774,0|0,1:0|0:0,0:0:0:0:
304,192,45152,1,2,0:0:0:0:
432,168,45324,1,2,0:0:0:0:
215,316,45495,2,0,P|207:252|207:212,1,97.9999970092774,8|0,1:2|0:0,0:0:0:0:
184,120,45838,2,0,L|120:136|88:144,1,97.9999970092774,4|0,1:2|0:0,0:0:0:0:
304,192,46181,6,2,P|368:200|464:200,1,146.999995513916,4|2,2:2|0:0,1:0:0:0:
488,192,46524,1,4,1:0:0:0:
464,80,46695,6,2,P|424:32|320:64,1,146.999995513916,2|0,0:0|0:0,1:0:0:0:
184,120,47038,1,2,1:0:0:0:
304,192,47209,1,2,1:0:0:0:
241,36,47381,1,2,0:0:0:0:
56,112,47552,6,2,P|64:160|64:216,1,97.9999970092774,4|2,1:0|2:1,1:0:0:0:
170,324,47895,6,2,P|177:275|177:226,1,97.9999970092774,6|2,1:2|2:1,1:0:0:0:
184,120,48238,6,2,P|232:127|281:126,1,97.9999970092774,10|2,1:2|2:2,1:0:0:0:
304,120,48495,1,0,0:0:0:0:
328,104,48581,1,0,0:0:0:0:
320,136,48666,1,0,0:0:0:0:
312,168,48752,1,0,0:0:0:0:
304,200,48838,1,0,0:0:0:0:
296,232,48924,6,0,P|288:280|296:352,1,97.9999970092774,4|0,1:0|2:0,0:0:0:0:
170,324,49266,1,0,2:0:0:0:
24,352,49438,1,2,2:0:0:0:
170,324,49609,2,0,P|184:227|138:132,1,195.999994018555,4|4,1:2|1:0,0:0:0:0:
145,140,50295,6,2,P|80:160|48:160,1,97.9999970092774,4|0,1:0|2:0,1:0:0:0:
24,48,50638,1,2,1:0:0:0:
144,136,50809,1,2,1:0:0:0:
80,280,50981,2,2,P|80:344|72:376,1,97.9999970092774,10|0,1:2|2:0,1:0:0:0:
56,168,51324,2,0,P|152:136|256:128,2,195.999994018555,2|6|2,1:0|1:0|2:0,1:0:0:0:
224,248,52181,2,2,P|280:248|336:224,1,97.9999970092774,0|4,1:0|1:0,1:0:0:0:
480,136,52524,1,2,1:0:0:0:
424,264,52695,2,2,P|416:320|416:376,1,97.9999970092774,0|2,1:0|1:0,1:0:0:0:
360,112,53038,2,2,P|368:56|368:0,1,97.9999970092774,0|0,1:0|2:0,1:0:0:0:
480,136,53381,2,2,P|486:87|498:40,1,97.9999970092774,0|0,1:0|1:0,1:0:0:0:
502,32,53638,1,0,1:0:0:0:
507,23,53724,1,0,1:0:0:0:
360,112,53895,5,0,1:0:0:0:
320,128,53981,1,0,1:0:0:0:
265,122,54066,1,8,1:2:0:0:
239,80,54152,1,8,1:2:0:0:
249,30,54238,1,8,1:2:0:0:
298,14,54324,1,8,1:2:0:0:
344,16,54409,6,0,P|352:88|336:192,1,146.999995513916,4|0,1:0|2:2,1:1:0:0:
200,200,54752,2,0,L|104:216,1,97.9999970092774,2|0,2:2|0:0,0:0:0:0:
288,368,55095,2,0,L|272:272,1,97.9999970092774,4|0,1:2|0:0,0:0:0:0:
120,72,55438,2,0,L|152:270,1,195.999994018555,4|4,1:0|1:0,0:0:0:0:
120,72,56124,5,2,1:0:0:0:
0,184,56295,1,2,1:0:0:0:
152,272,56466,2,2,P|208:296|264:312,1,97.9999970092774,10|0,1:2|2:0,1:0:0:0:
136,168,56809,2,2,P|80:192|24:208,1,97.9999970092774,4|0,1:0|2:0,1:0:0:0:
120,72,57152,2,2,P|232:80|312:48,1,195.999994018555,6|2,1:0|1:2,1:0:0:0:
24,24,57666,1,2,0:0:0:0:
120,72,57838,6,2,P|232:80|312:48,1,195.999994018555,6|2,1:0|1:2,1:0:0:0:
408,24,58352,1,2,0:0:0:0:
416,120,58524,2,0,L|424:224,1,97.9999970092774,4|0,1:0|0:0,0:0:0:0:
320,144,58866,2,0,L|312:40,1,97.9999970092774,4|2,1:2|0:0,0:0:0:0:
408,24,59209,1,8,1:2:0:0:
320,144,59381,1,2,0:0:0:0:
200,32,59552,1,0,1:0:0:0:
219,50,59638,1,0,1:0:0:0:
231,75,59724,1,0,1:0:0:0:
236,105,59809,1,0,1:0:0:0:
238,136,59895,6,0,P|222:207|174:261,1,140,4|2,1:0|2:0,1:0:0:0:
320,144,60581,2,2,B|360:176|360:176|480:160,1,140,8|0,1:2|2:0,0:0:0:0:
447,164,61266,2,2,L|432:304,1,140,4|0,1:0|1:0,1:0:0:0:
248,240,61781,1,2,1:0:0:0:
336,272,61952,2,2,B|344:288|344:288|336:360,1,70,2|2,1:0|2:0,1:0:0:0:
184,376,62295,2,2,B|176:360|176:360|184:288,1,70,2|0,1:0|2:0,1:0:0:0:
128,88,62638,6,2,B|136:104|136:104|120:248,1,140,2|0,1:0|2:2,1:0:0:0:
122,225,63152,2,0,L|42:217,1,70,2|8,1:0|1:2,0:0:0:0:
32,120,63495,1,2,1:0:0:0:
128,88,63666,2,2,L|208:96,1,70,0|2,1:0|1:0,1:0:0:0:
224,184,64009,1,0,1:0:0:0:
224,184,64181,1,0,1:0:0:0:
310,166,64352,5,0,1:0:0:0:
322,168,64438,1,0,1:0:0:0:
334,170,64524,1,0,1:0:0:0:
346,173,64609,1,0,1:0:0:0:
360,176,64695,5,8,1:2:0:0:
356,203,64781,1,0,1:2:0:0:
353,230,64866,1,8,1:2:0:0:
349,257,64952,1,8,1:2:0:0:
343,292,65038,5,0,1:2:0:0:
296,288,65124,1,0,1:2:0:0:
248,280,65209,1,8,1:2:0:0:
200,272,65295,1,8,1:2:0:0:
152,264,65381,6,0,P|167:162|192:48,1,210.000008010865,4|4,1:0|1:2,0:0:0:0:
248,280,66409,2,0,P|252:222|265:164,2,105.000004005432,0|4|0,1:0|1:0|2:0,0:0:0:0:
352,208,67438,6,0,P|360:272|376:328,1,105.000004005432,4|2,2:2|2:0,0:0:0:0:
72,224,68124,1,4,1:0:0:0:
184,144,68466,6,0,P|192:216|224:368,1,210.000008010865,4|2,0:0|0:0,0:0:0:0:
40,64,69495,2,0,P|48:152|64:240,1,157.500006008148,4|0,1:0|1:0,0:0:0:0:
59,220,70095,1,0,1:0:0:0:
66,228,70181,1,4,1:2:0:0:
132,131,70524,2,0,P|158:124|184:120,1,52.5000020027161,4|2,1:0|0:0,0:0:0:0:
160,216,70866,6,0,P|152:280|264:360,1,210.000008010865,4|4,1:0|1:2,0:0:0:0:
384,152,71895,2,0,P|320:160|272:176,2,105.000004005432,0|4|2,1:0|1:0|0:0,0:0:0:0:
352,360,72924,2,0,P|336:328|328:248,1,105.000004005432,4|2,1:2|0:0,0:0:0:0:
384,152,73609,6,0,P|320:168|280:160,1,105.000004005432,4|0,1:0|0:0,0:0:0:0:
192,184,74124,2,0,P|176:216|176:224,2,26.2500010013581,0|0|4,1:0|1:0|1:2,1:0:0:0:
112,144,74638,1,2,0:0:0:0:
112,144,74981,6,0,L|120:256,1,105.000004005432,4|0,1:0|0:0,0:0:0:0:
384,120,75666,6,0,L|377:15,1,105.000004005432,4|0,1:0|0:0,0:0:0:0:
256,168,76352,6,0,L|272:384,1,210.000008010865,4|4,1:0|1:2,0:0:0:0:
112,128,77381,2,0,P|157:102|216:112,2,105.000004005432,0|4|0,1:0|1:0|0:0,0:0:0:0:
112,128,78409,2,0,L|120:240,1,105.000004005432,4|2,1:2|0:0,0:0:0:0:
192,32,79095,5,4,1:0:0:0:
216,144,79438,2,0,P|272:152|320:128,2,105.000004005432,0|4|2,2:0|1:2|0:0,0:0:0:0:
112,128,80466,2,0,L|104:23,1,105.000004005432,4|0,1:2|0:0,0:0:0:0:
152,232,81152,1,4,1:2:0:0:
152,232,81495,6,0,P|192:248|216:248,1,52.5000020027161,4|0,1:0|0:0,0:0:0:0:
200,248,81752,1,0,0:0:0:0:
200,248,81838,2,0,P|128:248|96:368,1,210.000008010865,4|4,1:0|1:2,0:0:0:0:
32,96,82866,2,0,P|48:152|48:208,2,105.000004005432,0|4|2,1:0|1:0|0:0,0:0:0:0:
168,128,83895,2,0,L|296:112,1,105.000004005432,4|2,1:2|0:0,0:0:0:0:
424,96,84581,1,4,1:0:0:0:
352,224,84924,2,0,P|306:229|230:246,1,105.000004005432,2|4,0:0|1:2,0:0:0:0:
464,200,85609,1,2,0:0:0:0:
360,136,85952,6,0,P|352:208|424:320,2,210.000008010865,4|4|4,1:0|1:0|2:0,0:0:0:0:
256,192,87409,12,0,89381,1:0:0:0:
448,48,89552,5,0,1:2:0:0:
328,104,89724,1,0,1:2:0:0:
432,152,89895,1,0,1:2:0:0:
344,32,90066,6,0,P|336:80|336:128,1,70,4|2,1:0|0:0,0:0:0:0:
432,152,90409,2,0,L|528:136,1,70,0|2,0:0|0:0,0:0:0:0:
304,216,90752,2,0,L|208:232,1,70,8|2,1:2|0:0,0:0:0:0:
408,272,91095,2,0,P|405:306|399:341,1,70,0|2,2:0|0:0,0:0:0:0:
304,216,91438,5,2,2:0:0:0:
328,104,91609,1,0,0:0:0:0:
432,152,91781,1,2,1:2:0:0:
304,216,91952,2,0,P|272:224|224:232,1,70,2|8,0:0|1:0,0:0:0:0:
88,112,92295,2,0,P|128:136|144:168,2,70,2|0|2,1:2|1:0|0:0,0:0:0:0:
40,256,92809,6,0,P|24:296|24:336,1,70,4|0,1:0|0:0,0:0:0:0:
88,112,93152,2,0,P|48:96|8:96,1,70,0|2,2:0|0:0,0:0:0:0:
256,104,93495,2,0,P|272:64|272:24,1,70,8|2,1:2|0:0,0:0:0:0:
208,248,93838,2,0,P|248:264|288:264,1,70,0|2,2:0|0:0,0:0:0:0:
472,160,94181,5,2,0:0:0:0:
472,304,94352,1,0,0:0:0:0:
368,104,94524,1,0,1:0:0:0:
384,216,94695,2,0,P|352:216|312:208,1,70,2|8,0:0|1:0,0:0:0:0:
240,160,95038,1,0,1:0:0:0:
368,104,95209,1,0,1:0:0:0:
304,304,95381,1,4,0:0:0:0:
152,248,95552,6,0,P|104:216|88:192,1,70,4|0,1:0|0:0,0:0:0:0:
112,320,95895,2,0,P|160:352|176:376,1,70,0|2,2:0|0:0,0:0:0:0:
336,232,96238,2,0,P|288:200|272:176,1,70,8|0,1:2|0:0,0:0:0:0:
304,304,96581,2,0,P|352:336|368:360,1,70,0|2,2:0|0:0,0:0:0:0:
336,232,96924,5,2,0:0:0:0:
256,256,97095,1,0,0:0:0:0:
176,280,97266,1,0,1:0:0:0:
120,168,97438,5,2,0:0:0:0:
192,200,97609,1,8,1:0:0:0:
208,64,97781,5,0,1:0:0:0:
128,80,97952,1,0,1:0:0:0:
256,128,98123,1,2,2:0:0:0:
264,136,98209,1,0,0:0:0:0:
264,136,98295,6,0,P|280:96|280:56,1,70,4|0,1:0|0:0,0:0:0:0:
192,200,98638,2,0,P|176:160|176:112,1,70,0|2,2:0|0:0,0:0:0:0:
288,248,98981,2,0,P|312:216|328:176,1,70,8|2,1:2|0:0,0:0:0:0:
192,328,99324,2,0,P|160:288|144:248,1,70,0|2,0:0|0:0,0:0:0:0:
192,200,99666,5,2,0:0:0:0:
192,328,99838,1,0,0:0:0:0:
80,248,100009,1,2,1:2:0:0:
96,136,100181,1,2,2:0:0:0:
96,136,100266,1,0,2:0:0:0:
96,136,100352,2,0,P|96:80|88:48,1,70,8|0,1:0|1:0,0:0:0:0:
160,8,100695,1,0,1:0:0:0:
192,200,100866,1,2,0:0:0:0:
248,80,101038,6,0,P|280:72|328:80,1,70,4|0,1:0|0:0,0:0:0:0:
344,176,101381,2,0,L|360:264,1,70,0|2,0:0|0:0,0:0:0:0:
456,288,101724,2,0,L|440:200,1,70,8|2,1:2|0:0,0:0:0:0:
416,104,102066,2,0,P|450:107|484:99,1,70,0|2,2:0|0:0,0:0:0:0:
512,16,102409,5,0,1:0:0:0:
344,176,102581,1,2,1:2:0:0:
328,88,102752,1,0,1:0:0:0:
328,88,102838,1,0,1:0:0:0:
328,88,102924,1,0,1:0:0:0:
328,88,103009,1,0,1:0:0:0:
328,88,103095,1,8,1:1:0:0:
488,192,103266,5,2,0:0:0:0:
280,272,103438,2,0,P|248:264|224:224,1,70,4|2,1:0|0:0,0:0:0:0:
200,144,103781,1,4,1:0:0:0:
256,184,120238,6,0,P|224:200|184:208,1,70,4|2,1:0|0:0,0:0:0:0:
144,80,120581,1,0,0:0:0:0:
144,80,120924,2,0,P|184:96|192:128,2,70,2|2|0,0:0|0:0|0:0,0:0:0:0:
96,160,121438,2,0,P|72:224|72:248,1,70,2|0,0:0|1:0,0:0:0:0:
64,56,121781,5,2,0:0:0:0:
144,80,121952,1,0,0:0:0:0:
224,56,122124,1,2,0:0:0:0:
304,72,122295,1,2,0:0:0:0:
304,72,122981,5,4,1:0:0:0:
224,56,123152,1,0,0:0:0:0:
144,80,123324,1,2,0:0:0:0:
144,80,123666,5,2,0:0:0:0:
224,56,123838,1,0,0:0:0:0:
304,72,124009,1,0,0:0:0:0:
384,64,124181,1,2,0:0:0:0:
464,88,124352,6,0,P|456:136|464:312,2,210,0|2|4,1:0|0:0|1:0,0:0:0:0:
384,64,125552,1,0,0:0:0:0:
384,64,125638,1,0,0:0:0:0:
384,64,125724,2,0,P|296:88|248:88,1,140,4|0,1:0|1:0,0:0:0:0:
64,96,126238,1,2,0:0:0:0:
136,176,126409,2,0,P|136:224|128:256,1,70,2|0,2:0|2:0,1:0:0:0:
64,96,126752,1,2,2:0:0:0:
64,96,127095,6,0,P|128:88|224:80,2,140,4|2|4,1:0|0:0|0:2,0:0:0:0:
136,176,127952,1,0,0:0:0:0:
232,152,128124,2,0,P|272:152|304:160,1,70,0|0,1:0|0:0,0:0:0:0:
384,224,128466,2,0,P|392:256|384:296,1,70,0|0,1:0|0:0,0:0:0:0:
288,328,128809,1,2,0:0:0:0:
288,328,129152,5,2,0:0:0:0:
264,216,129323,1,0,0:0:0:0:
240,104,129494,1,2,0:0:0:0:
240,104,129838,6,0,P|160:120|24:152,2,210,4|0|4,1:0|1:0|1:2,0:0:0:0:
336,80,131038,1,2,0:0:0:0:
328,120,131124,1,0,0:0:0:0:
320,160,131209,2,0,P|376:144|536:96,2,210,4|2|2,1:0|0:0|0:0,0:0:0:0:
192,216,132581,6,0,P|152:224|64:272,1,140,0|2,1:0|0:0,0:0:0:0:
72,160,133095,1,0,0:0:0:0:
168,312,133266,6,0,P|208:304|296:256,1,140,2|0,0:0|1:0,0:0:0:0:
304,352,133781,1,0,0:0:0:0:
400,120,133952,6,0,P|360:128|272:176,1,140,4|2,1:0|0:0,0:0:0:0:
264,80,134466,1,0,0:0:0:0:
192,136,134638,6,0,P|132:172|65:190,1,140,2|2,0:0|0:0,0:0:0:0:
72,280,135152,1,0,0:0:0:0:
184,232,135324,2,0,P|208:304|104:392,2,210,4|0|6,1:2|1:0|1:2,0:0:0:0:
94,145,136524,5,2,0:0:0:0:
90,153,136609,1,0,0:0:0:0:
88,160,136695,2,0,P|86:205|105:231,1,70,0|0,1:0|0:0,0:0:0:0:
160,64,137038,1,4,1:2:0:0:
160,64,137209,1,2,0:0:0:0:
232,240,137381,6,0,P|247:270|242:305,1,70,0|0,1:0|0:0,0:0:0:0:
288,160,137724,1,4,1:2:0:0:
288,160,137895,1,2,0:0:0:0:
288,160,138066,5,0,1:0:0:0:
384,168,138238,1,2,0:0:0:0:
392,272,138409,1,4,1:2:0:0:
304,320,138581,1,2,0:0:0:0:
232,240,138752,5,0,1:0:0:0:
288,160,138924,1,2,0:0:0:0:
384,168,139095,1,4,1:2:0:0:
232,240,139266,1,2,0:0:0:0:
80,304,139438,6,0,P|40:320|8:336,1,70,4|2,1:0|0:0,0:0:0:0:
176,288,139781,2,0,P|216:272|248:256,1,70,4|2,1:2|0:0,0:0:0:0:
328,152,140124,6,0,P|288:168|256:184,1,70,4|2,1:0|0:0,0:0:0:0:
424,136,140467,2,0,P|464:120|496:104,1,70,4|2,1:2|0:0,0:0:0:0:
496,104,140724,1,0,0:0:0:0:
504,104,140809,2,0,L|504:160|504:192,1,70,0|2,1:0|0:0,0:0:0:0:
432,336,141152,2,0,L|432:280|432:240,1,70,4|2,1:2|0:0,0:0:0:0:
328,40,141495,5,0,1:0:0:0:
304,152,141666,1,2,0:0:0:0:
224,344,141838,5,0,1:0:0:0:
176,240,142009,1,2,0:0:0:0:
64,56,142181,5,0,1:0:0:0:
64,56,142352,1,0,1:0:0:0:
64,56,142524,1,0,1:0:0:0:
64,56,142695,1,0,1:0:0:0:
176,128,142866,5,0,1:0:0:0:
176,128,143037,1,0,1:0:0:0:
176,128,143209,1,0,1:0:0:0:
176,128,143380,1,0,1:0:0:0:
160,32,143552,5,0,1:0:0:0:
160,32,143724,1,0,1:0:0:0:
72,160,143895,1,0,1:0:0:0:
72,160,144066,1,0,1:0:0:0:
64,56,144238,5,0,1:0:0:0:
64,56,144410,1,0,1:0:0:0:
176,128,144581,1,0,1:0:0:0:
176,128,144752,1,0,1:0:0:0:
248,56,144924,6,0,L|280:72,3,35,0|0|0|0,1:0|1:0|1:0|1:0,1:0:0:0:
296,160,145266,2,0,L|336:144,3,35,0|0|0|0,1:0|1:0|1:0|1:0,1:0:0:0:
400,56,145609,2,0,L|360:72,3,35,0|0|0|0,1:0|1:0|1:0|1:0,1:0:0:0:
448,160,145952,2,0,L|416:144,3,35,0|0|0|0,1:0|1:0|1:0|1:0,1:0:0:0:
344,144,146295,5,0,1:0:0:0:
320,152,146381,1,0,1:0:0:0:
296,160,146466,1,0,1:0:0:0:
272,168,146552,1,0,1:0:0:0:
248,176,146638,1,0,1:0:0:0:
224,184,146724,1,0,1:0:0:0:
200,192,146809,1,0,1:0:0:0:
176,200,146895,1,2,1:2:0:0:
144,208,146981,6,0,B|160:240|160:240|163:204|163:204|144:72|24:104,1,245,4|4,1:2|1:0,0:0:0:0:
43,99,147666,6,0,B|40:136|40:136|48:136|48:136|40:144|40:144|48:144|48:144|40:152|40:152|48:152|48:152|40:160|40:160|48:160|48:160|40:168|40:168|48:168|48:168|40:176|40:176|48:176|48:176|40:184|40:184|48:184|48:184|40:192|40:192|48:192|48:192|40:200|40:200|48:200|48:200|48:256|96:304,1,293.999991027832,0|2,0:0|2:0,0:0:0:0:
112,248,148266,1,0,1:0:0:0:
136,216,148352,6,0,P|240:184|296:256,1,210.000008010865,4|4,1:0|1:0,0:0:0:0:
312,112,149209,5,2,0:0:0:0:
376,192,149381,2,0,P|424:176|464:152,1,97.9999970092774,4|0,0:0|0:0,0:0:0:0:
408,80,149724,2,0,P|392:32|400:-16,1,97.9999970092774,8|0,1:2|0:0,0:0:0:0:
488,24,150066,1,2,2:0:0:0:
312,112,150238,5,0,0:0:0:0:
312,112,150324,1,0,0:0:0:0:
312,112,150409,2,0,P|208:112|184:72,1,157.500006008148,4|0,1:0|2:0,0:0:0:0:
177,67,151095,6,0,P|200:128|176:304,1,238.00000453949,4|0,0:0|2:0,0:0:0:0:
176,288,151781,2,2,L|296:264,1,119.000002269745,4|2,1:0|1:0,1:0:0:0:
46,217,152124,2,2,P|102:198|160:184,1,119.000002269745,2|0,1:0|1:0,1:0:0:0:
192,176,152381,1,0,1:0:0:0:
232,176,152466,1,2,1:0:0:0:
176,288,152638,1,2,1:0:0:0:
176,67,152809,2,0,P|288:40|320:104,1,178.500003404617,4|4,1:2|1:0,0:0:0:0:
336,152,153152,1,4,1:0:0:0:
345,151,153838,6,0,P|336:224|400:272,1,157.500006008148,4|2,1:0|0:0,0:0:0:0:
424,184,154524,5,4,1:0:0:0:
248,248,154695,1,0,0:0:0:0:
256,136,154866,2,0,P|264:88|232:16,1,119.000002269745,4|0,2:0|2:0,2:0:0:0:
239,23,155209,6,0,B|186:38|186:38|216:32|216:32|144:48|144:48,1,157.500006008148,8|2,1:2|2:0,0:0:0:0:
160,168,155895,5,4,1:0:0:0:
184,288,156066,1,2,0:0:0:0:
160,168,156238,2,2,P|208:136|288:144,1,119.000002269745,2|0,1:0|2:0,1:0:0:0:
240,248,156581,6,2,P|168:272|120:264,1,105.000004005432,2|2,1:0|2:0,1:0:0:0:
56,48,157095,1,0,2:0:0:0:
56,48,157266,6,0,P|48:128|48:192,1,119.000002269745,4|2,1:0|1:0,1:0:0:0:
296,16,157609,2,0,P|294:75|287:134,1,119.000002269745,4|2,1:0|1:0,1:0:0:0:
283,145,157866,1,0,1:0:0:0:
279,157,157952,1,4,1:0:0:0:
168,80,158124,1,0,1:0:0:0:
168,80,158209,1,0,1:0:0:0:
168,80,158295,1,0,1:0:0:0:
168,80,158381,1,0,1:0:0:0:
168,80,158466,1,0,1:0:0:0:
168,80,158552,1,0,1:0:0:0:
144,56,158638,6,0,P|160:160|200:296,1,238.00000453949,4|2,1:0|0:0,0:0:0:0:
196,287,159324,6,0,P|260:207|332:271,1,210.000008010865,8|4,1:2|1:0,0:0:0:0:
329,258,160181,1,2,0:0:0:0:
336,264,160352,6,0,P|328:304|344:384,1,119.000002269745,4|0,0:2|0:0,0:0:0:0:
400,216,160695,2,0,L|424:96,1,119.000002269745,4|0,1:0|0:0,0:0:0:0:
280,24,161038,2,0,L|296:152,1,119.000002269745,0|0,1:0|1:0,0:0:0:0:
294,142,161295,1,0,1:0:0:0:
294,142,161381,6,0,P|384:80|368:-16,2,210.000008010865,4|4|4,1:0|1:2|1:0,0:0:0:0:
136,168,162924,5,2,1:0:0:0:
104,48,163095,2,2,P|208:32|256:24,1,119.000002269745,0|2,1:0|1:0,1:0:0:0:
400,248,163438,2,2,P|296:264|248:272,1,119.000002269745,0|2,1:0|1:0,1:0:0:0:
256,136,163781,1,0,1:0:0:0:
301,127,163866,1,0,1:0:0:0:
353,118,163952,1,0,1:0:0:0:
401,111,164038,1,0,1:0:0:0:
453,103,164124,6,0,B|464:160|464:160|456:208|456:208|472:280,1,157.500006008148,4|0,1:0|0:0,0:0:0:0:
368,360,164809,2,0,B|357:303|357:303|365:255|365:255|353:205,1,157.500006008148,4|0,1:2|0:0,0:0:0:0:
264,264,165495,2,0,B|224:272|224:272|200:264|200:264|144:280,2,105.000004005432,4|4|4,1:0|0:0|1:2,0:0:0:0:
336,168,166524,1,2,0:0:0:0:
336,168,166866,6,0,P|320:96|168:152,1,238.00000453949,4|2,1:0|2:2,0:0:0:0:
176,160,167295,1,0,0:0:0:0:
176,216,167381,2,0,P|192:288|344:232,1,238.00000453949,2|2,0:0|2:2,0:0:0:0:
336,168,167895,2,0,L|336:48,1,119.000002269745,0|2,2:0|0:0,0:0:0:0:
176,160,168238,5,0,1:0:0:0:
176,32,168409,1,0,1:0:0:0:
256,104,168581,5,0,1:0:0:0:
264,128,168666,1,0,1:0:0:0:
269,150,168752,1,0,1:0:0:0:
270,174,168838,1,0,1:0:0:0:
264,199,168924,1,0,1:0:0:0:
253,221,169009,1,0,1:0:0:0:
230,243,169095,5,0,1:0:0:0:
256,216,169181,1,0,1:0:0:0:
279,211,169266,1,0,1:0:0:0:
321,217,169352,1,0,1:0:0:0:
356,236,169438,1,0,1:0:0:0:
368,283,169524,1,0,1:0:0:0:
352,328,169609,6,4,P|344:232|424:112,1,238.00000453949,4|4,1:2|1:2,1:2:0:0:
96,320,170638,2,0,P|160:320|224:288,2,119.000002269745,0|4|0,1:0|1:0|0:0,0:0:0:0:
56,136,171666,2,0,P|120:128|152:168,1,119.000002269745,4|0,1:2|0:0,0:0:0:0:
336,152,172352,2,0,P|272:160|240:120,2,119.000002269745,4|2|4,1:0|0:0|1:2,0:0:0:0:
312,64,173381,1,0,0:0:0:0:
216,88,173724,6,4,L|96:112,1,119.000002269745,4|0,1:0|2:0,1:0:0:0:
312,64,174238,1,0,1:0:0:0:
312,64,174324,1,0,1:0:0:0:
312,64,174409,2,0,L|352:56|392:48,1,59.5000011348725,0|2,1:0|0:0,0:0:0:0:
464,24,174752,1,4,1:0:0:0:
464,24,174924,1,0,0:0:0:0:
448,144,175095,6,0,P|440:232|440:384,1,238.00000453949,4|4,1:0|1:2,0:0:0:0:
352,184,176124,2,0,P|360:120|360:64,2,119.000002269745,0|4|0,2:0|1:0|2:2,1:0:0:0:
304,272,176981,1,2,0:0:0:0:
264,144,177152,2,0,P|216:88|88:176,1,238.00000453949,4|4,1:2|1:0,0:0:0:0:
464,32,178181,5,2,0:0:0:0:
416,96,178352,2,0,P|408:112|408:144,2,29.7500005674362,0|0|4,1:0|1:0|1:2,1:0:0:0:
256,56,178866,6,0,P|224:64|184:64,1,59.5000011348725,2|0,0:0|0:0,0:0:0:0:
312,112,179209,2,0,P|336:208|336:352,2,238.00000453949,4|4|4,1:0|1:0|1:0,0:0:0:0:
216,168,180924,6,0,P|168:184|144:184,1,59.5000011348725,2|0,0:0|0:0,0:0:0:0:
16,64,181266,2,0,P|71:37|132:43,1,119.000002269745,12|2,1:2|0:0,0:0:0:0:
256,232,181781,1,0,0:0:0:0:
200,128,181952,6,0,P|184:72|200:0,1,119.000002269745,4|0,1:0|0:0,0:0:0:0:
160,224,182466,1,2,0:0:0:0:
280,176,182638,6,0,P|296:232|275:347,1,178.500003404617,12|0,1:2|0:0,0:0:0:0:
280,176,183324,1,4,1:0:0:0:
392,232,183495,1,2,0:0:0:0:
288,296,183666,2,0,L|152:312,2,119.000002269745,0|4|0,0:0|1:2|2:0,0:0:0:0:
392,232,184695,5,4,1:0:0:0:
288,296,184952,1,0,1:0:0:0:
416,328,185209,2,0,P|428:331|440:336,4,14.8750002837181,0|0|0|0|4,1:0|1:0|1:0|1:0|1:2,1:0:0:0:
288,296,185724,2,0,P|248:320|224:352,1,59.5000011348725,4|2,1:0|0:0,0:0:0:0:
40,184,186066,6,0,P|120:232|280:208,1,238.00000453949,4|4,1:0|1:2,0:0:0:0:
259,219,187095,2,0,P|243:283|235:347,2,119.000002269745,0|4|0,1:0|1:0|0:0,0:0:0:0:
352,160,188124,1,4,1:2:0:0:
336,248,188466,1,2,2:0:0:0:
424,200,188809,5,4,1:0:0:0:
440,112,189151,1,2,2:0:0:0:
288,80,189495,5,4,1:2:0:0:
272,168,189837,1,2,2:0:0:0:
304,296,190181,6,0,P|336:240|344:184,1,119.000002269745,4|0,1:0|0:0,0:0:0:0:
344,184,190866,6,0,P|288:200|272:200,1,59.5000011348725,4|0,1:0|1:0,0:0:0:0:
256,200,191124,1,0,1:0:0:0:
224,200,191209,1,0,1:0:0:0:
192,200,191295,1,0,1:0:0:0:
159,198,191381,5,0,1:0:0:0:
128,192,191466,1,0,1:0:0:0:
94,186,191552,1,4,1:0:0:0:
256,192,191638,12,8,193609,2:2:0:0:
