osu file format v11

[General]
AudioFilename: .mp3
AudioLeadIn: 0
PreviewTime: 113428
Countdown: 1
SampleSet: Soft
StackLeniency: 0.7
Mode: 0
LetterboxInBreaks: 1

[Editor]
Bookmarks: 97232
DistanceSpacing: 1.4
BeatDivisor: 4
GridSize: 4

[Metadata]
Title:The Idol Master
TitleUnicode:The Idol Master
Artist:O2Jam
ArtistUnicode:O2Jam
Creator:chihopiaodu250
Version:Insane
Source:O2mania
Tags:
BeatmapID:215976
BeatmapSetID:76753

[Difficulty]
HPDrainRate:7
CircleSize:4
OverallDifficulty:7
ApproachRate:8
SliderMultiplier:2.1
SliderTickRate:1

[Events]
//Background and Video events
0,0,"75675_6180_83442_w9pE.jpg"
//Break Periods
//Storyboard Layer 0 (Background)
//Storyboard Layer 1 (Fail)
//Storyboard Layer 2 (Pass)
//Storyboard Layer 3 (Foreground)
//Storyboard Sound Samples
//Background Colour Transformations
3,100,163,162,255

[TimingPoints]
41027,434.782608695652,4,2,0,75,1,0
56679,-100,4,2,0,95,0,0
72331,-200,4,2,0,75,0,0
74940,-100,4,2,0,75,0,0
75809,-200,4,2,0,75,0,0
79287,-100,4,2,0,75,0,0
91364,-200,4,2,0,75,0,0
92125,-100,4,2,0,75,0,0
96679,-200,4,2,0,75,0,0
100157,-100,4,2,1,75,0,0
114070,-100,4,2,0,75,0,1
127548,-133.333333333333,4,2,0,75,0,0
127983,-100,4,2,0,75,0,1
141896,-100,4,2,0,75,0,0
148853,-100,4,2,0,85,0,0
150592,-200,4,2,0,75,0,1
151244,-100,4,2,0,75,0,1
167983,-100,4,2,0,75,0,0

[HitObjects]
256,192,41027,12,0,42549,0:0:0
112,48,42766,6,0,B|224:48,1,105
336,48,43200,1,0,0:0:0
336,48,43309,1,0,0:0:0
336,48,43417,1,0,0:0:0
448,176,43631,1,0,0:0:0
256,192,43853,1,0,0:0:0
256,192,44060,1,2,0:0:0
96,336,44504,6,0,P|208:336,1,105
144,240,44939,2,0,P|288:240,1,105
368,240,45373,1,0,0:0:0
256,64,45583,1,0,0:0:0
256,64,45808,1,2,0:0:0
48,64,46243,6,0,P|64:112|64:112|144:144,1,105
160,240,46678,2,0,P|112:272,2,52.5
272,176,47113,1,0,0:0:0
272,176,47322,1,0,0:0:0
272,176,47548,1,2,0:0:0
432,64,47992,6,0,P|432:176,2,105
320,64,48644,1,0,0:0:0
208,64,48861,2,0,P|160:48|80:96,1,105
96,160,49296,2,0,P|144:175|224:128,1,105,2|0,0:0|0:0,0:0:0
406,90,49731,6,0,P|432:144|432:144|384:224,1,105
336,272,50165,2,0,P|224:272,1,105
231,272,50491,1,0,0:0:0
231,272,50599,1,0,0:0:0
112,224,50817,2,0,P|86:169|86:169|134:89,1,105,0|2,0:0|0:0,0:0:0
108,131,51252,1,0,0:0:0
256,0,51470,6,0,P|256:112,1,105
400,112,51904,2,0,P|480:96,2,52.5
368,224,52339,2,0,P|416:256,2,52.5
256,176,52774,1,2,0:0:0
144,176,52991,1,0,0:0:0
112,352,53209,6,0,P|256:352,1,105
399,32,53643,2,0,P|256:32,1,105
176,256,54078,2,0,P|320:256,1,105
335,128,54513,2,2,P|192:128,1,105
96,288,54948,6,0,P|224:288,1,105
320,288,55382,1,0,0:0:0
416,224,55600,1,0,0:0:0
448,192,55708,1,0,0:0:0
448,144,55817,1,0,0:0:0
352,64,56034,2,0,P|224:64,2,105,0|2|2,0:0|0:0|0:0,0:0:0
448,240,56687,6,0,P|352:304,1,105,0|2,0:0|0:0,0:0:0
224,304,57121,1,0,0:0:0
176,304,57230,1,0,0:0:0
128,304,57339,1,2,0:0:0
96,176,57556,2,0,P|107:105|160:64,1,105,0|2,0:0|0:0,0:0:0
400,48,57991,2,0,P|388:118|367:142,1,105,0|2,0:0|0:0,0:0:0
448,304,58426,6,0,P|336:304,1,105,0|2,0:0|0:0,0:0:0
208,304,58860,1,0,0:0:0
208,304,58969,1,0,0:0:0
208,304,59078,1,2,0:0:0
128,192,59295,1,0,0:0:0
224,96,59512,1,2,0:0:0
128,192,59730,1,0,0:0:0
224,96,59947,1,2,0:0:0
432,32,60165,6,0,P|432:144,1,105,0|2,0:0|0:0,0:0:0
432,272,60599,2,0,P|432:336,2,52.5,0|0|2,0:0|0:0|0:0,0:0:0
288,272,61034,2,0,P|176:272,1,105,0|2,0:0|0:0,0:0:0
80,176,61469,1,0,0:0:0
183,272,61686,1,2,0:0:0
80,176,61904,6,0,P|160:64,1,105,0|2,0:0|0:0,0:0:0
256,16,62338,1,0,0:0:0
141,90,62556,1,2,0:0:0
304,144,62773,1,0,0:0:0
141,90,62990,1,2,0:0:0
320,256,63208,1,2,0:0:0
320,256,63316,1,2,0:0:0
320,256,63425,1,2,0:0:0
224,352,63643,6,0,P|224:304|224:304|144:272,1,105,0|2,0:0|0:0,0:0:0
96,192,64077,2,0,P|112:112|160:96,1,105,0|2,0:0|0:0,0:0:0
160,80,64403,1,0,0:0:0
160,80,64512,2,0,P|213:59|284:100,1,105,0|2,0:0|0:0,0:0:0
416,160,64947,2,0,P|464:192,1,52.5
288,160,65164,2,0,P|336:192,1,52.5,2|0,0:0|0:0,0:0:0
368,288,65382,5,0,0:0:0
224,288,65599,1,2,0:0:0
224,288,65708,1,0,0:0:0
224,288,65816,1,0,0:0:0
128,192,66034,1,2,0:0:0
128,192,66142,1,0,0:0:0
128,192,66251,1,0,0:0:0
176,64,66468,1,2,0:0:0
176,64,66577,1,0,0:0:0
176,64,66686,2,0,P|224:32,1,52.5
176,64,66903,2,0,P|224:96,1,52.5,2|0,0:0|0:0,0:0:0
400,32,67121,6,0,P|400:144,1,105,0|2,0:0|0:0,0:0:0
400,272,67555,2,0,P|272:272,1,105,0|2,0:0|0:0,0:0:0
295,272,67881,1,0,0:0:0
295,272,67990,2,0,P|160:272,1,105,0|2,0:0|0:0,0:0:0
176,144,68425,2,0,P|288:48,1,105,0|2,0:0|0:0,0:0:0
336,224,68860,2,0,P|223:320,1,105,0|2,0:0|0:0,0:0:0
112,128,69295,2,0,P|224:32,1,105,0|2,0:0|0:0,0:0:0
416,240,69730,2,0,P|303:336,1,105,0|2,0:0|0:0,0:0:0
256,192,70164,1,0,0:0:0
256,192,70381,1,2,0:0:0
128,256,70599,5,4,0:0:0
160,288,70707,1,0,0:0:0
208,304,70816,1,0,0:0:0
256,304,70925,1,0,0:0:0
304,304,71033,1,4,0:0:0
352,288,71142,1,0,0:0:0
384,256,71251,1,0,0:0:0
400,208,71359,1,0,0:0:0
384,160,71468,5,4,0:0:0
352,128,71577,1,0,0:0:0
304,112,71685,1,4,0:0:0
256,96,71794,1,0,0:0:0
224,64,71903,1,4,0:0:0
192,32,72012,1,0,0:0:0
144,32,72120,1,4,0:0:0
112,64,72229,1,0,0:0:0
80,96,72331,6,0,P|48:144|48:144|48:208|48:208,2,105,4|0|0,0:0|0:0|0:0,0:0:0
48,192,73418,1,0,0:0:0
104,304,73635,1,0,0:0:0
224,320,73859,1,0,0:0:0
256,320,73968,2,0,P|328:320|328:320|376:272,1,131.25
400,136,74729,1,0,0:0:0
202,226,74946,2,0,P|160:208|128:160,1,105
277,13,75381,2,0,P|320:32|352:80,1,105
384,304,75816,6,0,P|384:176,1,105
336,96,76468,1,0,0:0:0
304,96,76576,1,0,0:0:0
336,96,76685,1,0,0:0:0
256,176,76902,1,0,0:0:0
160,224,77120,1,0,0:0:0
224,320,77337,1,0,0:0:0
256,320,77446,2,0,P|336:320|336:320|368:272,1,131.25
400,160,78207,5,0,0:0:0
400,160,78315,1,0,0:0:0
400,160,78424,1,0,0:0:0
304,80,78641,1,0,0:0:0
304,80,78750,1,0,0:0:0
304,80,78859,1,0,0:0:0
128,192,79076,5,0,0:0:0
96,320,79294,2,0,P|256:320,1,157.5,4|0,0:0|0:0,0:0:0
176,232,79728,2,0,P|336:232,1,157.5,4|0,0:0|0:0,0:0:0
256,136,80163,2,0,P|416:136,1,157.5,4|0,0:0|0:0,0:0:0
336,272,80598,1,0,0:0:0
432,160,80815,1,0,0:0:0
432,160,80924,1,0,0:0:0
432,160,81033,5,4,0:0:0
272,48,81359,1,0,0:0:0
112,160,81685,1,0,0:0:0
112,304,81902,2,0,P|208:304|208:288,1,105,4|0,0:0|0:0,0:0:0
368,272,82337,6,0,P|416:256|416:192,2,105,0|0|4,0:0|0:0|0:0,0:0:0
256,272,82989,1,0,0:0:0
144,272,83206,2,0,P|95:260|82:211,2,105,0|0|0,0:3|0:3|0:3,0:3:0
256,272,83858,2,0,P|256:160,1,105
176,80,84293,1,0,0:0:0
336,80,84511,1,4,0:0:0
416,208,84728,6,0,P|496:208|480:208,2,52.5
352,304,85163,2,0,P|400:352,2,52.5
240,304,85597,1,0,0:0:0
144,240,85815,1,0,0:0:0
240,176,86032,1,0,0:0:0
128,48,86250,5,4,0:0:0
240,48,86467,1,0,0:0:0
288,48,86576,1,0,0:0:0
336,48,86684,1,0,0:0:0
400,144,86902,1,0,0:0:0
400,144,87010,1,0,0:0:0
400,144,87118,2,0,P|422:189|354:234,1,105
384,272,87444,1,0,0:0:0
384,272,87553,2,0,P|336:304|272:272,1,105
112,224,87989,5,0,0:0:0
160,112,88206,1,0,0:0:0
192,80,88315,1,0,0:0:0
240,80,88423,1,0,0:0:0
384,80,88641,1,0,0:0:0
400,128,88749,1,0,0:0:0
384,176,88858,2,0,P|368:240|304:272,2,105
384,80,89510,1,0,0:0:0
192,80,89728,5,4,0:0:0
112,160,89945,1,0,0:0:0
96,208,90054,1,0,0:0:0
112,256,90162,1,0,0:0:0
224,288,90380,1,0,0:0:0
272,272,90489,1,0,0:0:0
384,304,90706,1,0,0:0:0
432,320,90815,1,0,0:0:0
448,208,91032,1,0,0:0:0
432,96,91249,1,0,0:0:0
432,96,91358,1,0,0:0:0
432,96,91467,2,0,P|304:96,1,105,4|0,0:0|0:0,0:0:0
208,96,92119,5,0,0:0:0
327,96,92336,1,0,0:0:0
208,96,92554,1,0,0:0:0
128,192,92771,1,0,0:0:0
208,288,92988,1,0,0:0:0
400,304,93206,5,6,0:0:0
256,64,93640,5,6,0:0:0
112,304,94075,5,6,0:0:0
96,80,94293,5,0,0:0:0
96,80,94510,2,0,P|224:80,1,105
320,80,94945,2,0,P|356:115|446:82,2,157.5,4|0|0,0:0|0:0|0:0,0:0:0
384,176,95814,1,4,0:0:0
304,256,96032,1,0,0:0:0
304,256,96140,1,0,0:0:0
304,256,96249,2,0,P|188:296,1,105
160,96,96684,6,0,P|184:69|184:69|234:67|234:67|258:41,1,105,4|0,0:0|0:0,0:0:0
352,96,97553,2,0,P|333:94|333:94|301:55|301:55|265:51,1,105,4|0,0:0|0:0,0:0:0
112,240,98205,1,0,0:0:0
432,240,98423,1,4,0:0:0
256,192,98531,12,0,100162,0:0:0
128,128,100379,5,2,0:0:0
208,48,100596,1,2,0:0:0
320,48,100814,1,2,0:0:0
400,128,101031,1,2,0:0:0
96,304,101466,6,0,P|96:256|96:256|144:224,1,105,2|2,0:0|0:0,0:0:0
256,224,101901,1,4,0:0:0
376,304,102118,1,2,0:0:0
408,272,102222,1,2,0:0:0
416,224,102335,2,2,P|416:112,1,105,2|2,0:0|0:0,0:0:0
336,32,102770,1,4,0:0:0
256,112,102988,1,2,0:0:0
112,112,103200,1,4,0:0:0
184,240,103418,1,2,0:0:0
184,240,103527,1,2,0:0:0
184,240,103635,1,2,0:0:0
448,32,103857,6,2,P|480:96|448:160,1,105
416,224,104292,2,2,P|358:266|289:246,1,105
192,256,104727,2,0,P|123:235|98:168,2,105,2|4|2,0:0|0:0|0:0,0:0:0
400,304,105379,5,2,0:0:0
256,64,105813,5,2,0:0:0
112,304,106248,5,2,0:0:0
256,192,106466,1,2,0:0:0
256,192,106574,1,2,0:0:0
256,192,106683,1,2,0:0:0
400,64,107118,5,6,0:0:0
320,144,107336,1,2,0:0:0
208,144,107553,1,2,0:0:0
112,208,107770,1,2,0:0:0
208,272,107988,1,2,0:0:0
432,272,108200,5,2,0:0:0
432,272,108305,1,2,0:0:0
432,272,108417,1,4,0:0:0
432,128,108635,1,2,0:0:0
432,128,108857,2,2,P|352:32,1,105,6|2,0:0|0:0,0:0:0
216,48,109291,2,2,P|120:144,1,105,2|2,0:0|0:0,0:0:0
112,240,109726,1,4,0:0:0
192,320,109944,1,2,0:0:0
192,320,110052,1,2,0:0:0
192,320,110161,1,2,0:0:0
272,240,110378,1,2,0:0:0
384,240,110596,1,6,0:0:0
256,192,110704,12,0,113639,0:0:0
96,64,114074,6,0,P|192:16|192:16|288:64,1,210,4|0,0:0|0:0,0:0:0
432,64,114726,1,0,0:0:0
432,64,114835,1,0,0:0:0
432,64,114943,2,0,P|432:176,1,105,0|2,0:0|0:0,0:0:0
400,304,115378,2,0,P|256:304,1,105,0|2,0:0|0:0,0:0:0
80,304,115813,5,4,0:0:0
56,168,116030,1,0,0:0:0
56,120,116139,1,0,0:0:0
96,88,116247,1,0,0:0:0
240,56,116465,1,0,0:0:0
288,40,116574,1,0,0:0:0
336,56,116682,2,0,P|398:68|436:124,1,105,0|2,0:0|0:0,0:0:0
176,328,117113,2,0,P|114:315|76:260,1,105,0|2,0:0|0:0,0:0:0
112,80,117548,6,0,P|224:80,1,105
352,80,117986,2,0,P|408:91|465:147,1,105
445,119,118313,1,0,0:0:0
445,119,118421,1,4,0:0:0
448,272,118639,1,0,0:0:0
448,272,118747,1,0,0:0:0
448,272,118856,1,0,0:0:0
320,336,119073,1,0,0:0:0
320,336,119182,1,0,0:0:0
320,336,119291,2,0,P|192:336,1,105,4|0,0:0|0:0,0:0:0
256,192,119725,5,0,0:0:0
176,64,119943,1,2,0:0:0
96,192,120160,1,0,0:0:0
176,320,120378,1,2,0:0:0
352,288,120595,5,0,0:0:0
400,288,120704,1,0,0:0:0
448,256,120812,1,0,0:0:0
464,208,120921,1,0,0:0:0
448,160,121030,1,4,0:0:0
336,64,121247,1,0,0:0:0
336,64,121356,1,0,0:0:0
336,64,121464,1,2,0:0:0
224,160,121682,1,0,0:0:0
224,160,121791,1,0,0:0:0
224,160,121899,2,0,P|96:160,1,105,6|0,0:0|0:0,0:0:0
64,304,122334,2,0,P|208:304,1,105
320,288,122769,5,4,0:0:0
416,192,122986,1,2,0:0:0
320,80,123203,1,0,0:0:0
224,192,123421,1,2,0:0:0
128,80,123638,1,0,0:0:0
224,192,123856,1,2,0:0:0
128,304,124073,1,2,0:0:0
128,304,124290,1,2,0:0:0
400,304,124508,6,0,P|400:176,1,105,4|0,0:0|0:0,0:0:0
336,64,124942,1,0,0:0:0
192,64,125160,1,0,0:0:0
192,64,125269,1,0,0:0:0
192,64,125377,1,4,0:0:0
256,192,125595,1,0,0:0:0
112,192,125812,1,0,0:0:0
256,192,126029,1,0,0:0:0
272,48,126247,6,0,P|324:24|366:64,1,105,4|0,0:0|0:0,0:0:0
448,160,126682,1,0,0:0:0
448,304,126899,2,0,P|336:304,1,105
192,304,127334,1,0,0:0:0
192,304,127443,1,0,0:0:0
192,304,127551,2,0,P|108:304,1,78.7500030040742,4|0,0:0|0:0,0:0:0
128,128,127986,5,4,0:0:0
256,48,128203,1,0,0:0:0
256,48,128312,1,0,0:0:0
256,48,128420,1,0,0:0:0
400,48,128638,1,0,0:0:0
400,48,128747,1,0,0:0:0
400,48,128855,1,6,0:0:0
400,336,129290,1,6,0:0:0
112,336,129725,6,0,P|164:324|208:280,1,105,4|0,0:0|0:0,0:0:0
401,337,130157,2,0,P|352:327|312:292,1,105,4|0,0:0|0:0,0:0:0
388,164,130594,1,0,0:0:0
268,80,130812,1,2,0:0:0
120,80,131029,1,0,0:0:0
104,120,131138,1,0,0:0:0
120,160,131246,1,2,0:0:0
96,304,131464,6,0,P|240:304,1,105,4|0,0:0|0:0,0:0:0
352,304,131898,1,0,0:0:0
432,176,132116,5,0,0:0:0
432,176,132225,1,0,0:0:0
432,176,132333,2,0,P|304:176,1,105,4|0,0:0|0:0,0:0:0
176,176,132768,1,0,0:0:0
80,64,132985,5,0,0:0:0
80,64,133094,1,0,0:0:0
80,64,133203,2,0,P|208:64,1,105,4|0,0:0|0:0,0:0:0
336,64,133637,1,4,0:0:0
192,64,133855,1,0,0:0:0
336,64,134072,1,4,0:0:0
432,176,134290,1,0,0:0:0
256,192,134507,5,2,0:0:0
256,48,134942,5,4,0:0:0
112,304,135376,5,4,0:0:0
400,304,135811,5,4,0:0:0
112,304,136246,6,0,P|112:256|176:208,1,105
272,128,136681,2,0,P|432:128,2,157.5,4|0|0,0:0|0:0|0:0,0:0:0
128,128,137550,1,4,0:0:0
192,256,137768,1,0,0:0:0
192,256,137876,1,0,0:0:0
192,256,137985,1,0,0:0:0
336,256,138202,1,0,0:0:0
464,192,138420,5,6,0:0:0
256,32,138854,5,0,0:0:0
48,192,139289,5,6,0:0:0
256,352,139724,5,0,0:0:0
448,256,140159,5,4,0:0:0
464,208,140267,1,0,0:0:0
448,160,140376,1,0,0:0:0
416,112,140485,1,0,0:0:0
384,80,140594,2,0,P|384:48,4,26.25
336,96,140920,1,0,0:0:0
288,96,141028,1,0,0:0:0
240,112,141137,1,0,0:0:0
192,96,141246,1,0,0:0:0
144,112,141354,1,0,0:0:0
96,112,141463,2,0,P|64:112,5,26.25
96,112,141898,6,0,P|80:176,1,52.5
96,240,142115,2,0,P|160:288|160:288,1,52.5
208,304,142333,1,0,0:0:0
288,304,142441,1,0,0:0:0
368,304,142550,2,0,P|416:240,1,52.5
416,112,142985,6,0,P|368:64,1,52.5
304,80,143202,2,0,P|256:128,1,52.5
192,96,143419,2,0,P|144:144,1,52.5
96,192,143637,1,0,0:0:0
96,192,143745,1,0,0:0:0
80,272,143854,2,0,P|160:320,1,52.5
176,256,144072,2,0,P|224:224,1,52.5
272,272,144289,2,0,P|320:304,1,52.5
384,256,144506,1,0,0:0:0
304,128,144724,1,0,0:0:0
448,112,144941,1,0,0:0:0
384,256,145158,1,0,0:0:0
304,128,145376,6,0,P|256:64,1,52.5
192,80,145593,1,0,0:0:0
192,80,145702,1,0,0:0:0
112,80,145811,2,0,P|48:128,1,52.5
64,192,146028,2,0,P|128:240,1,52.5
224,304,146354,6,0,P|304:240,1,52.5
320,320,146571,2,0,P|384:272,1,52.5
320,224,146789,2,0,P|384:176,1,52.5
320,128,147006,2,0,P|384:80,1,52.5
336,64,147223,1,0,0:0:0
288,64,147332,1,0,0:0:0
240,64,147441,1,0,0:0:0
192,64,147550,1,0,0:0:0
144,64,147658,1,0,0:0:0
96,64,147767,1,0,0:0:0
96,208,147984,5,0,0:0:0
240,208,148202,1,0,0:0:0
96,208,148419,5,0,0:0:0
240,208,148636,1,0,0:0:0
400,304,148854,5,2,0:0:0
416,256,148962,1,0,0:0:0
400,208,149071,2,0,P|448:192,2,26.25
368,176,149289,1,2,0:0:0
320,160,149397,1,0,0:0:0
272,160,149506,2,0,P|256:192,2,26.25
224,144,149723,1,2,0:0:0
192,112,149832,1,0,0:0:0
176,64,149941,1,2,0:0:0
128,48,150049,1,0,0:0:0
80,64,150158,1,2,0:0:0
64,112,150267,1,0,0:0:0
64,160,150375,1,2,0:0:0
96,192,150484,1,0,0:0:0
128,224,150593,6,0,P|160:272|160:272|224:272|224:272,1,105,4|0,0:0|0:0,0:0:0
352,272,151245,1,0,0:0:0
352,272,151354,1,0,0:0:0
352,272,151462,2,0,P|353:185|326:161,1,105,0|2,0:0|0:0,0:0:0
160,112,151897,2,0,P|158:198|185:222,1,105,0|2,0:0|0:0,0:0:0
304,144,152332,2,0,P|432:144,1,105,4|0,0:0|0:0,0:0:0
409,144,152767,1,0,0:0:0
352,272,152984,1,0,0:0:0
352,272,153093,1,0,0:0:0
352,272,153201,2,0,P|224:272,1,105,0|2,0:0|0:0,0:0:0
160,112,153636,2,0,P|288:112,1,105,0|2,0:0|0:0,0:0:0
384,192,154071,5,4,0:0:0
256,272,154288,1,0,0:0:0
256,272,154397,1,0,0:0:0
256,272,154506,1,2,0:0:0
128,192,154723,1,0,0:0:0
128,192,154832,1,0,0:0:0
128,192,154940,1,6,0:0:0
128,48,155158,2,0,P|272:48,1,105
384,48,155592,1,0,0:0:0
384,48,155701,1,0,0:0:0
384,48,155810,6,0,P|411:99|384:144,1,105,4|0,0:0|0:0,0:0:0
144,336,156245,2,0,P|125:298|152:247,1,105,4|0,0:0|0:0,0:0:0
272,208,156679,2,0,P|416:208,1,105,4|0,0:0|0:0,0:0:0
352,352,157114,5,0,0:0:0
304,352,157223,1,0,0:0:0
256,352,157331,1,0,0:0:0
208,352,157440,1,0,0:0:0
160,352,157549,1,4,0:0:0
80,224,157766,2,0,P|160:128,1,105
256,48,158201,1,0,0:0:0
256,48,158310,1,0,0:0:0
256,48,158418,2,0,P|320:48|368:96,1,105,4|2,0:0|0:0,0:0:0
416,208,158853,2,0,P|416:272|352:320,1,105,0|2,0:0|0:0,0:0:0
240,304,159288,5,4,0:0:0
128,208,159505,1,2,0:0:0
176,176,159614,1,2,0:0:0
224,144,159723,1,2,0:0:0
128,96,159940,1,2,0:0:0
176,64,160049,1,2,0:0:0
224,32,160157,1,2,0:0:0
368,32,160375,1,2,0:0:0
368,32,160483,1,2,0:0:0
368,32,160592,1,2,0:0:0
448,160,160809,1,0,0:0:0
320,240,161027,6,0,P|192:240,1,105,4|0,0:0|0:0,0:0:0
191,143,161462,2,0,P|320:144,1,105
352,304,161896,2,0,P|240:304,1,105,4|0,0:0|0:0,0:0:0
160,80,162331,2,0,P|272:80,1,105
256,192,162766,1,4,0:0:0
256,64,163201,5,2,0:0:0
112,304,163635,5,2,0:0:0
400,304,164070,5,2,0:0:0
256,192,164505,5,4,0:0:0
256,192,164614,12,0,165809,0:0:0
256,192,166244,5,4,0:0:0
256,192,166353,12,0,167548,0:0:0
256,192,167983,5,4,0:0:0
256,192,168092,12,0,174939,0:0:0
