osu file format v4

[General]
AudioFilename: Ozone - Dragostea Din Tei.mp3
AudioLeadIn: 535
AudioHash: a3322df9153136d862456b3b45ff649c
PreviewTime: -1
SampleSet: Normal

[Metadata]
Title:Dragostea Din Tei
Artist:O-Zone
Creator:hadoken_zero
Version:Hard

[Difficulty]
HPDrainRate:4
CircleSize:6
OverallDifficulty:8
SliderMultiplier: 2
SliderTickRate: 1

[Events]
1,0,"Ozone - Dragostea Din Tea Funny Lyrics.avi"
2,45968,49397
2,90114,97221
2,119314,126421
3,0,255,255,255

[TimingPoints]
3670,461.547652402464,4,1,1

[HitObjects]
448,320,2054,1,2,
448,320,2285,1,2,
384,320,2516,1,0,
320,320,2746,1,4,
224,192,3900,1,2,
224,192,4131,1,2,
160,192,4362,1,0,
96,192,4592,1,4,
480,32,5746,1,2,
480,32,5977,1,2,
416,32,6208,1,0,
352,32,6438,1,4,
224,32,6900,1,4,
224,192,7593,5,2,
224,192,7824,1,2,
160,192,8055,1,0,
96,192,8285,1,4,
480,32,9439,1,2,
480,32,9670,1,2,
416,32,9901,1,0,
352,32,10131,1,4,
480,352,11285,1,2,
480,352,11516,1,2,
416,352,11747,1,0,
352,352,11977,1,4,
256,32,13131,1,2,
256,32,13362,1,2,
256,96,13593,1,0,
256,160,13824,1,0,
256,288,14285,1,4,
480,32,14977,5,2,
480,32,15208,1,2,
480,96,15439,1,0,
480,160,15670,1,4,
32,32,16824,1,2,
32,32,17055,1,2,
32,96,17286,1,0,
32,160,17517,1,4,
256,32,18670,1,2,
256,32,18901,1,2,
256,96,19132,1,0,
256,160,19363,1,4,
256,32,20516,1,2,
224,64,20747,1,2,
256,96,20978,1,0,
224,128,21209,1,4,
256,256,21670,1,4,
32,32,22362,5,2,
64,64,22593,1,2,
32,96,22824,1,0,
64,128,23055,1,4,
480,32,24208,1,2,
448,64,24439,1,2,
480,96,24670,1,0,
448,128,24901,1,4,
224,128,26055,1,2,
256,160,26286,1,2,
224,192,26517,1,0,
256,224,26748,1,4,
256,96,27901,1,2,
224,64,28132,1,2,
192,96,28363,1,0,
224,128,28593,1,4,
224,256,29055,1,4,
256,192,30324,12,0,32285
256,192,33901,1,2,
256,192,34132,1,2,
416,64,35747,1,0,
352,64,35978,1,0,
288,352,36901,1,2,
288,96,37593,1,0,
192,96,37824,1,4,
320,128,39209,5,0,
256,128,39439,1,2,
320,128,39670,1,4,
224,96,41055,5,2,
384,160,41516,1,2,
224,224,41978,1,2,
384,288,42440,1,6,
320,64,43132,5,2,
384,64,43363,1,0,
352,224,43824,1,4,
192,96,44747,5,0,
128,160,44978,1,2,
192,224,45209,1,0,
256,160,45440,1,2,
192,160,45670,1,4,
160,128,50517,5,0,
160,32,50747,1,2,
320,96,52132,1,0,
384,96,52363,1,0,
320,32,52594,1,0,
160,32,53055,1,2,
96,192,53517,1,2,
256,192,53978,1,2,
128,96,54440,1,2,
192,192,55824,5,2,
256,192,56055,1,2,
320,192,56286,1,2,
384,192,56517,1,6,
160,128,57440,5,2,
224,128,57671,1,0,
384,128,58132,1,4,
384,320,58824,1,2,
384,160,59286,1,2,
224,160,59748,1,0,
288,160,59978,1,4,
32,128,61132,5,0,
160,128,61594,1,2,
96,128,61825,1,0,
96,32,62517,1,0,
96,32,62748,1,2,
160,32,62978,1,0,
160,32,63209,1,2,
224,32,63440,1,0,
224,32,63671,1,2,
288,32,63901,1,4,
384,96,64825,5,0,
384,96,65055,1,2,
320,96,65286,1,0,
320,96,65517,1,2,
256,96,65748,1,4,
384,160,66671,1,0,
384,160,66902,1,2,
320,160,67132,1,0,
320,160,67363,1,2,
256,160,67594,1,0,
256,160,67825,1,2,
192,160,68055,1,4,
128,96,68517,5,2,
256,96,68978,1,0,
192,96,69209,1,0,
192,288,69902,1,0,
160,160,70363,1,2,
224,192,70594,1,2,
288,192,70825,1,2,
352,192,71055,1,2,
352,192,71286,1,6,
128,160,72209,5,0,
288,160,72671,1,2,
192,160,72902,1,2,
128,32,73594,1,0,
192,32,73825,1,0,
384,32,74517,1,2,
320,96,74748,1,2,
256,160,75209,1,4,
64,192,75902,5,0,
128,192,76363,1,2,
128,288,76594,1,2,
256,256,77286,1,0,
288,192,77517,1,2,
320,128,77748,1,0,
320,64,77979,1,2,
384,96,78209,1,0,
448,96,78440,1,2,
448,96,78671,1,4,
192,160,79594,5,0,
192,96,79825,1,2,
128,128,80056,1,0,
64,128,80286,1,2,
64,128,80517,1,4,
288,128,81440,5,0,
288,192,81671,1,2,
288,256,81902,1,0,
288,256,82133,1,2,
288,192,82363,1,0,
288,128,82594,1,2,
288,128,82825,1,4,
128,192,83286,5,0,
288,160,83748,1,2,
352,160,83979,1,2,
160,160,84556,1,0,
352,192,85133,1,2,
288,224,85363,1,2,
224,256,85594,1,2,
160,224,85825,1,2,
96,192,86056,1,6,
384,224,86979,5,0,
320,128,87440,1,2,
288,160,87671,1,2,
192,160,88363,1,0,
160,128,88594,1,0,
128,256,89171,1,2,
128,224,89402,1,2,
128,128,89864,1,4,
256,192,98518,5,0,
192,192,98748,1,2,
320,96,100133,1,2,
160,96,100595,1,2,
160,256,101056,1,2,
160,96,101518,1,2,
288,288,102210,1,0,
320,224,102441,1,2,
384,64,102902,1,4,
192,192,103825,1,2,
192,96,104056,1,2,
128,160,104287,1,2,
192,160,104518,1,2,
256,160,104748,1,6,
192,192,105902,6,2,B|192:192|288:192|352:160,1,100
320,192,107518,2,6,B|320:192|416:192|480:160,2,100
320,192,109595,5,0,
256,224,109825,1,2,
320,320,110172,1,4,
256,192,111210,12,2,113518
192,192,114902,2,2,B|192:192|192:96|192:64,3,100
288,192,116518,5,0,
352,192,116749,1,2,
320,352,117210,1,4,
128,192,117903,1,2,
192,32,118364,1,2,
64,128,118826,1,0,
128,128,119056,1,4,
128,128,127595,5,0,
288,160,128057,1,2,
224,192,128287,1,4,
416,32,128980,1,2,
320,160,129441,1,2,
384,160,129672,1,2,
320,192,129903,1,2,
384,192,130134,1,2,
320,224,130364,1,6,
256,64,131287,5,0,
160,192,131749,1,2,
224,128,131980,1,2,
448,192,132672,1,0,
512,128,132903,1,0,
256,96,133595,1,2,
256,160,133826,1,2,
256,0,134287,1,4,
192,64,134980,5,0,
192,224,135441,1,2,
192,128,135672,1,0,
352,64,136364,1,0,
320,128,136595,1,2,
384,128,136826,1,0,
320,160,137057,1,2,
384,160,137288,1,0,
320,192,137518,1,2,
384,192,137749,1,4,
384,288,138672,5,0,
416,224,138903,1,2,
384,160,139134,1,0,
352,224,139365,1,2,
320,160,139595,1,4,
128,64,140518,5,0,
192,64,140749,1,2,
128,96,140980,1,0,
192,96,141211,1,2,
128,160,141441,1,0,
192,160,141672,1,2,
160,224,141903,1,4,
320,192,142365,5,0,
224,64,142826,1,2,
288,64,143057,1,0,
32,64,143749,1,2,
192,64,144211,1,2,
256,64,144442,1,2,
192,128,144672,1,2,
256,128,144903,1,2,
160,128,145134,1,6,
64,64,146057,5,0,
64,224,146518,1,2,
64,128,146749,1,2,
288,128,147442,1,0,
192,128,147672,1,0,
192,352,148364,1,2,
192,256,148595,1,2,
320,256,148942,1,4,
