osu file format v5

[General]
AudioFilename: DragosteaDinTei.mp3
AudioLeadIn: 0
PreviewTime: 3068
Countdown: 0
SampleSet: Soft
StackLeniency: 0.4
Mode: 0
LetterboxInBreaks: 0
StoryFireInFront: 0

[Editor]
DistanceSpacing: 1
BeatDivisor: 4
GridSize: 8

[Metadata]
Title:Dragostea Din Tei (Taiko Cut)
Artist:O-Zone
Creator:Zekira
Version:TaikOsu-Muzukashii
Source:Taiko no Tatsujin
Tags:numa numa

[Difficulty]
HPDrainRate:6
CircleSize:4
OverallDifficulty:5
SliderMultiplier:1.4
SliderTickRate:1

[Events]
//Background and Video events
0,0,"2754827_95334dc11c_m.jpeg"
//Break Periods
//Storyboard Layer 0 (Background)
//Storyboard Layer 1 (Fail)
//Storyboard Layer 2 (Pass)
//Storyboard Layer 3 (Foreground)
//Storyboard Sound Samples
//Background Colour Transformations
3,100,247,222,170

[TimingPoints]
10453,461.538461538462,4,2,0,69,1,0
58337,-100,4,2,0,0,0,0
60068,-100,4,2,0,69,0,0
65837,-100,4,2,0,69,0,1

[Colours]
Combo1 : 128,128,0
Combo2 : 243,89,34
Combo3 : 112,196,193
Combo4 : 0,0,255

[HitObjects]
256,192,12760,1,2
256,192,13683,1,2
256,192,14606,1,2
256,192,15529,1,2
392,192,15991,5,0
392,192,16453,1,0
392,192,16914,1,0
392,192,17376,1,0
392,192,17837,1,4
40,32,19683,5,0
112,32,19914,1,0
184,32,20145,1,2
320,32,20606,1,0
456,32,21068,1,0
456,104,21299,1,2
456,176,21529,5,0
456,248,21760,1,0
456,320,21991,1,2
312,328,22453,1,0
168,328,22914,1,2
96,328,23145,1,2
24,328,23376,5,0
24,256,23606,1,0
24,184,23837,1,2
24,40,24299,1,0
160,40,24760,1,0
232,40,24991,1,2
232,40,25453,1,2
472,352,27068,5,0
400,352,27299,1,0
328,352,27530,1,2
192,352,27991,1,0
56,352,28453,1,0
56,280,28684,1,2
56,208,28914,5,0
56,136,29145,1,0
56,64,29376,1,2
200,56,29838,1,0
344,56,30299,1,2
416,56,30530,1,2
488,56,30761,5,0
488,128,30991,1,0
488,200,31222,1,2
488,344,31684,1,0
352,344,32145,1,0
280,344,32376,1,2
280,344,32838,1,2
40,344,34453,5,0
136,248,34914,1,0
184,200,35145,1,2
240,152,35376,1,0
328,48,35837,1,4
464,56,36299,5,0
424,112,36529,1,0
384,168,36760,1,0
344,224,36991,2,0,B|304:272,2,35
256,328,37683,1,4
112,328,38145,5,0
112,192,38606,1,0
112,120,38837,1,2
112,48,39068,1,0
256,48,39529,2,0,B|344:48,1,70,0|2
392,48,39991,2,0,B|392:136,3,70,0|0|2|0
392,328,41376,1,4
256,32,42068,5,0
256,104,42299,2,0,B|312:104,4,35
392,104,43222,5,6
392,240,43683,1,0
256,240,44145,2,0,B|152:240,2,70,0|2|0
256,96,45068,2,0,B|152:96,2,70,0|2|0
392,96,45991,2,0,B|488:96,2,70,0|2|0
392,240,46914,2,0,B|488:240,2,70,0|2|0
320,240,47606,5,2
320,240,47837,1,2
320,240,48068,1,2
320,240,48299,1,2
320,240,48529,1,2
320,240,48760,1,2
320,240,48991,1,2
248,240,49222,5,0
176,240,49453,1,0
104,240,49683,1,2
32,240,49914,1,2
32,168,50145,2,0,B|32:88,1,70
32,24,50606,1,2
168,24,51068,5,0
240,24,51299,1,0
312,24,51529,1,2
384,24,51760,1,2
456,24,51991,1,0
456,96,52222,2,2,B|456:144,2,35
384,96,52683,1,2
312,96,52914,5,0
240,96,53145,1,0
168,96,53376,1,2
96,96,53606,1,2
96,168,53837,1,0
168,168,54068,1,0
240,168,54299,1,2
344,360,54760,5,0
272,360,54991,1,0
200,360,55221,1,2
128,360,55452,1,2
56,360,55683,1,0
56,288,55914,2,2,B|56:240,2,35
128,288,56375,1,2
200,288,56606,5,0
272,288,56837,1,0
344,288,57068,1,2
416,288,57298,1,2
416,216,57529,1,0
344,216,57760,1,0
272,216,57991,1,2
200,216,58222,1,2
256,192,58453,12,0,59837
456,32,60299,6,0,B|384:32,1,70
312,32,60760,2,2,B|232:32,1,70
168,32,61222,2,0,B|88:32,1,70
24,32,61683,1,2
256,192,62145,5,0
256,192,62606,1,2
256,192,63068,1,0
256,192,63529,1,2
256,192,63991,1,4
24,32,64914,5,2
24,32,65376,1,2
160,32,65837,5,0
160,32,66068,1,0
232,32,66299,2,2,B|320:32,1,70
368,32,66760,1,0
440,32,66991,1,2
440,104,67222,1,0
440,176,67453,1,2
440,248,67683,1,0
440,320,67914,2,2,B|336:320,1,70
232,320,68606,5,0
184,272,68837,1,2
240,224,69068,1,0
184,176,69299,1,2
240,128,69529,1,0
312,128,69760,2,2,B|368:128,2,35
424,40,70453,5,0
424,40,70683,1,2
352,40,70914,1,0
352,40,71145,1,2
280,40,71376,1,0
280,40,71606,1,2
208,40,71837,1,0
488,40,72299,5,2
488,40,72761,1,2
352,40,73222,5,0
352,40,73453,1,0
280,40,73684,2,2,B|192:40,1,70
144,40,74145,1,0
72,40,74376,1,2
72,112,74607,1,0
72,184,74838,1,2
72,256,75068,1,0
72,328,75299,2,2,B|176:328,1,70
280,328,75991,1,0
352,328,76222,1,2
424,328,76453,1,0
328,216,76914,5,0
328,216,77145,1,0
328,216,77376,1,2
184,216,77837,1,0
184,216,78068,1,0
184,216,78299,1,2
256,96,78760,1,4
488,352,79683,5,6
488,352,80145,1,6
352,352,80606,5,0
352,352,80837,1,0
280,352,81068,2,2,B|192:352,1,70
144,352,81529,1,0
72,352,81760,1,2
72,280,81991,1,0
72,208,82222,1,2
72,136,82452,1,0
72,64,82683,2,2,B|176:64,1,70
280,64,83375,5,0
328,112,83606,1,2
272,160,83837,1,0
328,208,84068,1,2
272,256,84298,1,0
200,256,84529,2,2,B|144:256,2,35
88,344,85222,5,0
88,344,85452,1,2
160,344,85683,1,0
160,344,85914,1,2
232,344,86145,1,0
232,344,86375,1,2
304,344,86606,1,0
24,344,87068,5,6
24,344,87530,1,6
160,344,87991,5,0
160,344,88222,1,0
232,344,88453,2,2,B|320:344,1,70
368,344,88914,1,0
440,344,89145,1,2
440,272,89376,1,0
440,200,89607,1,2
440,128,89837,1,0
440,56,90068,2,2,B|336:56,1,70
232,56,90760,1,0
160,56,90991,1,2
88,56,91222,1,0
184,168,91683,5,0
184,168,91914,1,0
184,168,92145,1,2
328,168,92606,1,0
328,168,92837,1,0
328,168,93068,1,2
256,288,93529,1,4
