osu file format v9

[General]
AudioFilename: yamanoborikibun.mp3
AudioLeadIn: 3000
PreviewTime: 126040
Countdown: 0
SampleSet: Soft
StackLeniency: 0.5
Mode: 1
LetterboxInBreaks: 0

[Editor]
Bookmarks: 40,6040,18040,42040,54040,66040,78040,90040,102040,114040,126040,150040
DistanceSpacing: 0
BeatDivisor: 4
GridSize: 8

[Metadata]
Title:Yamanobori Kibun
Artist:O-Life Japan
Creator:qinche
Version:Taiko
Source:Touhou
Tags:Eihou no Kazeshirube Kagiyama Hina Yakujinsama no Toori Michi Dark Road ZUN Shanghai Alice Masami Tea guruguru

[Difficulty]
HPDrainRate:6
CircleSize:7
OverallDifficulty:5
ApproachRate:10
SliderMultiplier:1.4
SliderTickRate:0.5

[Events]
//Background and Video events
0,0,"taikobg.jpg"
//Break Periods
//Storyboard Layer 0 (Background)
//Storyboard Layer 1 (Fail)
//Storyboard Layer 2 (Pass)
//Storyboard Layer 3 (Foreground)
//Storyboard Sound Samples
//Background Colour Transformations
3,100,164,143,121

[TimingPoints]
40,375,4,2,2,70,1,0
42040,-100,4,2,2,70,0,1
54040,-100,4,2,2,70,0,0
66040,-100,4,2,2,70,0,1
90040,-100,4,2,2,70,0,0
114040,-100,4,2,2,80,0,1
138040,-100,4,2,2,70,0,0

[Colours]
Combo1 : 209,233,97
Combo2 : 234,231,198
Combo3 : 207,58,41
Combo4 : 111,92,55

[HitObjects]
136,152,40,1,6
136,152,415,1,8
136,152,602,1,0
136,152,790,1,8
136,152,977,1,8
136,152,1353,1,0
136,152,1540,1,8
136,152,1915,1,8
136,152,2102,1,0
332,184,2290,1,0
332,184,2477,1,0
332,184,2571,1,8
332,184,3040,1,6
332,184,3415,1,8
332,184,3602,1,0
332,184,3790,1,8
332,184,3977,1,8
332,184,4352,1,0
204,336,4540,1,8
204,336,4915,1,8
204,336,5102,1,0
204,336,5290,1,4
204,336,5571,1,6
204,336,5852,1,6
204,336,6040,1,8
204,336,6321,1,0
204,336,6602,1,8
208,336,6790,1,8
356,184,7071,1,0
356,184,7352,1,0
356,184,7540,1,8
356,184,7727,1,0
356,184,7915,1,0
356,184,8102,1,8
356,184,8290,1,8
356,184,8571,1,8
356,184,8852,1,0
356,184,8946,1,0
356,184,9040,1,8
148,104,9321,1,8
148,104,9602,1,8
148,104,9790,1,8
148,104,10071,1,0
148,104,10352,1,0
148,104,10540,1,8
148,104,10727,1,0
148,104,10915,1,0
340,176,11102,1,8
340,176,11290,1,8
336,176,11571,1,8
340,176,11852,1,0
340,176,11946,1,0
340,176,12040,1,8
336,176,12321,1,0
336,176,12415,1,8
340,176,12602,1,0
152,136,12790,1,8
152,136,13071,1,0
152,136,13165,1,8
152,136,13352,1,0
152,136,13540,1,8
152,136,13727,1,0
152,136,13915,1,8
152,136,14102,1,8
152,136,14196,1,0
152,136,14290,1,8
152,136,14477,1,0
152,136,14665,1,8
224,208,14852,1,8
224,208,15040,1,8
224,208,15227,1,0
224,208,15321,1,0
224,208,15415,1,8
224,208,15602,1,0
224,208,15790,1,8
224,208,15977,1,8
224,208,16071,1,0
224,208,16165,1,8
152,136,16352,1,0
152,136,16540,1,8
308,128,16727,1,0
308,128,16915,1,8
304,128,17102,1,8
304,128,17196,1,0
308,128,17290,1,8
308,128,17383,1,8
308,128,17477,1,8
308,128,17571,1,0
308,128,17665,1,8
308,128,17852,1,0
308,128,18040,1,8
304,128,18227,1,0
308,128,18415,1,8
308,128,18602,1,8
308,128,18790,1,0
308,128,18977,1,0
304,128,19165,1,8
308,128,19352,1,0
308,128,19540,1,8
308,128,19727,1,0
308,128,19915,1,8
308,128,20102,1,0
308,128,20290,1,0
308,128,20571,1,0
308,128,20852,1,0
308,128,21040,1,8
304,128,21227,1,0
308,128,21415,1,8
308,128,21602,1,0
308,128,21790,1,0
308,128,21977,1,0
304,128,22165,1,8
304,128,22258,1,0
308,128,22352,1,0
308,128,22540,1,8
308,128,22727,1,0
308,128,22915,1,8
308,128,23102,1,8
308,128,23290,1,0
304,128,23571,1,0
308,128,23852,1,0
308,128,24040,1,8
308,128,24227,1,0
308,128,24321,1,0
304,128,24415,1,8
308,128,24602,1,0
308,128,24790,1,0
308,128,24977,1,0
304,128,25165,1,8
308,128,25352,1,0
308,128,25540,1,8
308,128,25727,1,0
308,128,25821,1,0
308,128,25915,1,8
308,128,26102,1,0
308,128,26290,1,0
308,128,26571,1,0
308,128,26852,1,0
308,128,27040,1,8
308,128,27227,1,0
304,128,27321,1,0
304,128,27415,1,8
308,128,27602,1,0
308,128,27790,1,0
308,128,27977,1,0
304,128,28165,1,8
304,128,28258,1,0
304,128,28352,1,0
304,128,28446,1,0
308,128,28540,1,8
308,128,28727,1,0
308,128,28915,1,8
308,128,29102,1,8
308,128,29196,1,0
308,128,29290,1,0
308,128,29477,1,0
308,128,29571,1,0
308,128,29665,1,8
308,128,29758,1,0
308,128,29852,1,8
308,128,29946,1,8
308,128,30040,1,0
308,128,30227,1,0
308,128,30415,1,8
308,128,30602,1,0
304,128,30696,1,8
308,128,30790,1,8
308,128,30977,1,0
308,128,31071,1,8
308,128,31352,1,0
308,128,31540,1,8
308,128,31821,1,8
308,128,32102,1,0
308,128,32196,1,0
308,128,32290,1,8
308,128,32571,1,8
308,128,32852,1,0
308,128,33040,1,8
308,128,33227,1,0
308,128,33415,1,8
308,128,33602,1,0
172,56,33696,1,8
308,128,33790,1,0
304,128,33977,1,8
304,128,34071,1,8
304,128,34352,1,0
304,128,34540,1,8
172,56,34727,1,0
172,56,34915,1,8
308,128,35102,1,0
308,128,35290,1,8
308,128,35383,1,0
172,56,35571,1,0
172,56,35665,1,8
176,56,35758,1,0
308,128,35852,1,8
308,128,36040,1,8
304,128,36321,1,8
308,128,36602,1,8
308,128,36790,1,8
308,128,36977,1,0
308,128,37165,1,0
308,128,37258,1,0
308,128,37352,1,8
308,128,37540,1,8
308,128,37727,1,0
308,128,37915,1,8
308,128,38102,1,0
308,128,38290,1,8
308,128,38571,1,8
308,128,38665,1,0
308,128,38852,1,8
308,128,39040,1,8
304,128,39227,1,0
308,128,39321,1,8
304,128,39415,1,0
308,128,39602,1,8
308,128,39790,1,8
308,128,39977,1,0
308,128,40165,1,8
308,128,40352,1,8
308,128,40540,1,8
304,128,40727,1,0
304,128,40821,1,8
304,128,40915,1,8
308,128,41102,1,0
308,128,41290,1,4
308,128,41477,1,4
308,128,41665,1,4
308,128,42040,1,8
308,128,42227,1,0
308,128,42415,1,8
308,128,42602,1,8
308,128,42696,1,0
308,128,42790,1,8
308,128,42977,1,8
304,128,43071,1,0
308,128,43352,1,8
308,128,43540,1,8
308,128,43727,1,8
304,128,43821,1,0
308,128,44102,1,8
308,128,44290,1,8
308,128,44477,1,0
308,128,44571,1,0
308,128,44665,1,8
308,128,44852,1,0
308,128,44946,1,0
308,128,45040,1,8
308,128,45227,1,0
308,128,45415,1,8
308,128,45602,1,8
308,128,45790,1,8
308,128,45883,1,0
308,128,46071,1,0
308,128,46165,1,0
308,128,46352,1,8
308,128,46446,1,0
156,56,46540,1,8
156,56,46727,1,0
156,56,46915,1,8
156,56,47102,1,8
160,56,47290,1,0
160,56,47477,1,0
156,56,47571,1,0
156,56,47665,1,0
156,56,47852,1,8
156,56,48040,1,8
156,56,48227,1,0
156,56,48321,1,0
156,56,48415,1,8
156,56,48602,1,8
156,56,48790,1,8
156,56,48883,1,0
156,56,48977,1,8
156,56,49071,1,8
156,56,49165,1,8
156,56,49352,1,0
156,56,49540,1,8
156,56,49727,1,0
156,56,49821,1,0
156,56,49915,1,8
156,56,50102,1,0
156,56,50290,1,8
156,56,50477,1,8
156,56,50571,1,0
156,56,50665,1,8
156,56,50852,1,0
156,56,51040,1,8
160,56,51227,1,0
160,56,51321,1,0
160,56,51415,1,0
156,56,51602,1,0
156,56,51790,1,8
156,56,51977,1,0
156,56,52071,1,0
156,56,52165,1,8
156,56,52258,1,8
156,56,52352,1,0
156,56,52540,1,8
156,56,52727,1,0
160,56,52821,1,0
156,56,52915,1,8
156,56,53102,1,0
156,56,53290,1,4
156,56,53477,1,4
156,56,53665,1,4
408,216,54040,1,4
408,216,54602,1,0
408,216,54790,1,4
408,216,54977,1,4
408,216,55540,1,8
408,216,55727,1,8
408,216,55915,1,4
408,216,56102,1,4
408,216,56290,1,6
408,216,56571,1,6
408,216,57040,1,4
408,216,57602,1,0
408,216,57790,1,4
408,216,57977,1,4
408,216,58540,1,8
408,216,58727,1,8
408,216,58915,1,4
408,216,59102,1,4
408,216,59290,1,6
408,216,59571,1,6
408,216,60040,1,4
408,216,60227,1,4
408,216,60415,1,4
408,216,60602,1,0
408,216,60790,1,6
408,216,60977,1,6
408,216,61540,1,8
408,216,61727,1,8
408,216,61915,1,4
408,216,62102,1,4
408,216,62290,1,6
408,216,62571,1,6
408,216,63040,1,4
408,216,63227,1,4
408,216,63415,1,4
408,216,63602,1,0
408,216,63790,1,6
408,216,63977,1,6
408,216,64540,1,8
408,216,64727,1,8
408,216,64915,1,4
408,216,65102,1,4
408,216,65290,1,6
408,216,65665,1,6
408,216,65852,1,0
408,216,66040,1,8
408,216,66227,1,0
408,216,66415,1,0
408,216,66602,1,0
240,192,66696,1,0
408,216,66790,1,8
408,216,67071,1,0
408,216,67352,1,8
408,216,67540,1,8
408,216,67821,1,0
408,216,68102,1,8
408,216,68290,1,8
176,16,68383,1,0
264,208,68477,1,0
408,216,68571,1,0
408,216,68852,1,8
408,216,69040,1,8
408,216,69227,1,0
408,216,69415,1,8
408,216,69602,1,0
272,272,69696,1,0
408,216,69790,1,8
408,216,70071,1,0
408,216,70352,1,8
408,216,70540,1,8
408,216,70915,1,0
408,216,71290,1,8
408,216,71477,1,8
408,216,71571,1,0
408,216,71665,1,8
408,216,71852,1,0
408,216,72040,1,8
408,216,72415,1,0
408,216,72790,1,8
408,216,72977,1,0
192,168,73071,1,0
408,216,73165,1,8
408,216,73352,1,8
408,216,73540,1,8
408,216,73727,1,0
408,216,73915,1,8
408,216,74102,1,8
408,216,74290,1,8
408,216,74571,1,0
408,216,74665,1,8
408,216,74852,1,0
408,216,75040,1,8
408,216,75415,1,0
408,216,75790,1,8
408,216,75977,1,0
408,216,76165,1,8
408,216,76352,1,8
408,216,76540,2,0,B|352:208,6,35
408,216,77290,1,4
408,216,77477,1,4
408,216,77665,1,4
408,216,78040,1,8
408,216,78227,1,0
408,216,78415,1,8
408,216,78602,1,8
408,216,78696,1,0
408,216,78790,1,8
408,216,79071,1,0
408,216,79352,1,8
408,216,79540,1,8
408,216,79821,1,0
408,216,80102,1,8
408,216,80290,1,8
408,216,80477,1,0
408,216,80571,1,0
408,216,80665,1,8
408,216,80852,1,8
408,216,81040,1,8
408,216,81227,1,0
408,216,81415,1,8
408,216,81508,1,0
408,216,81602,1,8
408,216,81790,1,8
408,216,82071,1,0
408,216,82352,1,8
408,216,82540,1,8
408,216,82821,1,0
408,216,83102,1,8
408,216,83290,1,8
408,216,83383,1,8
408,216,83477,1,0
408,216,83571,1,0
408,216,83665,1,8
408,216,83852,1,8
408,216,84040,1,8
408,216,84321,1,0
408,216,84602,1,8
408,216,84790,1,8
408,216,84977,1,0
408,216,85165,1,8
408,216,85352,1,8
408,216,85446,1,0
408,216,85540,1,8
408,216,85727,1,0
408,216,85915,1,8
408,216,86102,1,0
408,216,86290,1,8
408,216,86477,1,8
408,216,86571,1,0
408,216,86665,1,0
408,216,86852,1,8
408,216,87040,1,8
408,216,87415,1,0
408,216,87790,1,8
408,216,87977,1,0
408,216,88165,1,8
408,216,88352,1,8
408,216,88540,2,0,B|368:208|376:208,4,35
408,216,89102,1,0
408,216,89290,1,8
408,216,89383,1,8
408,216,89477,1,8
408,216,89571,1,8
408,216,89665,1,0
408,216,89758,1,0
408,216,89852,1,0
408,216,90040,1,8
408,216,90415,1,0
408,216,90790,1,8
408,216,91165,1,0
408,216,91352,1,0
408,216,91540,1,8
408,216,91915,1,0
408,216,92290,1,8
408,216,92665,1,0
408,216,92852,1,8
408,216,93040,1,8
408,216,93321,1,0
408,216,93415,1,0
408,216,93602,1,8
408,216,93790,1,8
408,216,94071,1,0
408,216,94165,1,0
408,216,94352,1,8
408,216,94540,1,8
408,216,94821,1,0
408,216,94915,1,0
408,216,95102,1,8
408,216,95290,1,8
408,216,95571,1,0
408,216,95665,1,0
408,216,95852,1,8
408,216,95946,1,8
408,216,96040,1,8
408,216,96227,1,0
408,216,96321,1,0
408,216,96415,1,8
408,216,96602,1,8
408,216,96790,1,8
408,216,96977,1,0
408,216,97071,1,0
408,216,97165,1,8
408,216,97352,1,8
408,216,97540,1,8
408,216,97727,1,0
408,216,97821,1,0
408,216,97915,1,8
408,216,98102,1,8
408,216,98290,1,8
408,216,98477,1,0
408,216,98571,1,0
408,216,98665,1,8
408,216,98852,1,8
408,216,98946,1,8
408,216,99040,1,0
408,216,99321,1,0
408,216,99415,1,0
408,216,99602,1,8
408,216,99790,1,8
408,216,100071,1,0
408,216,100165,1,0
408,216,100352,1,8
408,216,100540,1,0
408,216,100821,1,0
408,216,100915,1,8
408,216,101290,1,8
168,8,101383,1,0
168,8,101477,1,8
408,216,101571,1,0
408,216,101665,1,8
408,216,101852,1,0
408,216,102040,1,4
408,216,102227,1,0
408,216,102415,1,8
80,168,102602,1,0
80,168,102696,1,0
80,168,102790,1,0
80,168,103071,1,8
80,168,103165,1,8
80,168,103352,1,0
80,168,103540,1,0
80,168,103727,1,0
80,168,103915,1,8
80,168,104102,1,8
80,168,104290,1,0
80,168,104571,1,0
80,168,104665,1,0
80,168,104852,1,0
80,168,105040,1,4
80,168,105227,1,0
80,168,105415,1,8
80,168,105602,1,0
80,168,105696,1,0
80,168,105790,1,0
80,168,106071,1,8
80,168,106165,1,8
80,168,106352,1,0
80,168,106540,1,0
80,168,106727,1,0
80,168,106915,1,8
80,168,107102,1,8
80,168,107196,1,0
80,168,107290,1,8
40,120,107571,1,0
160,16,107665,1,8
80,168,107758,1,8
80,168,107852,1,8
40,120,108040,1,6
160,16,108321,1,0
184,40,108415,1,8
144,80,108602,1,0
240,176,108696,1,0
160,16,108790,1,0
240,176,108977,1,0
160,16,109071,1,0
184,40,109165,1,8
240,176,109352,1,0
168,0,109540,1,8
168,0,109727,1,0
160,16,109915,1,8
168,0,110102,1,0
168,0,110290,1,8
160,16,110571,1,0
168,0,110665,1,8
168,0,110852,1,8
184,40,111040,1,6
184,40,111321,1,0
184,40,111415,1,8
184,40,111602,1,8
168,0,111696,1,0
184,40,111790,1,0
168,0,111977,1,0
184,40,112165,1,8
184,40,112258,1,0
184,40,112352,1,0
184,40,112540,1,8
168,0,112727,1,0
168,0,112915,1,8
168,0,113102,1,8
168,0,113290,1,0
168,0,113383,1,0
184,40,113477,1,8
184,40,113571,1,0
168,0,113665,1,8
184,40,113758,1,0
168,0,113852,1,8
168,0,113946,1,0
168,0,114040,1,8
168,0,114227,1,0
168,0,114415,1,8
168,0,114602,1,0
168,0,114696,1,0
168,0,114790,1,8
168,0,115071,1,0
168,0,115352,1,8
168,0,115540,1,8
168,0,115633,1,0
168,0,115821,1,0
168,0,115915,1,0
168,0,116102,1,8
168,0,116290,1,8
168,0,116571,1,0
168,0,116852,1,8
168,0,117040,1,8
168,0,117227,1,0
168,0,117415,1,8
168,0,117508,1,0
168,0,117602,1,0
168,0,117790,1,8
168,0,118071,1,0
168,0,118352,1,8
168,0,118446,1,0
168,0,118540,1,8
168,0,118727,1,0
168,0,118915,1,8
168,0,119102,1,0
168,0,119196,1,0
168,0,119290,1,8
168,0,119477,1,0
168,0,119665,1,0
168,0,119852,1,8
168,0,120040,1,8
168,0,120321,1,0
168,0,120415,1,0
168,0,120602,1,8
168,0,120790,1,8
168,0,120977,1,0
168,0,121071,1,0
168,0,121165,1,8
168,0,121352,1,8
168,0,121540,1,8
168,0,121727,1,0
168,0,121915,1,8
168,0,122102,1,0
168,0,122290,1,8
168,0,122477,1,0
168,0,122571,1,0
168,0,122665,1,8
168,0,122852,1,8
168,0,123040,1,8
168,0,123227,1,0
168,0,123415,1,8
168,0,123790,1,8
168,0,123977,1,0
168,0,124165,1,8
168,0,124352,1,0
168,0,124540,1,12
168,0,124915,1,12
168,0,125290,1,4
168,0,125477,1,4
168,0,125665,1,4
168,0,125852,1,0
224,184,126040,1,8
224,184,126227,1,0
224,184,126415,1,8
224,184,126602,1,0
224,184,126696,1,0
224,184,126790,1,8
224,184,126883,1,0
224,184,127071,1,0
224,184,127165,1,0
224,184,127352,1,8
224,184,127540,1,8
224,184,127633,1,0
224,184,127821,1,0
224,184,127915,1,0
224,184,128102,1,8
224,184,128290,1,8
224,184,128477,1,0
224,184,128571,1,0
224,184,128665,1,0
224,184,128852,1,8
224,184,129040,1,8
224,184,129227,1,0
224,184,129415,1,8
224,184,129508,1,0
224,184,129602,1,0
224,184,129790,1,8
224,184,130071,1,0
224,184,130352,1,8
224,184,130446,1,0
224,184,130540,1,8
224,184,130727,1,0
224,184,130915,1,8
224,184,131102,1,0
224,184,131196,1,0
224,184,131290,1,8
224,184,131383,1,0
224,184,131477,1,0
224,184,131665,1,0
224,184,131852,1,8
224,184,132040,1,8
224,184,132321,1,0
224,184,132415,1,0
224,184,132602,1,8
224,184,132790,1,8
224,184,132977,1,0
224,184,133071,1,0
224,184,133165,1,8
224,184,133352,1,8
224,184,133540,1,8
224,184,133727,1,0
224,184,133821,1,8
224,184,133915,1,8
224,184,134102,1,0
224,184,134290,1,8
224,184,134477,1,0
224,184,134571,1,0
224,184,134665,1,8
224,184,134852,1,8
224,184,135040,1,8
224,184,135321,1,8
224,184,135602,1,8
224,184,135790,1,8
224,184,135977,1,0
224,184,136165,1,8
224,184,136352,1,0
224,184,136540,1,12
224,184,136821,1,12
224,184,137102,1,12
224,184,137290,1,8
224,184,137383,1,8
224,184,137477,1,0
224,184,137571,1,0
224,184,137665,1,8
224,184,137758,1,8
224,184,137852,1,8
408,216,138040,1,4
408,216,138602,1,0
408,216,138790,1,4
408,216,138977,1,4
408,216,139540,1,8
408,216,139727,1,8
408,216,139915,1,4
408,216,140102,1,4
408,216,140290,1,6
408,216,140571,1,6
408,216,140852,1,0
408,216,141040,1,4
408,216,141602,1,0
408,216,141790,1,4
408,216,141977,1,4
408,216,142540,1,8
408,216,142727,1,8
408,216,142915,1,4
408,216,143102,1,4
408,216,143290,1,6
408,216,143571,1,6
408,216,143852,1,0
408,216,144040,1,4
408,216,144227,1,4
408,216,144415,1,4
408,216,144602,1,0
408,216,144790,1,6
408,216,144977,1,6
408,216,145165,1,0
408,216,145258,1,0
408,216,145352,1,0
408,216,145540,1,8
408,216,145727,1,8
408,216,145915,1,4
408,216,146102,1,4
408,216,146290,1,6
408,216,146571,1,6
408,216,146852,1,0
408,216,147040,1,4
408,216,147227,1,4
408,216,147415,1,4
408,216,147602,1,0
408,216,147790,1,6
408,216,147977,1,6
408,216,148165,1,0
408,216,148258,1,0
408,216,148352,1,0
408,216,148446,1,0
408,216,148540,1,8
408,216,148727,1,8
408,216,148915,1,4
408,216,149102,1,4
408,216,149290,1,6
152,0,149571,1,8
408,216,149665,1,8
408,216,149758,1,8
408,216,149852,1,0
408,216,149946,1,0
408,216,150040,1,8
