osu file format v9

[General]
AudioFilename: yamanoborikibun.mp3
AudioLeadIn: 3000
PreviewTime: 126040
Countdown: 0
SampleSet: Normal
StackLeniency: 0.5
Mode: 0
LetterboxInBreaks: 0

[Editor]
Bookmarks: 40,198040
DistanceSpacing: 0
BeatDivisor: 4
GridSize: 8

[Metadata]
Title:Yamanobori Kibun
Artist:O-Life Japan
Creator:qinche
Version:Lunatic
Source:Touhou
Tags:Eihou no Kazeshirube Kagiyama Hina Yakujinsama no Toori Michi Dark Road ZUN Shanghai Alice Masami Tea guruguru

[Difficulty]
HPDrainRate:6
CircleSize:4
OverallDifficulty:6
ApproachRate:8
SliderMultiplier:1.6
SliderTickRate:0.5

[Events]
//Background and Video events
0,0,"bg.jpg"
//Break Periods
2,161865,172540
//Storyboard Layer 0 (Background)
//Storyboard Layer 1 (Fail)
//Storyboard Layer 2 (Pass)
//Storyboard Layer 3 (Foreground)
//Storyboard Sound Samples
//Background Colour Transformations
3,100,164,143,121

[TimingPoints]
40,375,4,1,1,30,1,0
6000,-100,4,1,1,50,0,0
18040,-100,4,1,1,70,0,0
30000,-100,4,2,1,55,0,0
41852,-100,4,2,1,20,0,0
42040,-100,4,2,1,65,0,0
52915,-100,4,2,1,55,0,0
54000,-100,4,1,1,70,0,0
55352,-100,4,1,1,35,0,0
55540,-100,4,1,1,70,0,0
56665,-100,4,1,1,20,0,0
57040,-100,4,1,1,70,0,0
58352,-100,4,1,1,35,0,0
58540,-100,4,1,1,70,0,0
59665,-100,4,1,1,20,0,0
60040,-80,4,1,1,70,0,0
61352,-80,4,1,1,35,0,0
61540,-80,4,1,1,75,0,0
62665,-80,4,1,1,20,0,0
63040,-71.4285714285714,4,1,1,80,0,0
64352,-71.4285714285714,4,1,1,35,0,0
64540,-71.4285714285714,4,1,1,80,0,0
65852,-71.4285714285714,4,1,1,20,0,0
66000,-100,4,2,1,55,0,0
88352,-142.857142857143,4,2,1,55,0,0
89383,-100,4,2,1,55,0,0
90040,-100,4,1,1,50,0,0
100540,-100,4,1,1,45,0,0
102040,-100,4,1,1,60,0,0
114000,-100,4,2,1,65,0,0
126040,-100,4,2,1,75,0,0
138040,-100,4,1,1,60,0,0
139352,-100,4,1,1,35,0,0
139540,-100,4,1,1,60,0,0
142352,-100,4,1,1,35,0,0
142540,-100,4,1,1,70,0,0
144040,-80,4,1,1,75,0,0
145352,-80,4,1,1,35,0,0
145540,-80,4,1,1,75,0,0
147040,-80,4,1,1,80,0,0
148352,-80,4,1,1,35,0,0
148540,-80,4,1,1,80,0,0
149852,-80,4,1,1,5,0,0
150040,-100,4,1,1,35,0,0
156040,-100,4,1,1,40,0,0
159040,-100,4,1,1,50,0,0
161290,-100,4,1,1,40,0,0
173290,-80,4,2,1,50,0,0
174040,-80,4,2,1,65,0,0
185290,-80,4,2,1,80,0,0
186040,-80,4,2,1,70,0,0

[Colours]
Combo1 : 209,233,97
Combo2 : 234,231,198
Combo3 : 207,58,41
Combo4 : 111,92,55

[HitObjects]
184,80,40,2,0,B|184:136|184:136|152:168|152:168|152:232,1,160,4|0
208,304,602,1,0
304,304,790,2,0,B|304:224,1,80,4|0
304,136,1165,2,0,B|368:136|368:136|384:128,2,80,0|0|4
152,136,1915,1,0
104,216,2102,1,0
144,304,2290,2,0,B|48:304,1,80,6|0
48,304,2571,1,0
400,104,3040,6,0,B|400:208|400:208|352:240,1,160,4|0
288,304,3602,1,0
224,240,3790,1,4
288,304,3977,1,0
224,240,4165,2,0,B|224:160|224:160|224:160,2,80,0|0|4
224,72,4915,1,0
128,72,5102,1,0
128,160,5290,2,0,B|128:288,1,120,6|0
128,296,5665,1,0
408,112,6040,5,6
448,192,6227,1,0
384,256,6415,1,0
384,256,6790,1,8
304,216,6977,1,0
312,128,7165,1,0
312,128,7540,1,8
408,112,7727,1,0
448,192,7915,1,0
448,192,8290,5,8
384,256,8477,1,0
296,280,8665,1,0
208,256,8852,1,0
128,208,9040,5,6
56,272,9227,1,0
96,352,9415,1,0
96,352,9790,1,8
184,344,9977,1,0
208,256,10165,1,0
208,256,10540,1,8
128,208,10727,1,0
56,272,10915,1,0
56,272,11290,5,8
128,208,11477,1,0
184,136,11665,1,0
224,56,11852,1,0
312,56,12040,5,6
352,136,12227,1,0
440,136,12415,1,0
304,208,12790,1,8
352,136,12977,1,0
440,136,13165,1,0
216,328,13540,5,8
168,256,13727,1,0
80,256,13915,1,0
208,176,14290,1,8
168,256,14477,1,0
80,256,14665,1,0
40,176,14852,1,0
80,96,15040,5,6
168,112,15227,1,0
256,96,15415,1,0
432,216,15790,1,8
344,200,15977,1,0
256,216,16165,1,0
80,336,16540,1,8
168,352,16727,1,0
256,336,16915,1,0
328,280,17102,1,0
376,200,17290,1,8
376,184,17383,1,0
384,168,17477,1,0
400,160,17571,1,0
416,152,17665,2,0,B|440:112|416:72,1,80,0|0
208,112,18040,6,0,B|184:72|144:72,1,80,4|0
128,160,18415,2,0,B|136:208|184:208,1,80,0|0
200,208,18696,1,0
216,200,18790,1,8
256,120,18977,1,8
336,80,19165,2,0,B|392:80|392:80|392:136|440:168,1,160,0|0
440,256,19727,1,0
336,168,19915,1,0
336,80,20102,1,0
256,120,20290,2,0,B|184:120|152:72,1,120,8|0
144,56,20665,2,0,B|128:96|96:120,1,80
24,160,21040,6,0,B|-8:128|16:88,1,80,4|0
96,120,21415,2,0,B|134:151|120:192,1,80
112,204,21696,1,0
100,216,21790,1,8
16,248,21977,1,8
16,248,22165,2,0,B|40:336|136:336,1,160,0|0
216,364,22727,1,0
272,296,22915,1,0
224,224,23102,1,0
136,248,23290,2,0,B|81:233|86:193|100:185|104:145|50:131,1,160,8|0
336,96,24040,6,0,B|392:72|448:128|432:184,1,160,4|0
336,192,24602,1,0
432,182,24790,2,0,B|392:254,1,80,8|8
304,280,25165,2,0,B|320:344|384:360|432:336,2,160,0|0|0
392,256,26102,1,0
480,232,26290,2,0,B|464:168|400:152|352:176,1,160,8|0
392,256,26852,1,0
304,280,27040,6,0,B|278:232|246:280|230:280|198:320|166:280,1,160,4|0
96,224,27602,1,0
184,192,27790,2,0,B|200:152|184:112,2,80,8|8|0
96,224,28352,1,0
128,312,28540,2,0,B|48:336,1,80
184,192,28915,2,0,B|264:168,1,80
448,224,29290,2,0,B|368:248,1,80,8|0
384,264,29571,1,0
396,280,29665,2,0,B|308:304,1,80
312,152,30040,5,2
277,241,30227,1,2
181,241,30415,1,2
153,148,30602,1,0
234,89,30790,1,8
312,152,30977,1,0
312,152,31071,6,0,B|368:128|368:128|376:104|408:108|392:136|368:128,1,120
392,216,31540,2,0,B|392:288|328:312,2,120,8|0|0
296,216,32290,2,0,B|296:144|360:120,2,120,8|0|0
296,216,33040,5,2
384,160,33227,1,2
464,224,33415,1,2
424,312,33602,1,0
328,312,33790,1,8
296,216,33977,1,8
296,216,34071,6,0,B|240:192|240:192|232:168|200:172|216:200|240:192,1,120
248,280,34540,2,0,B|320:328|400:280,1,160,8|0
400,280,35102,1,0
320,216,35290,2,0,B|249:168|169:216,1,160,8|0
168,216,35852,1,0
88,264,36040,6,0,B|64:224|88:184,1,80,10|0
168,216,36415,2,0,B|168:128|256:96,1,160,0|8
312,160,36977,2,0,B|352:144|392:152,1,80
448,224,37352,1,0
408,304,37540,2,0,B|368:280|368:240,1,80,8|0
392,152,37915,2,0,B|440:160|448:208,1,80
368,240,38290,2,0,B|344:264|320:232|304:232|280:208|256:232,1,120,8|0
240,232,38665,5,0
160,272,38852,1,0
80,232,39040,2,0,B|72:184|88:152,1,80,10|0
160,200,39415,2,0,B|248:176|248:80,1,160,0|8
312,144,39977,2,0,B|351:143|383:175,1,80
448,240,40352,2,0,B|400:240|400:288|392:296|392:344|344:344,1,160,8|0
280,280,40915,2,0,B|200:280,1,80
184,280,41196,1,0
168,280,41290,5,8
224,152,41477,1,8
280,280,41665,2,0,B|368:280,1,80,8|0
224,152,42040,5,2
136,112,42227,1,2
72,184,42415,1,2
120,264,42602,1,0
216,240,42790,2,0,B|288:240|312:176,1,120,10|0
320,168,43165,1,0
312,80,43352,1,2
232,120,43540,2,0,B|208:176|232:240,1,120,10|0
240,248,43915,1,0
328,256,44102,1,2
320,168,44290,2,0,B|258:145|202:169,1,120,10|0
192,176,44665,1,0
144,248,44852,1,2
192,320,45040,6,0,B|240:296|240:248,1,80,2|2
328,256,45415,2,0,B|328:208|296:184,1,80,2|0
208,184,45790,2,0,B|152:160|152:80,1,120,10|0
160,72,46165,2,0,B|200:96|200:136,1,80,0|2
120,176,46540,2,0,B|80:208|104:248|112:248|136:288|96:320,1,160,10|0
96,320,47102,1,0
176,368,47290,2,0,B|224:368|248:336,1,80,10|0
248,248,47665,2,0,B|280:216|320:216,1,80,0|2
320,304,48040,6,0,B|366:343|430:343,2,120,10|0|0
248,248,48790,1,10
224,160,48977,1,2
248,72,49165,1,0
328,32,49352,1,2
328,120,49540,2,0,B|304:160|264:160,1,80,10|0
176,184,49915,2,0,B|128:184|104:216,1,80,2|2
72,296,50290,2,0,B|96:320|120:296|136:296|160:272|184:296,1,120,10|0
200,304,50665,5,0
280,352,50852,1,2
368,328,51040,2,0,B|416:296|416:224,2,120,10|0|0
304,264,51790,1,10
264,176,51977,1,0
352,136,52165,1,0
392,224,52352,2,0,B|472:224,2,80,2|10|0
392,128,52915,1,0
296,128,53102,2,0,B|192:128,2,80,2|8|10
296,224,53665,1,10
104,152,54040,6,0,B|112:120|152:120|160:152,1,80,6|0
160,152,54415,2,0,B|168:184|208:184|216:152,1,80
216,152,54790,2,0,B|304:152,1,80,12|8
296,152,55352,5,0
376,112,55540,1,12
376,200,55727,1,0
456,160,55915,1,0
456,72,56102,1,0
376,24,56290,2,0,B|296:24|296:24|256:32,1,120,12|4
232,40,56665,2,0,B|152:40,1,80
72,88,57040,6,0,B|72:144|72:144|48:160,1,80,6|0
56,176,57415,2,0,B|28:203|28:203|28:251,1,80
40,256,57790,2,0,B|120:256,1,80,12|8
120,256,58352,5,0
168,336,58540,1,12
264,336,58727,1,0
312,256,58915,1,0
216,256,59102,1,0
264,168,59290,2,0,B|360:168|360:168|384:152,1,120,12|4
392,136,59665,2,0,B|480:136,1,80
272,56,60040,6,0,B|224:56|224:56|192:72|192:72|176:72,1,99.9999985098839,6|0
104,144,60415,2,0,B|152:144|152:144|184:160|184:160|200:160,1,99.9999985098839
256,232,60790,2,0,B|320:232|320:232|312:216|312:216|336:216,1,99.9999985098839,12|8
330,216,61352,5,0
328,128,61540,1,12
248,176,61727,1,0
248,264,61915,1,0
328,304,62102,1,0
408,264,62290,2,0,B|408:200|408:200|440:176|440:176|440:120,1,149.999997764826,12|4
440,104,62665,2,0,B|416:56|416:56|368:56,1,99.9999985098839
280,80,63040,6,0,B|208:80|208:80|200:64|200:64|192:80|192:80|200:88|200:88|200:104,1,111.999997329712,6|0
112,128,63415,2,0,B|112:152|112:152|104:160|104:160|112:168|112:168|136:208|136:208|120:216|120:232,1,111.999997329712
200,272,63790,2,0,B|248:240|248:240|280:240|280:240|280:200|280:200|296:208,1,111.999997329712,12|8
280,217,64352,5,0
328,136,64540,1,12
280,56,64727,1,0
232,136,64915,1,0
184,56,65102,1,0
136,136,65290,2,0,B|136:176|136:176|152:176|152:176|152:192|152:192|136:192|136:192|144:208|144:208|144:272,1,167.999995994568,12|4
144,288,65665,2,0,B|200:288|200:288|216:256|216:256|216:288,1,111.999997329712
352,280,66040,5,2
432,232,66227,1,2
440,144,66415,1,2
368,80,66602,1,0
280,104,66790,6,0,B|240:128|240:176,1,80,10|0
240,169,67071,1,0
240,169,67165,1,0
264,256,67352,1,0
208,328,67540,6,0,B|168:344|128:328,1,80,10|0
129,328,67821,1,0
129,328,67915,1,0
72,264,68102,1,0
88,176,68290,6,0,B|120:144|168:144,1,80,10|0
159,144,68571,1,0
159,144,68665,1,0
248,168,68852,1,0
336,200,69040,6,0,B|384:200|400:160,1,80,2|2
408,256,69415,2,0,B|448:272|488:256,1,80,2|0
352,328,69790,2,0,B|328:376|288:376|264:328,1,120,10|0
264,328,70165,1,0
232,240,70352,1,0
192,152,70540,6,0,B|184:96|80:96|72:152,1,160,10|0
132,224,71102,1,0
232,240,71290,2,0,B|240:295|344:295|352:239,1,160,10|0
292,168,71852,1,0
352,96,72040,5,10
432,144,72227,1,0
368,216,72415,2,0,B|408:224|432:280|392:328|344:304,1,160,0|10
272,248,72977,1,0
184,232,73165,1,0
104,272,73352,1,0
48,344,73540,6,0,B|16:312|24:272,1,80,10|0
80,200,73915,2,0,B|112:232|104:272,1,80,2|2
160,336,74290,2,0,B|208:280|296:280,1,120,10|0
280,280,74665,1,0
376,288,74852,1,0
280,280,75040,6,0,B|240:256|240:216,1,80,10|0
160,256,75415,2,0,B|160:176|224:104,1,160,0|10
264,32,75977,2,0,B|224:24|184:48,1,80
128,120,76352,2,0,B|80:184|112:272,1,160,10|0
160,352,76915,1,0
256,344,77102,1,0
272,328,77196,1,0
280,312,77290,5,8
152,232,77477,1,8
288,160,77665,1,8
288,160,78040,6,0,B|320:192|360:176,1,80,2|2
288,80,78415,2,0,B|264:48|216:56,1,80,2|0
184,136,78790,2,0,B|112:136|96:200,2,120,10|0|0
184,136,79446,1,0
184,136,79540,1,10
264,264,79821,1,0
344,136,80102,1,0
344,224,80290,5,10
264,96,80571,1,0
184,224,80852,1,0
112,168,81040,6,0,B|80:200|96:240,1,80,2|2
168,296,81415,2,0,B|200:264|184:224,1,80,2|0
112,168,81790,2,0,B|88:104|136:56,2,120,10|0|2
136,168,82446,1,0
160,160,82540,2,0,B|160:256|264:256,1,160,10|0
256,164,83102,1,0
248,72,83290,2,0,B|349:71|349:167,1,160,10|0
256,164,83852,1,2
320,96,84040,6,0,B|252:28|178:101,1,160,10|0
256,164,84602,1,0
168,208,84790,2,0,B|184:248|232:256,1,80,10|0
320,240,85165,1,0
352,152,85352,1,0
280,80,85540,2,0,B|240:64|200:88,1,80,10|0
152,168,85915,2,0,B|136:208|160:248,1,80,2|2
232,296,86290,2,0,B|304:304|344:264,1,120,10|0
352,248,86665,1,0
352,152,86852,1,2
352,248,87040,6,0,B|384:280|424:272,1,80,10|0
436,360,87415,2,0,B|348:376|284:312,1,160,0|10
224,248,87977,2,0,B|192:216|176:176,1,80
256,144,88352,2,0,B|216:48|80:80|72:168|104:224,1,280,10|2
112,232,89383,2,0,B|152:216,2,40
128,248,89665,2,0,B|88:264,3,40
72,272,90040,6,0,B|96:344|96:344|136:368,1,120,4|0
152,360,90415,1,2
168,352,90508,1,0
184,344,90602,1,0
264,304,90790,2,0,B|336:344|336:344|376:328,1,120,4|0
388,324,91165,1,2
404,316,91258,1,0
420,308,91352,1,0
376,224,91540,6,0,B|328:168|328:168|280:160,1,120,4|0
264,160,91915,1,2
248,160,92008,1,0
232,160,92102,1,0
136,168,92290,2,0,B|88:200|88:200|64:264,1,120,4|0
64,272,92665,1,2
60,288,92758,1,0
56,304,92852,1,0
136,352,93040,6,0,B|256:320,1,120,4|0
272,320,93415,2,0,B|296:304|296:304|352:304,1,80,2|0
432,264,93790,2,0,B|400:192|400:192|368:152,1,120,4|0
360,144,94165,2,0,B|336:96|336:96|344:72,1,80,2|0
248,56,94540,6,0,B|160:40|160:40|128:64,1,120,4|0
120,72,94915,2,0,B|72:80|72:80|40:72,1,80,2|0
8,160,95290,2,0,B|32:240|32:240|8:288,1,120,4|0
8,288,95665,2,0,B|56:304|56:304|88:296,1,80,2|0
136,224,96040,6,0,B|176:176|176:176|208:176|208:176|248:120,1,160,4|2
246,122,96508,1,0
246,122,96602,1,0
296,48,96790,2,0,B|336:88|336:88|352:80|352:80|360:88|360:88|352:104|352:104|392:144,1,160,4|2
392,144,97258,1,0
392,144,97352,1,0
424,232,97540,6,0,B|360:272|360:272|368:280|368:280|320:280|320:280|320:312,1,160,4|2
320,304,98008,1,0
320,304,98102,1,0
224,320,98290,2,0,B|176:288|176:288|144:216|144:216|120:240|120:240|120:240,1,160,4|2
127,232,98758,1,0
127,232,98852,1,0
40,184,99040,6,0,B|72:112|72:112|104:112|104:112|128:88,1,120,4|0
128,104,99415,1,2
224,120,99602,1,0
312,88,99790,2,0,B|368:88|368:88|384:136|384:136|408:136,1,120,4|0
408,152,100165,1,2
440,240,100352,1,0
400,328,100540,6,0,B|336:280|336:280|320:288|320:288|296:288,1,120,4|0
280,280,100915,1,2
192,320,101102,1,0
104,280,101290,1,4
96,264,101383,1,0
88,248,101477,1,0
80,232,101571,1,0
72,216,101665,2,0,B|24:120,1,80,4|0
184,88,102040,6,0,B|264:88,1,80,6|0
168,104,102415,2,0,B|272:104,1,80
336,136,102790,1,12
336,136,102977,2,0,B|336:216|416:232|456:216,1,160,4|0
424,136,103540,1,8
336,136,103727,1,0
280,208,103915,1,0
312,296,104102,1,0
232,352,104290,2,0,B|192:336|176:296,1,80,8|0
168,280,104571,2,0,B|144:216|159:158,1,120
80,72,105040,6,0,B|24:136,1,80,6|0
104,72,105415,2,0,B|48:136,1,80
8,208,105790,1,12
8,208,105977,2,0,B|24:288|104:248|104:248|96:200,1,160,4|0
72,128,106540,1,8
152,72,106727,1,0
224,128,106915,1,0
192,216,107102,1,0
224,128,107290,2,0,B|256:72|328:72,1,120,8|0
336,72,107665,2,0,B|384:72|416:96,1,80
376,176,108040,6,0,B|328:208|328:296,1,120,6|0
328,296,108415,1,0
256,352,108602,1,0
168,344,108790,2,0,B|128:320|120:280,1,80,12|0
120,264,109071,1,0
120,248,109165,2,0,B|120:152|32:120,1,160,4|8
96,56,109727,1,0
184,64,109915,1,0
208,144,110102,1,0
288,192,110290,2,0,B|376:224|440:168,1,160,8|0
360,136,110852,1,0
288,192,111040,6,0,B|240:232|240:304,1,120,6|0
240,312,111415,1,0
160,360,111602,1,0
160,272,111790,2,0,B|200:240|240:240,1,80,12|0
248,240,112071,1,0
264,240,112165,2,0,B|312:272|384:256|400:208,1,160,4|8
356,132,112727,1,0
264,152,112915,1,0
264,240,113102,1,0
184,200,113290,5,8
168,192,113383,1,0
160,176,113477,1,0
168,160,113571,1,0
184,152,113665,1,0
200,160,113758,1,0
208,176,113852,1,0
200,192,113946,1,0
184,200,114040,6,0,B|208:240|184:280,1,80,2|2
264,328,114415,2,0,B|304:305|304:258,1,80,2|0
392,232,114790,2,0,B|328:200|328:136,2,120,10|0|0
416,136,115540,2,0,B|480:160|480:232,2,120,10|0|0
384,216,116290,2,0,B|384:283|320:307,2,120,10|0|0
384,200,116946,1,0
376,184,117040,5,2
312,112,117227,1,2
216,116,117415,1,2
168,196,117602,1,0
192,280,117790,2,0,B|128:280|104:208,1,120,10|0
96,192,118165,2,0,B|88:240|40:248,1,80,0|2
0,168,118540,2,0,B|16:120|64:120,1,80,10|0
144,144,118915,2,0,B|240:168|288:96,1,160,0|10
352,32,119477,5,0
440,64,119665,1,0
480,152,119852,1,2
440,240,120040,2,0,B|416:264|384:240|384:240|344:216|312:240,1,120,10|0
312,240,120415,5,0
232,280,120602,2,0,B|192:256|192:216,1,80,0|10
208,128,120977,1,0
296,96,121165,1,0
384,136,121352,1,0
408,224,121540,1,10
368,312,121727,1,0
272,336,121915,5,2
184,304,122102,1,2
112,248,122290,2,0,B|56:176|96:96,1,160,10|0
168,48,122852,1,2
256,64,123040,2,0,B|312:112|296:184,1,120,10|0
296,184,123415,5,0
208,216,123602,2,0,B|208:264|248:288,1,80,0|10
328,312,123977,1,0
408,264,124165,1,0
432,176,124352,2,0,B|416:88|344:56|272:88|256:136|272:200|360:200|352:128,1,320,10|0
352,134,125290,5,8
352,134,125477,1,8
352,134,125665,1,8
88,88,126040,5,2
176,48,126227,1,2
240,120,126415,1,2
192,200,126602,1,0
96,184,126790,1,10
96,184,126883,1,0
48,272,127071,1,0
48,272,127165,1,0
120,336,127352,1,2
208,296,127540,6,0,B|272:280|288:216,2,120,10|0|2
192,200,128290,1,10
240,112,128477,1,0
240,112,128571,1,0
240,112,128665,1,0
336,88,128852,1,2
388,164,129040,5,2
480,144,129227,1,2
488,56,129415,1,2
400,16,129602,1,0
336,88,129790,1,10
336,88,129883,1,0
388,164,130071,1,0
388,164,130165,1,0
312,216,130352,1,2
256,144,130540,6,0,B|96:144,1,160,10|0
40,216,131102,1,0
112,280,131290,2,0,B|176:296|232:280,1,120,10|0
248,280,131665,5,0
312,216,131852,1,2
328,128,132040,2,0,B|392:184,1,80,10|0
456,232,132415,2,0,B|520:160|456:88|456:88,1,160,0|10
384,144,132977,2,0,B|352:112|368:72,1,80,2|0
456,88,133352,1,2
384,144,133540,1,10
320,216,133727,1,0
256,144,133915,5,2
176,88,134102,1,2
104,152,134290,2,0,B|72:208|104:272,1,120,10|0
112,280,134665,1,0
192,320,134852,1,2
264,272,135040,2,0,B|312:360|400:320,1,160,10|0
456,248,135602,1,0
368,216,135790,2,0,B|320:216|304:168,1,80,10|0
280,88,136165,1,0
368,80,136352,2,0,B|368:136|432:128|472:72|440:8|368:-16|288:0|272:96|296:160|408:160,1,400,2|0
424,160,137383,1,0
448,168,137477,1,0
464,184,137571,1,0
472,200,137665,1,0
472,216,137758,1,0
464,232,137852,1,0
448,240,137946,1,0
431,246,138040,6,0,B|351:246,1,80,6|0
303,310,138415,2,0,B|351:246,1,80
312,176,138790,2,0,B|351:246,1,80,12|8
351,246,139352,5,0
255,246,139540,1,12
183,182,139727,1,0
87,182,139915,1,0
15,118,140102,1,0
87,54,140290,2,0,B|175:54|175:54|215:70,2,120,12|4|0
87,150,141040,6,0,B|159:182,1,80,6|0
223,134,141415,2,0,B|159:182,1,80
167,262,141790,2,0,B|159:182,1,80,12|8
159,182,142352,5,0
255,182,142540,1,12
351,182,142727,1,0
407,102,142915,1,0
503,102,143102,1,0
503,198,143290,2,0,B|503:278|503:278|519:278|503:302|503:302|503:326,2,120,12|4|0
423,134,144040,6,0,B|415:94|415:94|359:46,1,99.9999985098839,6|0
279,102,144415,2,0,B|279:158|279:158|279:158|311:190,1,99.9999985098839
399,222,144790,2,0,B|431:270|431:270|408:296|416:320|440:312,1,99.9999985098839,12|8
419,308,145352,1,0
320,280,145540,2,0,B|288:280|288:280|248:224,1,99.9999985098839,12|0
192,152,145915,2,0,B|240:120|240:120|280:144,1,99.9999985098839
344,208,146290,2,0,B|400:184|400:184|416:120|416:120|440:136,2,149.999997764826,12|4|0
248,208,147040,6,0,B|248:120|248:120|232:96,1,99.9999985098839,6|0
168,48,147415,2,0,B|168:120|168:120|152:144,1,99.9999985098839
64,112,147790,2,0,B|64:160|64:160|32:184|32:184|48:216|48:216|48:216,1,99.9999985098839,12|8
37,194,148352,5,0
104,272,148540,1,12
184,208,148727,1,0
120,128,148915,1,0
200,56,149102,1,0
264,136,149290,2,0,B|264:224|264:224|248:256|248:256|288:272|288:272|256:288|256:288|280:296|280:296|264:320|264:320|264:368,1,299.999995529652,12|0
264,363,150040,5,4
432,272,150790,1,4
344,112,151540,1,4
176,208,152290,2,0,B|176:328,1,120,6|8
16,296,153040,1,4
56,144,153790,1,4
216,176,154540,1,4
216,176,155290,2,0,B|216:56,2,120,6|8|0
368,152,156040,6,0,B|464:152,1,80,6|0
448,152,156321,1,0
448,152,156415,1,8
312,256,156790,2,0,B|224:256,1,80,6|0
232,256,157071,1,0
232,256,157165,1,8
48,184,157540,2,0,B|128:184,1,80,6|0
128,184,157821,1,0
128,184,157915,1,8
176,104,158102,1,0
272,104,158290,2,0,B|400:104,2,120,6|8|0
224,184,159040,6,0,B|224:280|224:280|256:296,1,120,6|0
245,290,159415,2,0,B|304:360,1,80,8|0
368,288,159790,2,0,B|424:264|424:264|424:184,1,120,6|0
424,204,160165,2,0,B|360:152,1,80,8|0
288,96,160540,1,6
288,96,161290,2,0,B|232:96,4,40
40,120,173290,5,2
64,96,173383,1,0
96,88,173477,1,2
128,104,173571,1,2
144,128,173665,1,2
168,152,173758,1,0
200,168,173852,1,2
232,168,173946,1,2
264,152,174040,5,2
288,56,174227,1,2
388,40,174415,1,2
432,128,174602,1,0
356,200,174790,2,0,B|312:256|400:328|456:224|416:224,2,149.999997764826,10|0|2
272,160,175540,2,0,B|316:104|228:32|172:136|212:136,2,149.999997764826,10|0|2
200,216,176290,2,0,B|244:272|156:344|100:240|140:240,2,149.999997764826,10|0|2
184,200,176946,1,0
168,184,177040,5,2
88,128,177227,1,2
112,32,177415,1,2
212,28,177602,1,0
248,120,177790,2,0,B|264:192|328:192|360:160,1,149.999997764826,10|0
360,159,178165,1,0
400,72,178352,1,2
400,72,178540,2,0,B|448:104|456:160,1,99.9999985098839,10|0
360,160,178915,2,0,B|360:216|312:248,1,99.9999985098839,0|0
232,208,179290,2,0,B|160:224|96:168|104:96,1,199.999997019768,10|0
168,32,179852,1,2
208,112,180040,6,0,B|160:184|72:152,2,149.999997764826,10|0|2
264,40,180790,2,0,B|280:88|328:120,1,99.9999985098839,8|2
408,144,181165,1,2
472,208,181352,1,0
488,296,181540,2,0,B|480:344|424:368,1,99.9999985098839,10|0
344,328,181915,2,0,B|344:272|288:256,1,99.9999985098839,2|2
232,328,182290,2,0,B|160:280|160:200,1,149.999997764826,10|0
160,203,182665,1,0
184,120,182852,1,2
184,120,183040,6,0,B|184:208|96:224,2,149.999997764826,10|0|2
136,40,183790,1,8
232,40,183977,1,2
280,120,184165,1,2
232,200,184352,2,0,B|280:272|368:240|360:152,1,199.999997019768,10|0
280,120,184915,2,0,B|288:64|352:64,1,99.9999985098839,0|0
440,80,185290,5,8
480,224,185477,1,8
328,272,185665,1,8
328,272,186040,5,2
280,192,186227,1,2
192,168,186415,1,2
112,200,186602,1,0
96,208,186696,1,0
88,224,186790,2,0,B|168:208|240:232,1,149.999997764826,10|0
248,240,187165,5,0
328,288,187352,1,2
360,368,187540,2,0,B|440:336|440:248,1,149.999997764826,10|0
448,240,187915,1,0
472,152,188102,1,2
384,168,188290,2,0,B|312:136|312:48,1,149.999997764826,10|0
304,32,188665,1,0
208,48,188852,1,2
152,128,189040,1,2
208,48,189227,5,2
152,128,189415,1,2
160,224,189602,1,0
168,240,189696,1,0
184,248,189790,2,0,B|200:304|128:336,1,99.9999985098839,10|0
128,344,190071,2,0,B|200:376|280:352,1,149.999997764826,0|2
360,312,190540,2,0,B|400:272|400:224,1,99.9999985098839,10|0
416,128,190915,2,0,B|416:64|464:40,1,99.9999985098839
480,48,191196,5,0
472,64,191290,2,0,B|424:88|368:56,1,99.9999985098839,10|0
288,24,191665,1,0
200,56,191852,1,2
160,144,192040,2,0,B|216:168|216:224,1,99.9999985098839,10|0
304,192,192415,2,0,B|304:248|360:272,1,99.9999985098839,0|2
376,264,192696,1,0
360,248,192790,6,0,B|296:256|288:312,1,99.9999985098839,8|2
352,368,193165,1,0
432,328,193352,1,2
464,240,193540,2,0,B|400:160,1,99.9999985098839,10|2
320,200,193915,2,0,B|256:120,1,99.9999985098839,0|2
176,160,194290,2,0,B|128:88|104:56|64:72|64:120|96:112|104:88,1,149.999997764826,10|0
87,103,194665,5,0
48,184,194852,1,2
48,272,195040,2,0,B|96:328|136:272|184:216|224:272,1,199.999997019768,10|0
288,336,195602,2,0,B|344:320|344:264|312:248,1,99.9999985098839
272,192,195977,1,2
320,120,196165,1,0
368,192,196352,2,0,B|448:192|416:56|504:56,2,199.999997019768,10|0|0
344,216,197196,2,0,B|296:240,4,49.999999254942,0|8|0|0|0
336,256,197665,2,0,B|320:304,4,49.999999254942,8|0|8|0|8
