osu file format v9

[General]
AudioFilename: 1.mp3
AudioLeadIn: 1004
PreviewTime: 76062
Countdown: 0
SampleSet: Soft
StackLeniency: 0.6
Mode: 0
LetterboxInBreaks: 0

[Editor]
Bookmarks: 5581,27906,37674,44402,106062
DistanceSpacing: 0.7
BeatDivisor: 4
GridSize: 8

[Metadata]
Title:Yakujinsama no Couple Dance
Artist:O-Life Japan
Creator:AngelHoney
Version:Spec.C
Source:Touhou
Tags:hina kagiyama unmei no dark side touhou fuujinroku c77 eihou no kazeshirube masami tea mountain of faith dark side of fate zun ccbp ignorethis mekadon

[Difficulty]
HPDrainRate:5
CircleSize:4
OverallDifficulty:7
ApproachRate:8
SliderMultiplier:1.8
SliderTickRate:1

[Events]
//Background and Video events
0,0,"456.jpg"
//Break Periods
2,65770,75312
//Storyboard Layer 0 (Background)
//Storyboard Layer 1 (Fail)
//Storyboard Layer 2 (Pass)
//Storyboard Layer 3 (Foreground)
//Storyboard Sound Samples
//Background Colour Transformations
3,100,0,0,0

[TimingPoints]
5572,348.837209302326,4,2,0,65,1,0
39070,333.333333333333,4,2,0,65,1,0
65712,326.086956521739,4,2,0,65,1,0
73525,319.148936170213,4,2,0,65,1,0
76062,312.5,4,2,0,65,1,0
116043.591471091,297.029702970297,4,2,0,65,1,0
120792.695531127,277.777777777778,4,2,0,65,1,0

[Colours]
Combo1 : 89,56,245
Combo2 : 252,249,103

[HitObjects]
152,112,5572,5,0
152,112,5746,2,0,B|272:112,2,90,2|0|2
120,176,6269,2,0,B|16:176,2,90,0|2|0
136,240,6792,1,2
184,280,6967,1,0
248,296,7141,1,2
312,296,7316,1,0
368,272,7490,1,2
368,272,7665,2,0,B|368:88,1,180,0|2
304,72,8188,1,2
240,88,8362,5,0
184,112,8537,2,0,B|184:208,2,90,2|0|2
160,88,8973,1,0
136,64,9060,2,0,B|32:64,2,90,0|2|0
192,32,9583,2,0,B|296:32,2,90,2|0|2
160,88,10106,1,0
128,144,10281,1,2
96,200,10455,2,0,B|96:296,2,90,0|2|0
72,144,10978,1,2
72,144,11066,1,0
72,144,11153,6,0,B|72:48,4,90,0|2|0|2|0
328,144,12548,2,0,B|328:240,4,90,0|2|0|2|2
200,192,13508,1,2
80,144,13769,1,2
80,144,13944,6,2,B|112:240|64:320,1,180,2|2
128,336,14467,1,0
128,336,14641,2,2,B|216:304|312:336,1,180
360,296,15165,1,2
360,296,15252,1,0
360,296,15339,2,2,B|360:160,2,135,2|2|2
416,328,16037,1,0
472,296,16211,1,2
488,232,16385,1,0
456,176,16560,1,2
328,168,16909,6,0,B|328:80,2,90,2|0|2
280,208,17432,2,0,B|280:304,2,90,0|2|0
224,176,17955,1,2
192,232,18130,1,0
128,248,18304,1,2
72,224,18478,1,0
48,168,18653,1,2
72,112,18827,2,0,B|256:112,1,180,0|2
288,168,19351,1,2
288,168,19525,6,0,B|384:168,2,90,0|2|0
256,224,20048,1,2
256,224,20135,1,0
256,224,20223,2,0,B|160:224,2,90,0|2|0
288,280,20746,1,2
288,280,20833,1,0
288,280,20920,2,0,B|376:280,1,90,0|2
424,240,21269,1,0
424,176,21444,1,2
384,128,21618,1,0
328,104,21792,1,2
272,120,21967,1,0
232,168,22141,1,2
232,168,22228,1,0
232,168,22316,6,0,B|232:256,4,90,0|2|0|2|0
448,304,23711,2,0,B|448:208,4,90,0|2|0|2|2
320,256,24670,1,2
192,304,24932,1,2
192,304,25106,6,2,B|88:304|56:200,1,180
0,240,25630,1,2
0,240,25804,2,2,B|96:208|120:112,1,180
168,72,26327,1,2
168,72,26415,1,0
168,72,26502,2,0,B|304:72,2,135,2|2|2
136,128,27199,2,0,B|48:128,2,90,0|2|0
136,128,27723,1,2
168,184,27897,6,0,B|168:232,4,45,0|0|2|0|0
232,168,28420,2,0,B|232:120,1,45,2|0
232,88,28595,2,0,B|232:16,4,45,0|0|2|0|0
296,88,29118,2,0,B|296:144,1,45,2|0
296,168,29292,2,0,B|296:232,4,45,0|0|2|0|0
360,168,29816,2,0,B|360:240,1,45,2|0
360,248,29990,2,0,B|464:248,2,90,0|2|0
320,296,30513,1,2
320,296,30688,6,0,B|320:352,4,45,0|0|2|0|0
280,248,31211,2,0,B|280:184,1,45,2|0
280,168,31385,2,0,B|280:112,4,45,0|0|2|0|0
216,168,31909,2,0,B|216:112,1,45,2|0
216,88,32083,2,0,B|216:32,4,45,0|0|2|0|0
152,88,32606,2,0,B|152:136,1,45,2|0
152,168,32781,2,0,B|56:168,2,90,0|2|0
152,232,33304,1,2
152,232,33478,6,0,B|152:288,4,45,0|0|2|0|0
216,232,34002,2,0,B|216:184,1,45,2|0
216,152,34176,2,0,B|216:96,4,45,0|0|2|0|0
280,152,34699,2,0,B|280:96,1,45,2|0
280,72,34874,2,0,B|280:16,4,45,0|0|2|0|0
344,72,35397,2,0,B|344:128,1,45,2|0
344,152,35572,2,0,B|432:152,2,90,0|2|0
280,152,36095,2,0,B|280:96,1,45,2|0
280,72,36269,6,0,B|280:0,4,45,0|0|2|0|0
216,72,36792,2,0,B|216:120,1,45,2|0
216,152,36967,2,0,B|216:216,4,45,0|0|2|0|0
152,152,37490,2,0,B|152:208,1,45,2|0
152,232,37665,2,0,B|152:288,4,45,2|0|2|0|2
320,80,39060,5,0
376,128,39236,1,2
376,128,39570,1,2
376,240,39736,1,0
320,280,39903,1,2
320,280,40236,1,2
216,280,40403,1,0
176,232,40570,1,2
176,232,40903,1,2
184,112,41070,1,0
240,80,41236,1,2
240,80,41570,1,2
256,192,41736,6,0,B|280:248|360:240,1,90,0|2
185,143,42236,1,2
256,192,42403,2,0,B|312:168|304:88,1,90,0|2
207,262,42903,1,2
256,192,43070,2,0,B|232:136|152:144,1,90,0|2
326,240,43570,1,2
256,192,43736,2,0,B|200:216|208:296,1,90,0|2
304,121,44236,1,2
120,56,44570,6,0,B|32:56,2,90,2|0|2
160,104,45070,2,0,B|264:104,2,90,0|2|0
104,136,45570,1,2
120,200,45736,1,0
120,200,45903,1,2
168,240,46070,1,0
168,240,46236,1,2
232,240,46403,2,0,B|320:208|424:240,1,180,2|2
409,235,46903,1,2
464,272,47070,6,0,B|464:360,2,90,0|2|0
464,208,47570,1,2
464,208,47653,1,0
464,208,47736,2,0,B|464:112,2,90,0|2|0
464,272,48236,1,2
464,272,48320,1,0
464,272,48403,2,0,B|464:368,2,90,0|2|0
464,208,48903,1,2
464,208,49070,2,0,B|464:120,2,90,0|2|0
408,240,49570,1,2
376,240,49653,1,0
344,240,49736,6,0,B|232:240,4,90,0|2|0|2|0
120,120,51070,2,0,B|224:120,3,90,0|2|0|2
272,120,51736,2,0,B|440:120,2,135,2|2|2
232,168,52403,6,2,B|16:168,1,180
32,232,52903,1,2
32,232,53070,2,2,B|216:232,1,180
248,280,53570,1,2
248,280,53653,1,0
248,280,53736,2,0,B|392:280,2,135,2|2|2
184,272,54403,1,0
136,232,54570,1,2
128,168,54736,1,0
152,112,54903,1,2
264,48,55236,5,2
312,88,55403,1,0
312,88,55486,1,0
312,88,55570,1,2
312,88,55653,1,0
312,88,55736,2,0,B|408:88,2,90,0|2|0
264,128,56236,1,2
264,128,56320,1,0
264,128,56403,2,0,B|168:128,2,90,0|2|0
312,168,56903,1,2
312,168,57070,2,2,B|352:248|312:344,1,180
248,344,57570,1,2
248,344,57736,6,0,B|144:344,2,90,0|2|0
312,344,58236,1,2
312,344,58403,2,0,B|416:344,2,90,0|2|0
280,288,58903,1,2
280,256,58986,1,0
280,224,59070,2,0,B|280:136,3,90,0|2|0|2
320,80,59736,2,0,B|416:80,2,90,0|2|0
256,80,60236,1,2
256,80,60320,1,0
256,80,60403,6,0,B|144:80,4,90,0|2|0|2|0
400,288,61736,2,0,B|310:288,3,90,0|2|0|2
264,240,62403,2,0,B|264:96,2,135,2|2|2
216,288,63070,6,2,B|112:288|32:288,1,180
36,288,63570,1,2
96,288,63736,2,2,B|152:200|96:112,1,180
40,120,64236,1,2
40,120,64320,1,0
40,120,64403,2,0,B|184:120,2,135,2|2|2
24,184,65070,1,0
48,240,65236,1,2
104,272,65403,1,0
168,264,65570,1,2
200,80,76062,5,2
200,144,76218,1,2
200,144,76296,1,0
200,144,76374,1,0
200,144,76452,1,0
200,144,76530,2,0,B|200:232,1,90,2|2
384,264,77155,2,0,B|384:352,2,90,2|0|2
384,200,77624,1,0
384,200,77702,1,0
384,200,77780,1,2
384,200,77858,1,0
384,200,77937,2,0,B|384:64,2,135,2|2|2
328,224,78562,6,0,B|328:280,2,45,0|0|2
232,144,79030,1,2
184,104,79187,2,0,B|184:40,2,45,0|0|2
80,176,79655,1,2
80,176,79733,1,0
80,176,79811,2,0,B|80:312,2,135,2|2|2
80,112,80437,1,0
80,112,80593,1,2
80,112,80749,1,2
200,144,81062,5,0
200,208,81218,1,2
200,208,81296,1,0
200,208,81374,1,0
200,208,81452,1,0
200,208,81530,2,0,B|200:304,1,90,2|2
384,256,82155,2,0,B|384:344,2,90,2|0|2
384,192,82624,1,0
384,192,82702,1,0
384,192,82780,1,2
384,192,82858,1,0
384,192,82937,2,0,B|384:56,2,135,2|2|2
328,224,83562,6,0,B|328:288,2,45,0|0|2
232,144,84030,1,2
184,104,84187,2,0,B|184:48,2,45,0|0|2
88,192,84655,1,2
88,192,84733,1,0
88,192,84812,2,0,B|88:328,2,135,2|2|2
88,128,85437,1,0
88,128,85593,2,0,B|88:64,2,45,2|0|2
200,176,86062,6,0,B|200:232,4,45,0|0|2|0|0
256,208,86530,2,0,B|256:280,1,45,2|0
280,272,86687,2,0,B|280:317,4,45,0|0|2|0|0
344,256,87155,2,0,B|344:200,1,45,2|0
344,176,87312,2,0,B|344:112,4,45,0|0|2|0|0
400,200,87780,1,2
400,200,87858,1,0
400,200,87937,2,0,B|512:200,2,90,0|2|0
304,120,88562,6,0,B|304:72,4,45,0|0|2|0|0
256,160,89030,2,0,B|256:224,1,45,2|0
256,240,89187,2,0,B|256:304,4,45,0|0|2|0|0
192,240,89655,2,0,B|192:288,1,45,2|0
176,312,89812,2,0,B|120:344,3,45,0|0|2|0
104,328,90124,2,0,B|56:296,3,45,0|0|2|0
48,280,90437,2,0,B|48:176,2,90,0|2|0
136,192,91062,6,0,B|136:240,4,45,0|0|2|0|0
192,168,91530,2,0,B|192:104,1,45,2|0
192,88,91687,2,0,B|192:32,4,45,0|0|2|0|0
248,112,92155,2,0,B|248:168,1,45,2|0
248,192,92312,2,0,B|248:256,4,45,0|0|2|0|0
304,160,92780,1,2
304,160,92858,1,0
304,160,92937,2,0,B|416:160,2,90,0|2|0
184,112,93562,6,0,B|184:56,4,45,0|0|2|0|0
184,176,94030,1,2
184,240,94187,2,0,B|184:288,4,45,0|0|2|0|0
288,176,94655,1,2
288,238,94812,2,0,B|288:328,1,90,0|2
288,114,95124,2,0,B|288:24,1,90,0|2
256,192,95358,12,2,96062
184,192,96374,5,0
184,192,96452,1,0
184,192,96530,2,0,B|184:288,1,90,2|2
368,320,97155,2,0,B|368:232,1,90,2|0
368,168,97468,1,2
368,168,97546,1,0
368,168,97624,1,0
368,168,97702,1,0
368,168,97780,1,2
368,168,97858,1,0
368,168,97937,2,0,B|368:32,2,135,2|2|2
312,200,98562,5,0
312,200,98640,1,0
312,200,98718,2,0,B|128:200,1,180,2|2
112,264,99187,1,0
112,264,99265,1,0
112,264,99343,2,0,B|296:264,1,180,2|2
320,264,99733,1,0
352,264,99812,2,0,B|504:264,2,135,2|2|2
352,200,100437,1,0
352,200,100593,2,0,B|352:144,2,45,2|0|2
224,200,101062,5,0
160,200,101218,1,2
160,200,101296,1,0
160,200,101374,1,0
160,200,101452,1,0
160,200,101530,2,0,B|160:296,1,90,2|2
224,112,102155,2,0,B|224:24,1,90,2|0
288,40,102468,1,2
288,40,102546,1,0
288,40,102624,1,0
288,40,102702,1,0
288,40,102780,1,2
288,40,102858,1,0
288,40,102937,2,0,B|288:176,2,135,2|2|2
352,40,103562,6,0,B|408:40,2,45,0|0|2
224,40,104030,1,2
160,40,104187,2,0,B|104:40,2,45,0|0|2
160,168,104655,1,2
160,200,104733,1,0
160,232,104812,2,0,B|160:368,2,135,2|2|2
224,232,105437,2,0,B|224:176,4,45,0|0|2|0|2
336,280,106062,6,0,B|336:336,4,45,0|0|2|0|0
336,216,106530,2,0,B|336:160,1,45,2|0
336,136,106687,2,0,B|336:64,4,45,0|0|2|0|0
288,176,107155,2,0,B|288:240,1,45,2|0
288,256,107312,2,0,B|288:320,4,45,0|0|2|0|0
232,224,107780,2,0,B|232:160,1,45,2|0
232,144,107937,2,0,B|232:16,2,90,0|2|0
184,192,108405,1,2
184,192,108562,6,0,B|184:256,4,45,0|0|2|0|0
184,128,109030,2,0,B|184:72,1,45,2|0
184,48,109187,2,0,B|184:0,4,45,0|0|2|0|0
136,88,109655,2,0,B|72:88,1,45,2|0
88,120,109812,2,0,B|32:152,3,45,0|0|2|0
64,168,110124,2,0,B|48:216,3,45,0|0|2|0
80,224,110437,2,0,B|80:320,2,90,0|2|0
208,208,111062,6,0,B|208:256,4,45,0|0|2|0|0
208,144,111530,2,0,B|208:88,1,45,2|0
208,64,111687,2,0,B|208:8,4,45,0|0|2|0|0
264,88,112155,2,0,B|264:152,1,45,2|0
264,168,112312,2,0,B|264:240,4,45,0|0|2|0|0
320,144,112780,2,0,B|320:72,1,45,2|0
344,72,112937,2,0,B|440:72,2,90,0|2|0
216,72,113562,6,0,B|216:16,4,45,0|0|2|0|0
216,136,114030,2,0,B|216:192,1,45,2|0
216,216,114187,2,0,B|216:272,4,45,0|0|2|0|0
152,200,114655,2,0,B|152:272,1,45,2|0
152,280,114812,2,0,B|152:368,3,90,0|2|0|2
216,368,115437,1,0
216,368,115593,2,0,B|216:304,2,45,2|0|0
328,296,116044,6,0,B|328:352,4,45,0|0|2|0|0
328,240,116489,2,0,B|328:176,1,45,2|0
328,160,116637,2,0,B|328:96,4,45,0|0|2|0|0
272,192,117083,2,0,B|272:240,1,45,2|0
272,272,117231,2,0,B|272:328,4,45,0|0|2|0|0
216,248,117677,2,0,B|216:200,1,45,2|0
200,176,117825,2,0,B|96:176,2,90,0|2|0
216,112,118271,1,2
216,112,118419,6,0,B|216:48,4,45,0|0|2|0|0
272,136,118865,2,0,B|272:192,1,45,2|0
272,216,119013,2,0,B|272:280,4,45,0|0|2|0|0
328,192,119459,2,0,B|384:192,1,45,2|0
376,160,119607,2,0,B|320:128,3,45,0|0|2|0
336,104,119904,2,0,B|375:81,3,45,0|0|2|0
376,48,120202,2,0,B|264:48,2,90,0|2|0
472,128,120793,6,0,B|472:72,4,45,0|0|2|0|0
472,184,121209,2,0,B|472:240,1,45,2|0
472,264,121348,2,0,B|472:312,4,45,0|0|2|0|0
408,248,121764,2,0,B|408:192,1,45,2|0
408,168,121903,2,0,B|408:120,4,45,0|0|2|0|0
352,200,122320,2,0,B|352:256,1,45,2|0
352,280,122459,2,0,B|352:376,2,90,0|2|0
224,264,123014,6,0,B|224:328,4,45,0|0|2|0|0
224,200,123431,1,2
224,136,123570,2,0,B|224:72,4,45,0|0|2|0|0
224,200,123987,1,2
280,176,124126,2,2,B|280:80,1,90,2|2
280,224,124403,2,2,B|280:320,1,90,2|2
344,200,124681,1,0
344,200,124820,2,0,B|344:256,2,45,2|0|2
