osu file format v9

[General]
AudioFilename: 1.mp3
AudioLeadIn: 1004
PreviewTime: 76062
Countdown: 0
SampleSet: Soft
StackLeniency: 0.5
Mode: 0
LetterboxInBreaks: 0

[Editor]
Bookmarks: 5572,27906,37674,44402,76062,96062,106057,120792,125094
DistanceSpacing: 1
BeatDivisor: 2
GridSize: 16

[Metadata]
Title:Yakujinsama no Couple Dance
Artist:O-Life Japan
Creator:AngelHoney
Version:Lunatic
Source:Touhou
Tags:hina kagiyama unmei no dark side touhou fuujinroku c77 eihou no kazeshirube masami tea mountain of faith dark side of fate zun ccbp ignorethis mekadon

[Difficulty]
HPDrainRate:7
CircleSize:5
OverallDifficulty:7
ApproachRate:8
SliderMultiplier:1.6
SliderTickRate:1

[Events]
//Background and Video events
0,0,"456.jpg"
//Break Periods
//Storyboard Layer 0 (Background)
//Storyboard Layer 1 (Fail)
//Storyboard Layer 2 (Pass)
//Storyboard Layer 3 (Foreground)
//Storyboard Sound Samples
//Background Colour Transformations
3,100,163,162,255

[TimingPoints]
5572,348.837209302326,4,2,0,70,1,0
39070,333.333333333333,4,2,0,70,1,0
65712,326.086956521739,4,2,0,70,1,0
73525,319.148936170213,4,2,0,70,1,0
76062,312.5,4,2,0,70,1,0
116043.591471091,297.029702970297,4,2,0,70,1,0
120792.695531127,277.777777777778,4,2,0,70,1,0

[Colours]
Combo1 : 255,255,111
Combo2 : 0,128,255
Combo3 : 39,237,143
Combo4 : 251,60,60

[HitObjects]
414,74,5571,5,0
337,51,5746,1,2
257,59,5920,1,0
237,56,6008,1,0
217,53,6095,1,2
197,51,6182,1,0
176,48,6269,1,0
96,39,6444,1,2
128,111,6618,1,0
48,100,6792,6,0,B|9:93,2,40,2|0|0
79,173,7141,2,0,B|120:187|164:194,1,80,2|0
234,173,7490,1,2
311,194,7665,2,2,B|353:278|281:344,1,160
214,375,8188,1,2
214,294,8362,5,0
146,336,8537,1,2
142,256,8711,1,0
208,211,8885,1,2
218,193,8973,1,0
230,177,9060,1,0
279,114,9234,1,2
346,156,9409,1,0
401,98,9583,6,0,B|386:55,2,40,2|0|0
469,139,9932,1,2
467,159,10019,1,0
464,178,10106,1,0
460,197,10194,1,0
457,216,10281,1,2
454,235,10368,1,0
450,254,10455,1,0
438,332,10630,1,2
373,284,10804,1,0
364,363,10978,1,2
364,363,11066,1,0
364,363,11153,5,0
294,322,11327,1,2
277,311,11415,1,0
259,301,11502,1,0
239,296,11589,1,0
219,302,11676,1,2
201,312,11763,1,0
184,323,11851,1,0
115,363,12025,1,2
53,311,12199,1,0
122,271,12374,1,2
60,218,12548,5,0
132,184,12723,1,2
158,169,12810,1,0
184,155,12897,1,0
213,150,12984,1,0
242,157,13072,1,2
268,171,13159,1,0
294,186,13246,1,0
356,236,13420,1,2
421,281,13595,1,0
430,201,13769,1,2
493,249,13944,5,0
430,201,14118,2,0,B|404:168|397:126,2,80,2|0|2
421,281,14641,1,0
356,236,14816,2,0,B|336:279|308:308,2,80,2|0|2
366,219,15252,1,0
374,200,15339,1,0
406,126,15513,1,2
413,107,15601,1,0
375,36,15775,1,0
367,17,15862,1,2
289,37,16037,5,0
320,110,16211,1,2
240,117,16385,1,0
271,190,16560,1,2
191,201,16734,6,0,B|191:252|186:297,2,80,0|2|0
189,180,17170,1,0
183,160,17258,1,2
172,142,17345,1,0
160,125,17432,1,0
112,60,17606,1,2
65,124,17781,1,0
108,191,17955,5,2
117,208,18042,1,0
124,226,18130,1,0
140,304,18304,1,2
204,255,18478,1,0
219,333,18653,1,2
282,283,18827,2,2,B|373:272|431:343,1,160
482,280,19351,1,2
442,210,19525,5,0
480,139,19699,1,2
443,67,19874,1,0
363,79,20048,1,2
343,85,20135,1,0
325,93,20223,1,0
253,129,20397,1,2
314,180,20571,1,0
241,213,20746,5,2
236,232,20833,1,0
231,251,20920,1,0
153,269,21095,1,2
138,255,21182,1,0
125,238,21269,1,0
119,218,21356,1,0
112,199,21444,1,2
108,179,21531,1,0
107,159,21618,1,0
126,81,21792,1,2
187,131,21967,1,0
206,53,22141,5,2
222,64,22228,1,0
238,75,22316,1,0
301,123,22490,1,2
319,114,22577,1,0
337,106,22665,1,0
356,104,22752,1,0
375,107,22839,1,2
394,113,22926,1,0
412,121,23013,1,0
483,155,23188,1,2
493,234,23362,1,0
419,202,23537,1,2
437,279,23711,5,0
360,253,23885,1,2
345,267,23973,1,0
331,281,24060,1,0
317,295,24147,1,0
302,309,24234,1,2
288,324,24321,1,0
273,338,24409,1,0
209,288,24583,1,2
190,365,24758,1,0
128,313,24932,1,2
71,256,25106,6,0,B|54:219|26:180,1,80,0|2
109,169,25455,2,0,B|149:159|184:139,1,80,0|2
227,205,25804,2,0,B|261:185|301:175,1,80,0|2
318,97,26153,2,0,B|294:64|277:27,1,80,0|2
277,27,26415,1,0
277,28,26502,6,2,B|213:33|160:16,2,120
357,19,27199,1,0
436,26,27374,1,2
390,91,27548,1,0
469,100,27723,1,2
498,174,27897,5,2
482,186,27984,1,0
467,199,28071,1,0
451,211,28159,1,0
435,224,28246,1,2
373,275,28420,1,0
355,264,28508,1,0
337,255,28595,1,2
318,247,28682,1,0
297,245,28769,1,0
277,248,28856,1,0
257,252,28944,1,2
182,281,29118,5,0
162,278,29205,1,0
142,272,29292,1,2
124,262,29380,1,0
109,248,29467,1,0
96,232,29554,1,0
86,214,29641,1,2
68,136,29816,1,0
73,116,29903,1,0
78,96,29990,5,2
155,76,30165,1,0
137,153,30339,1,2
213,129,30513,1,0
289,105,30688,5,2
308,102,30775,1,0
328,100,30862,1,0
346,108,30949,1,0
362,119,31037,1,2
404,186,31211,1,0
416,201,31298,1,0
427,217,31385,1,2
428,236,31473,1,0
421,254,31560,1,0
408,269,31647,1,0
389,276,31734,1,2
313,250,31909,5,0
294,257,31996,1,0
281,272,32083,1,2
274,290,32170,1,0
275,309,32258,1,0
280,328,32345,1,0
298,340,32432,1,2
371,370,32606,1,0
390,364,32694,1,0
408,357,32781,5,2
483,329,32955,1,0
416,284,33130,1,2
491,257,33304,1,0
431,202,33478,5,2
411,197,33566,1,0
391,192,33653,1,0
371,187,33740,1,0
351,183,33827,1,2
274,161,34002,1,0
258,173,34089,1,0
243,186,34176,1,2
223,189,34263,1,0
203,185,34351,1,0
185,175,34438,1,0
171,160,34525,1,2
171,79,34699,5,0
187,67,34787,1,0
202,54,34874,1,2
222,51,34961,1,0
242,55,35048,1,0
260,65,35135,1,0
274,80,35223,1,2
343,118,35397,1,0
361,109,35484,1,0
379,102,35571,5,2
452,71,35746,1,0
511,124,35920,1,2
438,157,36095,1,0
434,176,36182,1,0
430,195,36269,6,0,B|413:256,4,40,2|0|0|0|2
348,211,36792,1,0
352,230,36880,1,0
355,249,36967,2,0,B|369:311,4,40,2|0|0|0|2
314,318,37490,1,0
298,330,37577,1,0
282,341,37665,1,2
263,348,37752,1,2
243,343,37839,1,2
225,332,37926,1,2
208,320,38013,1,2
115,86,39060,5,0
176,35,39236,2,2,B|260:60|319:116,1,160
367,172,39736,1,0
312,230,39903,2,2,B|257:281|173:306,1,160
95,327,40403,1,0
49,260,40570,2,2,B|26:180|33:95,1,160
66,29,41070,1,0
137,63,41236,1,2
203,18,41403,2,2,B|245:44|279:76,1,80
328,117,41736,5,0
399,80,41903,2,2,B|468:144|412:239,1,160
446,301,42403,1,0
366,291,42570,2,2,B|301:356|204:316,1,160
147,358,43070,1,0
134,279,43236,2,2,B|54:251|45:158,1,160
117,123,43736,1,0
51,76,43903,1,2
122,41,44069,1,0
191,80,44236,1,2
264,47,44403,6,0,B|296:84|313:132,1,80,0|2
386,115,44736,1,0
390,134,44820,1,0
394,153,44903,1,2
397,172,44986,1,0
396,192,45070,1,0
389,271,45236,1,2
464,244,45403,1,0
458,323,45569,5,2
458,323,45653,1,0
458,323,45736,1,0
382,349,45903,1,2
303,331,46069,2,0,B|271:299|217:280,1,80,0|2
175,234,46403,2,2,B|103:271|15:234,1,160
30,156,46903,1,2
19,76,47070,5,0
94,99,47236,1,2
143,35,47403,2,0,B|188:37|230:47,1,80,0|2
240,54,47653,1,0
258,61,47736,1,0
319,112,47903,1,2
333,33,48070,1,0
401,73,48236,5,2
418,83,48320,1,0
433,95,48403,1,0
473,163,48570,1,2
474,182,48653,1,0
474,201,48736,1,0
474,221,48820,1,0
474,240,48903,1,2
473,259,48986,1,0
474,278,49069,2,0,B|480:316|472:359,2,80,0|2|0
394,288,49570,5,2
394,268,49653,1,0
394,248,49736,1,0
339,191,49903,1,2
319,190,49986,1,0
298,190,50070,1,0
278,190,50153,1,0
258,190,50236,1,2
237,190,50320,1,0
217,190,50403,1,0
139,190,50570,1,2
179,258,50736,1,0
103,257,50903,1,2
30,258,51070,5,0
67,326,51236,1,2
86,331,51320,1,0
105,336,51403,1,0
124,340,51486,1,0
143,345,51570,1,2
162,349,51653,1,0
181,354,51736,1,0
252,327,51903,1,2
285,256,52070,1,0
282,179,52236,1,2
248,111,52403,5,0
184,64,52569,2,0,B|142:51|96:56,2,80,2|0|2
257,33,53070,1,0
322,76,53236,2,0,B|364:63|410:68,2,80,2|0|2
310,92,53653,1,0
297,107,53736,1,0
244,177,53903,1,2
228,164,53986,1,0
164,111,54153,1,0
153,127,54236,1,2
104,193,54403,6,0,B|127:240|120:288,1,80,0|2
207,277,54736,2,0,B|184:324|191:372,1,80,0|2
268,377,55070,5,0
325,321,55236,1,2
400,300,55403,1,0
414,286,55486,1,0
429,272,55570,1,2
444,259,55653,1,0
459,245,55736,1,0
492,172,55903,2,0,B|495:124|466:86,1,80,2|0
403,55,56236,1,2
383,61,56320,1,0
365,69,56403,5,0
285,79,56570,1,2
334,141,56736,1,0
255,156,56903,1,2
177,175,57070,2,2,B|89:195|59:282,1,160
41,353,57570,1,2
116,328,57736,5,0
189,358,57903,1,2
184,277,58070,1,0
255,311,58236,1,2
255,311,58319,1,0
255,311,58403,1,0
328,342,58569,2,0,B|333:296|361:259,1,80,2|0
409,207,58903,5,2
427,198,58986,1,0
445,190,59070,1,0
475,116,59236,1,2
458,103,59320,1,0
439,94,59403,1,0
419,92,59486,1,0
399,96,59570,1,2
381,104,59653,1,0
363,114,59736,1,0
294,155,59903,1,2
290,74,60070,1,0
219,111,60236,1,2
210,128,60319,1,0
200,146,60403,5,0
168,219,60569,2,0,B|158:239|148:269,3,40,2|0|0|0
147,275,60903,1,2
143,294,60986,1,0
141,313,61069,1,0
73,355,61236,1,2
70,275,61403,1,0
63,195,61569,1,2
46,116,61736,5,0
124,132,61903,1,2
143,137,61987,1,0
161,143,62070,1,0
180,147,62153,1,0
199,151,62237,1,2
218,154,62320,1,0
237,157,62403,1,0
316,162,62569,1,2
284,88,62736,1,0
363,95,62903,1,2
425,44,63069,6,2,B|489:107|466:201,1,160
483,269,63569,1,2
424,323,63736,2,2,B|344:360|255:314,1,160
208,268,64237,1,2
198,285,64320,1,0
188,302,64403,1,0
112,329,64570,1,2
103,311,64653,1,0
69,238,64819,1,2
61,219,64903,1,0
73,140,65069,2,0,B|93:103|102:49,1,80,0|2
180,63,65403,2,0,B|186:104|206:138,1,80,0|2
235,202,65712,5,2
253,194,65793,1,0
271,186,65875,1,0
290,180,65956,1,0
309,177,66038,1,2
388,180,66201,1,0
407,184,66282,1,0
422,197,66364,1,2
434,212,66445,1,0
439,231,66527,1,0
437,250,66608,1,0
427,267,66690,1,2
390,338,66853,5,0
371,334,66934,1,0
356,321,67016,1,2
344,306,67097,1,0
339,287,67179,1,0
341,268,67260,1,0
351,251,67342,1,2
278,217,67505,1,0
260,227,67587,1,0
242,236,67668,1,2
167,207,67831,1,0
183,285,67994,1,2
105,263,68157,1,0
47,207,68320,6,0,B|0:220,4,40,2|0|0|0|2
109,156,68809,1,0
118,138,68891,1,0
128,120,68972,2,0,B|175:107,4,40,2|0|0|0|2
61,75,69461,1,0
52,57,69543,1,0
42,39,69625,2,0,B|-5:26,4,40,2|0|0|0|2
121,32,70114,1,0
140,36,70195,1,0
159,41,70277,1,2
236,60,70440,1,0
309,28,70603,2,0,B|355:36|403:48,1,80,2|0
440,104,70929,5,2
448,121,71010,1,0
454,140,71092,2,0,B|500:174,2,40,0|0|2
380,171,71418,1,0
372,189,71500,1,0
363,206,71581,1,2
354,224,71663,1,0
347,242,71744,2,0,B|292:260,2,40,0|0|2
393,307,72070,1,0
412,312,72152,1,0
430,318,72233,2,0,B|480:300,4,40,2|0|0|0|2
366,366,72721,1,0
347,359,72803,1,0
328,351,72885,2,0,B|283:339|243:352,2,80,2|0|2
288,283,73525,5,2
277,265,73604,1,0
267,247,73684,1,0
257,229,73764,1,0
247,211,73844,1,2
183,162,74003,1,0
163,164,74083,1,0
143,169,74162,1,2
125,178,74242,1,0
108,189,74322,1,0
93,202,74402,1,0
79,217,74482,1,2
63,295,74641,5,0
83,293,74721,1,0
102,299,74801,2,0,B|156:328,2,40,2|0|0
176,268,75120,2,0,B|133:240,2,40,2|0|0
235,321,75439,1,2
265,346,75519,1,0
302,359,75599,1,0
342,357,75679,1,0
380,344,75759,1,2
413,322,75838,1,0
440,293,75918,1,0
448,253,75998,1,0
445,220,76062,5,4
421,143,76218,1,0
421,143,76296,1,0
421,143,76374,2,0,B|429:95,2,40,2|0|0
341,155,76687,2,2,B|256:200|188:117,1,160
154,59,77155,1,0
154,59,77233,1,0
154,59,77312,6,0,B|114:84,2,40,2|0|0
82,22,77624,2,0,B|34:41|22:82,1,80,2|0
35,153,77937,1,2
69,225,78093,1,0
56,263,78171,1,2
126,301,78327,1,0
114,339,78405,1,2
200,359,78562,5,2
214,321,78640,1,0
229,284,78718,2,0,B|279:291,2,40,0|0|2
183,218,79030,1,0
197,180,79108,1,0
212,142,79187,1,2
226,104,79265,1,0
240,66,79343,2,0,B|186:52,2,40,0|0|2
307,109,79655,1,0
321,71,79733,1,0
337,34,79812,6,2,B|390:7|472:19,2,120
394,90,80437,1,2
423,117,80515,1,0
445,150,80593,1,0
457,187,80671,1,0
464,226,80749,1,2
352,340,81062,6,0,B|306:349|263:324,1,80,2|0
236,315,81296,1,0
200,297,81374,1,2
174,266,81452,2,0,B|176:212,2,40
153,300,81687,2,2,B|71:305|67:189,1,160,2|2
49,111,82155,1,0
63,73,82233,1,0
84,38,82312,6,2,B|141:17|212:10,2,120
139,96,82937,1,2
174,114,83015,1,0
212,124,83093,1,0
250,134,83171,1,0
289,139,83249,1,2
368,133,83405,6,0,B|412:124|448:84,1,80,0|2
468,69,83640,1,0
464,108,83718,1,0
475,146,83796,1,0
491,182,83874,1,2
422,223,84030,1,0
433,261,84108,1,0
431,301,84187,2,0,B|432:359,4,40,2|0|0|0|2
354,277,84655,1,0
324,304,84733,1,0
287,321,84812,6,2,B|236:348|148:352,2,120
232,261,85437,1,2
232,261,85515,1,0
232,261,85593,1,0
232,261,85671,1,0
232,261,85749,1,2
73,283,86062,5,2
73,283,86140,1,0
73,283,86218,1,0
73,283,86296,1,0
73,283,86374,1,2
105,209,86530,1,0
105,209,86608,1,0
105,209,86687,2,0,B|78:157,4,40,2|0|0|0|2
169,161,87155,1,0
169,161,87233,1,0
169,161,87312,2,0,B|180:112,4,40,2|0|0|0|2
247,147,87780,1,0
247,147,87858,1,0
247,147,87937,2,0,B|288:141|332:143,2,80,2|2|2
378,56,88562,5,2
378,56,88640,1,0
378,56,88718,2,0,B|326:44,2,40,0|0|2
437,109,89030,1,0
437,109,89108,1,0
437,109,89187,2,0,B|476:70,4,40,2|0|0|0|2
451,187,89655,1,0
451,187,89733,1,0
451,187,89812,6,0,B|480:235,1,40,2|0
441,247,89968,2,0,B|451:293,1,40
410,296,90124,2,0,B|409:341|396:379,2,80,2|0|2
330,287,90593,2,0,B|331:240|341:192,1,80,0|2
433,78,91062,5,2
398,58,91140,1,0
359,46,91218,1,0
319,46,91296,1,0
280,54,91374,1,2
200,58,91530,1,0
194,77,91608,1,0
187,95,91686,1,2
148,106,91764,1,0
114,126,91842,1,0
90,153,91920,1,0
77,190,91998,1,2
76,270,92155,1,0
81,289,92233,1,0
85,308,92312,5,2
107,340,92390,1,0
143,355,92468,1,0
182,357,92546,1,0
217,339,92624,1,2
269,278,92780,1,0
282,263,92858,1,0
296,249,92937,2,2,B|338:231|397:233,2,80
262,92,93562,5,2
236,61,93640,1,0
197,49,93718,1,0
157,52,93796,1,0
120,69,93874,1,2
48,103,94030,1,0
38,120,94108,1,0
27,137,94187,1,2
56,163,94265,1,0
76,197,94343,1,0
77,236,94421,1,0
65,274,94499,1,2
117,333,94655,1,0
131,319,94733,1,0
145,305,94812,5,2
180,287,94968,5,0
218,278,95124,5,2
257,278,95280,5,0
294,291,95437,5,2
303,273,95515,1,0
314,256,95593,1,0
323,238,95671,1,0
333,220,95749,1,2
344,203,95827,1,0
353,185,95905,1,0
364,168,95983,1,0
376,151,96062,6,0,B|450:164|484:93,1,120,2|0
488,88,96374,1,2
498,70,96452,1,0
489,51,96530,1,0
408,44,96687,6,2,B|315:3|264:85,1,160
190,100,97155,1,0
174,136,97233,1,0
157,172,97312,2,2,B|100:204|40:156,2,120
175,250,97937,2,2,B|264:218|328:305,1,160
347,366,98405,1,0
405,310,98562,5,2
405,310,98640,1,0
405,310,98718,2,0,B|452:323,2,40,0|0|2
379,234,99030,1,0
379,234,99108,1,0
379,234,99187,2,0,B|318:246,4,40,2|0|0|0|2
436,178,99655,2,0,B|449:160|452:140,1,40
444,101,99812,2,2,B|416:42|339:42,2,120
370,133,100437,1,2
370,133,100515,1,2
370,133,100593,1,2
370,133,100671,1,2
370,133,100749,1,2
222,69,101062,5,2
143,86,101218,1,0
143,86,101296,1,0
143,86,101374,2,0,B|100:96,2,40,2|0|0
197,144,101687,2,2,B|246:213|216:302,1,160
150,339,102155,1,0
150,339,102233,1,0
150,339,102312,2,2,B|83:319|55:240,2,120
225,365,102937,1,2
329,306,103171,1,2
444,336,103405,1,2
444,336,103562,5,2
449,316,103640,1,0
454,292,103718,1,0
459,264,103796,1,0
465,232,103874,1,2
452,153,104030,1,0
372,166,104187,1,2
366,198,104265,1,0
361,226,104343,1,0
356,250,104421,1,0
351,270,104499,1,2
277,300,104655,1,0
277,300,104733,1,0
277,300,104812,6,2,B|212:320|150:264,2,120
340,349,105437,1,2
375,329,105515,1,0
414,323,105593,1,0
453,331,105671,1,0
486,352,105749,1,2
423,204,106062,6,0,B|440:166,4,40,0|0|0|0|2
343,208,106530,1,0
343,208,106608,1,0
343,208,106687,2,0,B|318:268,4,40,0|0|0|0|2
275,165,107155,1,0
275,165,107233,1,0
275,165,107312,1,0
275,165,107390,2,0,B|292:116,3,40,0|0|0|2
250,56,107780,1,0
250,56,107858,1,0
250,56,107937,2,0,B|212:77|154:69,1,80,2|0
111,122,108249,2,0,B|152:105|210:114,1,80,2|0
203,190,108562,5,0
176,219,108640,1,0
165,257,108718,1,0
170,296,108796,1,0
191,329,108874,1,2
261,366,109030,1,0
270,348,109108,1,0
279,330,109187,5,0
316,316,109265,1,0
354,306,109343,1,0
392,296,109421,1,0
431,289,109499,1,2
460,214,109655,1,0
455,194,109733,1,0
449,174,109812,5,0
409,181,109890,1,2
370,189,109968,1,0
331,198,110046,1,0
291,205,110124,1,2
252,215,110202,1,0
213,225,110280,1,0
174,235,110358,1,0
134,243,110437,5,2
60,212,110593,1,0
122,162,110749,1,2
47,132,110905,1,0
108,79,111062,6,0,B|120:32,4,40,2|0|0|0|2
186,93,111530,1,0
225,100,111608,1,0
264,107,111687,2,0,B|278:157,4,40,2|0|0|0|2
343,97,112155,1,0
381,85,112233,1,0
420,75,112312,2,0,B|452:73|481:79,4,40,2|0|0|0|2
429,154,112780,1,0
437,193,112858,1,0
419,229,112937,1,2
346,195,113093,1,0
356,274,113249,1,2
283,241,113405,1,0
286,321,113562,5,2
286,321,113640,1,0
286,321,113718,2,0,B|317:354,2,40,0|0|2
206,320,114030,1,0
168,307,114108,1,0
135,283,114187,2,0,B|108:235,4,40,2|0|0|0|2
97,212,114655,1,0
114,176,114733,1,0
107,136,114812,2,0,B|80:97,3,40,2|0|0|0
59,72,115124,2,0,B|86:33,3,40,2|0|0|0
110,11,115437,1,2
145,29,115515,1,0
167,62,115593,1,2
183,98,115671,1,0
183,137,115749,1,2
326,91,116044,5,2
333,110,116117,1,0
338,129,116192,1,0
375,141,116266,1,0
400,171,116340,1,2
475,199,116489,1,0
454,233,116563,1,0
421,255,116637,1,2
416,274,116711,1,0
411,293,116786,1,0
376,273,116860,1,0
337,264,116934,1,2
265,299,117083,5,0
249,262,117157,1,0
217,237,117231,1,2
197,233,117305,1,0
176,231,117380,1,0
141,211,117454,1,0
125,174,117528,1,2
109,95,117677,1,0
118,77,117751,1,0
129,60,117825,2,2,B|99:32|45:24,2,80
200,95,118271,1,0
242,27,118419,5,2
279,41,118494,1,0
312,62,118568,1,0
335,94,118642,1,0
341,133,118716,1,2
418,154,118865,1,0
414,173,118939,1,0
409,192,119013,1,2
436,221,119088,1,0
452,257,119162,1,0
453,296,119236,1,0
447,335,119310,1,2
372,364,119459,5,0
364,345,119533,1,0
356,326,119607,2,0,B|314:319|278:282,1,80,2|0
229,233,119904,2,0,B|188:243|159:284,1,80,2|0
107,335,120202,2,2,B|63:324|40:277,2,80
104,255,120647,1,0
25,220,120793,6,0,B|-2:170,4,40,2|0|0|0|2
64,144,121209,1,0
64,144,121278,1,0
64,144,121348,2,0,B|84:92,4,40,2|0|0|0|2
148,166,121764,1,0
169,196,121834,1,0
202,217,121903,1,2
240,229,121973,1,0
279,221,122042,1,0
312,198,122112,1,0
332,163,122181,1,2
349,84,122320,1,0
349,84,122389,1,0
349,84,122459,1,2
428,75,122598,1,0
465,146,122737,1,2
407,202,122876,1,0
451,267,123014,5,2
411,273,123084,1,0
374,287,123153,1,0
344,314,123223,1,0
324,348,123292,1,2
244,359,123431,1,0
216,329,123501,1,0
181,308,123570,1,2
141,308,123639,1,0
101,315,123709,1,0
68,291,123778,1,0
46,256,123848,1,2
27,178,123987,5,0
49,145,124056,1,0
84,126,124126,1,2
123,132,124195,1,0
160,144,124264,1,0
196,127,124334,1,0
221,96,124403,1,2
263,28,124542,1,0
309,93,124681,1,2
346,106,124751,1,0
380,125,124820,1,0
407,154,124889,1,0
423,190,124959,1,6
