osu file format v9

[General]
AudioFilename: Nyan Nyan (Techno Remix).mp3
AudioLeadIn: 0
PreviewTime: -1
Countdown: 2
SampleSet: Normal
StackLeniency: 0.7
Mode: 0
LetterboxInBreaks: 1

[Editor]
DistanceSpacing: 0.8
BeatDivisor: 2
GridSize: 32

[Metadata]
Title:Nyan Nyan (Techno Rmx)
Artist:
Creator:Malstrom
Version:Palast-Hard
Source:
Tags:nyan nyan

[Difficulty]
HPDrainRate:6
CircleSize:6
OverallDifficulty:6
ApproachRate:6
SliderMultiplier:2.50000000596047
SliderTickRate:1

[Events]
//Background and Video events
0,0,"bg.jpg"
//Break Periods
//Storyboard Layer 0 (Background)
//Storyboard Layer 1 (Fail)
//Storyboard Layer 2 (Pass)
//Storyboard Layer 3 (Foreground)
//Storyboard Sound Samples
//Background Colour Transformations
3,100,163,162,255

[TimingPoints]
11733.0090361446,722.89156626506,4,1,0,100,1,0
104263,-100,4,1,0,100,0,1

[Colours]
Combo1 : 92,43,46
Combo2 : 230,161,174
Combo3 : 217,134,149
Combo4 : 141,54,59

[HitObjects]
64,64,23299,1,8
384,288,23660,1,0
416,64,24022,1,8
96,288,24383,1,0
128,96,25627,1,8
160,96,25829,1,0
192,96,26190,1,8
224,96,26552,1,0
256,96,26913,1,8
288,96,27275,1,0
320,96,27636,1,8
96,288,29082,5,8
160,224,29443,1,0
256,224,29805,1,8
352,96,30166,1,0
64,96,31426,1,8
96,96,31612,1,0
128,96,31973,1,8
160,96,32335,1,0
192,96,32696,1,8
224,96,33058,1,0
256,96,33419,1,8
64,64,34865,5,8
384,288,35226,1,0
416,64,35588,1,8
96,288,35949,1,0
128,96,37170,1,8
160,96,37360,1,0
192,96,37756,1,8
224,96,38118,1,0
256,96,38479,1,8
288,96,38841,1,0
320,96,39202,1,8
192,192,40648,5,8
384,288,41009,1,0
64,64,41371,1,8
64,96,41732,1,0
64,128,42952,5,8
64,160,43178,1,0
64,192,43539,1,8
64,224,43901,1,0
64,256,44262,1,8
64,288,44624,1,0
448,32,44985,1,8
64,160,46431,2,0,B|352:64|352:64,3,250.000000596047
96,256,49323,5,0
320,128,49684,1,0
352,256,50046,1,0
128,96,50407,1,0
192,192,50769,1,0
416,64,51130,1,0
288,160,51492,1,2
288,192,51533,1,2
290,215,51563,1,2
288,236,51593,1,2
288,256,51623,1,2
288,288,51642,1,2
64,96,52214,5,8
448,256,52576,1,0
128,256,52937,1,8
288,128,53299,1,0
448,96,53660,1,8
448,128,53747,1,8
448,160,53846,1,8
448,192,53954,1,8
448,224,54051,1,8
448,256,54140,1,8
448,288,54237,1,8
448,320,54334,1,0
448,352,54432,1,0
96,256,55106,5,0
320,128,55467,1,0
352,256,55829,1,0
128,96,56190,1,0
192,192,56552,1,0
416,64,56913,1,0
288,160,57275,1,2
288,192,57316,1,2
289,215,57346,1,2
288,237,57376,1,2
288,256,57406,1,2
288,288,57425,1,2
96,128,57998,6,0,B|384:32|384:32,3,250.000000596047
493,241,60890,5,8
320,128,61251,1,0
448,64,61613,1,8
224,192,61974,1,0
192,192,62335,1,8
416,64,62697,1,0
288,160,63059,1,2
288,192,63100,1,2
289,216,63130,1,2
287,239,63160,1,2
288,256,63190,1,2
288,288,63209,1,2
96,288,63781,6,0,B|192:192|32:64,3,250.000000596047
432,289,66672,6,0,B|352:192|480:64,3,250.000000596047
64,96,69564,5,8
448,256,69926,1,0
128,256,70287,1,8
288,128,70649,1,0
448,96,71010,1,8
448,128,71097,1,8
448,160,71196,1,8
448,192,71304,1,8
448,224,71401,1,8
448,256,71490,1,8
448,288,71587,1,8
448,320,71684,1,0
448,352,71782,1,8
96,256,72456,5,0
320,128,72817,1,0
352,256,73179,1,0
128,96,73540,1,0
192,192,73902,1,0
416,64,74263,1,0
288,160,74625,1,2
288,192,74666,1,2
289,215,74696,1,2
288,240,74726,1,2
288,256,74756,1,2
288,288,74775,1,2
0,352,75347,6,0,B|288:256|288:256,3,250.000000596047
493,241,78239,5,8
320,128,78600,1,0
448,64,78962,1,8
224,192,79323,1,0
192,192,79684,1,8
416,64,80046,1,0
288,160,80408,1,2
288,192,80449,1,2
289,216,80479,1,2
286,237,80509,1,2
288,256,80539,1,2
288,288,80558,1,2
160,128,81130,5,8
416,128,81491,1,0
160,288,81853,1,8
416,288,82214,1,0
128,96,83414,1,8
160,96,83513,1,0
192,96,83634,1,8
224,96,83746,1,0
256,96,83832,1,8
288,96,83930,1,0
320,96,84018,1,8
352,96,84119,1,0
384,96,84200,1,0
416,96,84299,1,0
448,96,84397,1,0
416,224,84802,1,0
352,288,85094,1,0
192,288,86913,6,0,B|96:192,3,125.000000298023
384,288,89082,2,0,B|384:160,5,125.000000298023
0,352,92696,5,8
422,346,93057,1,0
2,352,93419,1,8
422,346,93780,1,0
128,96,94980,1,8
160,96,95079,1,0
192,96,95200,1,8
224,96,95312,1,0
256,96,95398,1,8
288,96,95496,1,0
320,96,95584,1,8
352,96,95685,1,0
384,96,95766,1,0
416,96,95865,1,0
448,96,95963,1,0
416,224,96368,1,0
352,288,96660,1,0
256,192,98479,12,0,103540
64,96,104263,5,8
448,256,104625,1,0
128,256,104986,1,8
288,128,105348,1,0
448,96,105709,1,8
448,128,105796,1,8
448,160,105895,1,8
448,192,106003,1,8
448,224,106100,1,8
448,256,106189,1,8
448,288,106286,1,8
448,320,106383,1,0
448,352,106481,1,0
96,256,107155,5,0
320,128,107516,1,0
352,256,107878,1,0
128,96,108239,1,0
192,192,108601,1,0
416,64,108962,1,0
288,160,109324,1,2
288,192,109365,1,2
289,215,109395,1,2
288,237,109425,1,2
288,256,109455,1,2
288,288,109474,1,2
96,128,110046,22,0,B|384:32|384:32,3,250.000000596047
493,241,112938,5,8
320,128,113299,1,0
448,64,113661,1,8
224,192,114022,1,0
192,192,114383,1,8
416,64,114745,1,0
288,160,115107,1,2
288,192,115148,1,2
289,216,115178,1,2
287,239,115208,1,2
288,256,115238,1,2
288,288,115257,1,2
64,96,115829,5,8
448,256,116191,1,0
128,256,116552,1,8
288,128,116914,1,0
448,96,117275,1,8
448,128,117362,1,8
448,160,117461,1,8
448,192,117569,1,8
448,224,117666,1,8
448,256,117755,1,8
448,288,117852,1,8
448,320,117949,1,0
448,352,118047,1,0
96,256,118721,5,0
320,128,119082,1,0
352,256,119444,1,0
128,96,119805,1,0
192,192,120167,1,0
416,64,120528,1,0
288,160,120890,1,2
288,192,120931,1,2
289,215,120961,1,2
288,237,120991,1,2
288,256,121021,1,2
288,288,121040,1,2
256,192,121612,12,0,126672
