osu file format v12

[General]
AudioFilename: 04 Luv (Sic) Pt3 (Feat. Shing02).mp3
AudioLeadIn: 2000
PreviewTime: 106045
Countdown: 0
SampleSet: Soft
StackLeniency: 0.7
Mode: 0
LetterboxInBreaks: 0
WidescreenStoryboard: 0

[Editor]
Bookmarks: 42578,61523,131621,141725,161934,172038,262976
DistanceSpacing: 0.9
BeatDivisor: 4
GridSize: 4

[Metadata]
Title:Luv (Sic) Pt3
TitleUnicode:Luv (Sic) Pt3
Artist:Nujabes Feat. Shing02
ArtistUnicode:Nujabes Feat. Shing02
Creator:Kiddo-Kun
Version:Tough
Source:
Tags:Modal Soul
BeatmapID:229016
BeatmapSetID:82848

[Difficulty]
HPDrainRate:6
CircleSize:4
OverallDifficulty:6
ApproachRate:7
SliderMultiplier:2
SliderTickRate:2

[Events]
//Background and Video events
0,0,"bg.png",0,0
//Break Periods
2,71196,80200
2,131621,140825
2,222758,231763
//Storyboard Layer 0 (Background)
//Storyboard Layer 1 (Fail)
//Storyboard Layer 2 (Pass)
//Storyboard Layer 3 (Foreground)
//Storyboard Sound Samples
//Background Colour Transformations
3,100,255,255,255

[TimingPoints]
266.842321898611,631.512472371329,4,2,1,65,1,0
111413,-100,4,2,1,65,0,1
131621,-100,4,2,1,65,0,0
202350,-100,4,2,1,65,0,1
222559,-100,4,2,1,65,0,0

[Colours]
Combo1 : 255,159,64
Combo2 : 255,187,255
Combo3 : 255,255,159
Combo4 : 0,128,192
Combo5 : 255,140,140

[HitObjects]
340,276,266,2,0,P|416:240|400:124,1,200,2|8,0:0|0:0,0:0:0:0:
347,71,1214,1,0,0:0:0:0:
336,81,1371,1,0,0:0:0:0:
324,88,1529,2,0,P|252:124|168:56,1,200,0|8,0:0|0:0,0:0:0:0:
256,40,2477,1,0,0:0:0:0:
256,40,2792,6,0,L|224:248,1,200,2|8,0:0|0:0,0:0:0:0:
256,324,3740,1,0,0:0:0:0:
344,348,4055,2,0,P|392:336|420:288,1,100
418,205,4687,2,0,P|370:217|342:265,1,100,8|0,0:0|0:0,0:0:0:0:
420,296,5318,6,0,P|480:252|452:124,1,200,2|8,0:0|0:0,0:0:0:0:
364,112,6266,1,0,0:0:0:0:
353,122,6424,1,0,0:0:0:0:
344,132,6581,2,0,B|284:128|256:168|256:168|224:124|164:128,1,200,0|8,0:0|0:0,0:0:0:0:
184,216,7529,2,0,L|168:320|168:320,1,100,0|2,0:0|0:0,0:0:0:0:
328,216,8160,6,0,L|344:320|344:320,1,100,0|8,0:0|0:0,0:0:0:0:
256,340,8792,2,0,L|256:232,1,100
256,149,9423,1,2,0:0:0:0:
256,60,9739,2,2,L|256:4,2,50,2|0|2,0:0|0:0|0:0,0:0:0:0:
256,149,10371,6,0,B|228:192|228:192|192:232|124:204|112:144,1,200,4|8,0:0|0:0,0:0:0:0:
124,60,11318,1,0,0:0:0:0:
208,32,11634,2,0,P|256:48|304:28,1,100,0|0,0:0|0:0,0:0:0:0:
388,60,12265,1,8,0:0:0:0:
444,128,12581,1,0,0:0:0:0:
444,143,12739,1,0,0:0:0:0:
444,158,12897,6,0,P|456:206|436:258,1,100,2|0,0:0|0:0,0:0:0:0:
368,304,13528,2,0,P|356:256|376:204,1,100,8|0,0:0|0:0,0:0:0:0:
440,240,14160,2,0,P|432:340|336:376,1,200,0|8,0:0|0:0,0:0:0:0:
256,324,15107,1,0,0:0:0:0:
162,377,15423,6,0,P|80:340|72:240,1,200,2|8,0:0|0:0,0:0:0:0:
148,296,16370,2,0,P|172:248|152:192,1,100
161,114,17001,1,0,0:0:0:0:
161,114,17317,2,0,B|214:114|214:114|256:76,1,100,8|0,0:0|0:0,0:0:0:0:
340,88,17949,6,0,P|408:152|492:108,1,200,2|8,0:0|0:0,0:0:0:0:
428,44,18896,1,0,0:0:0:0:
340,88,19212,2,0,P|300:124|256:120,1,100,2|0,0:0|0:0,0:0:0:0:
193,56,19843,2,0,P|233:20|277:24,1,100,8|0,0:0|0:0,0:0:0:0:
340,88,20475,5,2,0:0:0:0:
404,152,20790,1,0,0:0:0:0:
436,236,21106,1,8,0:0:0:0:
484,312,21422,2,0,P|404:312|364:200,1,200
448,212,22369,2,0,P|403:310|323:310,1,200,8|2,0:0|0:0,0:0:0:0:
256,248,23317,5,0,0:0:0:0:
176,288,23632,2,0,P|124:288|92:248,1,100,8|0,0:0|0:0,0:0:0:0:
20,308,24264,2,0,P|-28:228|24:128,1,200,0|8,0:0|0:0,0:0:0:0:
76,76,25211,1,0,0:0:0:0:
168,80,25527,6,0,P|256:120|344:68,1,200,2|8,0:0|0:0,0:0:0:0:
424,104,26474,2,0,L|456:56,2,50
424,194,27106,2,0,L|456:242,2,50,0|0|8,0:0|0:0|0:0,0:0:0:0:
348,148,27737,1,0,0:0:0:0:
296,220,28053,6,0,B|220:220|220:160|256:140|288:156|288:220|208:220,1,200,2|8,0:0|0:0,0:0:0:0:
144,283,29000,1,0,0:0:0:0:
80,344,29316,2,0,P|32:296|108:204,1,200,0|8,0:0|0:0,0:0:0:0:
176,220,30263,1,0,0:0:0:0:
256,180,30579,5,4,0:0:0:0:
336,220,30895,1,0,0:0:0:0:
364,304,31210,2,0,P|404:272|412:224,1,100,8|0,0:0|0:0,0:0:0:0:
330,188,31842,2,0,B|294:188|278:164|278:164|256:196|242:220|242:220|226:188|174:188,1,200,0|8,0:0|0:0,0:0:0:0:
101,235,32789,1,0,0:0:0:0:
144,312,33105,6,0,P|192:328|240:308,1,100,2|0,0:0|0:0,0:0:0:0:
324,284,33737,2,0,P|368:267|416:283,1,100,8|0,0:0|0:0,0:0:0:0:
379,352,34368,2,0,P|464:361|487:254,1,200,0|8,0:0|0:0,0:0:0:0:
496,176,35315,1,0,0:0:0:0:
496,45,35631,5,2,0:0:0:0:
496,45,36263,2,0,P|449:37|409:77,1,100,8|0,0:0|0:0,0:0:0:0:
384,80,36736,2,0,P|360:144|280:144,1,150
222,84,37526,2,0,P|176:108|168:156,1,100,8|0,0:0|0:0,0:0:0:0:
167,242,38157,5,2,0:0:0:0:
201,325,38473,1,0,0:0:0:0:
292,324,38789,2,0,P|336:292|344:236,1,100,8|0,0:0|0:0,0:0:0:0:
364,208,39262,2,0,P|376:160|304:104,1,150
215,103,40052,1,8,0:0:0:0:
184,188,40367,1,0,0:0:0:0:
104,228,40683,6,0,L|128:332|128:332,1,100,2|0,0:0|0:0,0:0:0:0:
184,188,41315,2,0,L|156:80,1,100,8|0,0:0|0:0,0:0:0:0:
240,52,41946,2,0,B|292:52|292:52|336:16,1,100
416,44,42578,2,0,P|360:120|432:204,1,200,8|2,0:0|0:0,0:0:0:0:
460,120,43525,5,0,0:0:0:0:
416,44,43841,1,8,0:0:0:0:
332,76,44156,1,0,0:0:0:0:
268,139,44472,2,0,B|248:200|248:200|228:235|152:231|136:179,1,200,0|8,0:0|0:0,0:0:0:0:
136,91,45419,1,0,0:0:0:0:
68,40,45735,5,2,0:0:0:0:
68,40,46367,1,8,0:0:0:0:
40,124,46683,1,0,0:0:0:0:
60,212,46998,2,0,P|124:280|216:232,1,200,0|8,0:0|0:0,0:0:0:0:
208,144,47946,1,0,0:0:0:0:
208,144,48261,6,0,P|256:128|304:144,1,100,2|0,0:0|0:0,0:0:0:0:
372,204,48893,1,8,0:0:0:0:
304,264,49209,2,0,P|256:248|208:264,2,100
336,332,50156,2,0,P|256:380|176:324,1,200,8|2,0:0|0:0,0:0:0:0:
110,280,51103,5,0,0:0:0:0:
56,340,51419,2,0,P|36:272|152:204,1,200,8|0,0:0|0:0,0:0:0:0:
208,200,52366,1,0,0:0:0:0:
266,261,52682,2,0,B|319:261|319:261|356:232,1,100,8|0,0:0|0:0,0:0:0:0:
444,236,53313,6,0,P|440:168|328:156,1,200,2|8,0:0|0:0,0:0:0:0:
240,172,54261,2,0,P|192:192|148:168,1,100
87,108,54892,1,0,0:0:0:0:
0,80,55208,2,0,P|24:40|80:24,1,100,8|0,0:0|0:0,0:0:0:0:
160,48,55839,6,0,P|216:120|312:96,1,200,2|8,0:0|0:0,0:0:0:0:
401,96,56787,1,0,0:0:0:0:
436,180,57102,2,0,P|416:224|368:248,1,100
304,196,57734,2,0,P|324:152|372:128,1,100,8|0,0:0|0:0,0:0:0:0:
456,184,58365,6,0,P|444:272|336:264,1,200,2|8,0:0|0:0,0:0:0:0:
256,260,59313,1,0,0:0:0:0:
163,276,59629,2,0,P|68:272|56:184,1,200,0|8,0:0|0:0,0:0:0:0:
96,104,60576,1,0,0:0:0:0:
184,112,60892,6,0,P|188:60|148:32,1,100,2|0,0:0|0:0,0:0:0:0:
96,104,61523,2,0,P|156:184|256:156,1,200,8|0,0:0|0:0,0:0:0:0:
327,133,62470,1,0,0:0:0:0:
340,136,62628,1,0,0:0:0:0:
352,140,62786,2,0,B|384:180|384:180|384:232,1,100,8|0,0:0|0:0,0:0:0:0:
340,308,63418,6,0,P|280:344|184:276,1,200,2|8,0:0|0:0,0:0:0:0:
184,187,64365,1,0,0:0:0:0:
168,100,64681,2,0,B|220:80|256:128|256:128|288:80|356:100,1,200,0|8,0:0|0:0,0:0:0:0:
407,160,65628,1,0,0:0:0:0:
416,248,65944,6,0,B|380:288|380:288|328:288,1,100,2|0,0:0|0:0,0:0:0:0:
178,288,66575,2,0,B|132:288|132:288|96:248,1,100,8|0,0:0|0:0,0:0:0:0:
76,208,67049,2,0,P|132:164|128:76,1,150
196,24,67838,2,0,L|236:124,1,100,8|0,0:0|0:0,0:0:0:0:
312,160,68470,5,2,0:0:0:0:
416,148,68785,1,0,0:0:0:0:
446,242,69101,2,0,P|400:308|292:292,1,200,8|0,0:0|0:0,0:0:0:0:
240,220,70048,2,0,P|276:180|272:120,1,100,0|8,0:0|0:0,0:0:0:0:
256,56,70680,1,0,0:0:0:0:
256,56,70996,5,2,0:0:0:0:
368,316,81100,6,0,P|440:304|464:192,1,200,2|8,0:0|0:0,0:0:0:0:
374,193,82047,2,0,P|302:181|278:69,1,200,0|0,0:0|0:0,0:0:0:0:
360,108,82994,1,8,0:0:0:0:
374,193,83310,2,0,P|346:237|298:249,1,100,0|2,0:0|0:0,0:0:0:0:
256,172,83942,5,0,0:0:0:0:
184,120,84258,1,8,0:0:0:0:
184,208,84573,2,0,P|268:252|336:164,1,200
300,104,85521,2,0,P|256:124|208:100,1,100,8|0,0:0|0:0,0:0:0:0:
124,92,86152,6,0,L|92:296|92:296,1,200,2|8,0:0|0:0,0:0:0:0:
388,292,87415,2,0,L|420:88|420:88,1,200,0|8,0:0|0:0,0:0:0:0:
352,32,88362,1,0,0:0:0:0:
272,72,88678,5,2,0:0:0:0:
208,135,88994,1,0,0:0:0:0:
144,198,89310,2,0,P|176:268|292:280,1,200,8|8,0:0|0:0,0:0:0:0:
378,281,90257,1,0,0:0:0:0:
388,268,90415,1,0,0:0:0:0:
392,252,90573,2,0,P|380:204|404:160,1,100,8|0,0:0|0:0,0:0:0:0:
402,71,91204,6,0,B|346:71|346:71|314:111,1,100,4|0,0:0|0:0,0:0:0:0:
256,168,91836,1,8,0:0:0:0:
252,256,92151,2,0,P|180:216|212:92,1,200
256,52,93099,1,8,0:0:0:0:
336,92,93414,1,0,0:0:0:0:
412,140,93730,6,0,P|440:196|360:288,1,200,2|8,0:0|0:0,0:0:0:0:
320,208,94677,2,0,B|280:220|256:280|256:280|240:220|188:204,1,200
133,265,95625,2,0,P|81:257|49:217,1,100,8|0,0:0|0:0,0:0:0:0:
51,132,96256,5,2,0:0:0:0:
108,64,96572,1,0,0:0:0:0:
196,52,96888,1,8,0:0:0:0:
256,120,97204,1,0,0:0:0:0:
316,52,97519,1,0,0:0:0:0:
404,64,97835,1,0,0:0:0:0:
461,132,98151,1,8,0:0:0:0:
452,220,98467,2,0,B|424:264|424:264|376:288,1,100,0|2,0:0|0:0,0:0:0:0:
308,232,99098,5,0,0:0:0:0:
252,304,99414,2,0,P|200:320|124:208,1,200,8|0,0:0|0:0,0:0:0:0:
140,132,100361,1,0,0:0:0:0:
148,120,100519,1,0,0:0:0:0:
156,108,100677,1,8,0:0:0:0:
212,40,100993,2,0,P|256:60|300:40,1,100,0|2,0:0|0:0,0:0:0:0:
390,39,101624,5,0,0:0:0:0:
416,124,101940,1,8,0:0:0:0:
416,124,102256,2,0,B|416:180|416:180|416:232|384:272|324:264|320:240,1,200
312,156,103203,2,0,B|312:212|312:212|312:264|280:304|220:296|216:272,1,200,8|2,0:0|0:0,0:0:0:0:
155,214,104150,5,0,0:0:0:0:
152,124,104466,2,0,P|204:100|212:40,1,100,8|0,0:0|0:0,0:0:0:0:
306,62,105097,2,0,P|319:100|371:124,2,100,0|0|8,0:0|0:0|0:0,0:0:0:0:
215,62,106045,1,0,0:0:0:0:
176,144,106360,6,0,P|148:196|56:196,1,150,2|0,0:0|0:0,0:0:0:0:
26,176,106992,2,0,L|8:280,1,100,8|0,0:0|0:0,0:0:0:0:
68,340,107623,2,0,P|112:368|168:344,1,100
236,312,108255,2,0,P|284:292|328:308,1,100,8|0,0:0|0:0,0:0:0:0:
316,376,108886,6,0,P|380:364|372:252,1,200,2|8,0:0|0:0,0:0:0:0:
307,187,109834,1,0,0:0:0:0:
228,204,110150,2,0,P|272:120|376:144,1,200,0|8,0:0|0:0,0:0:0:0:
468,204,111097,1,0,0:0:0:0:
408,272,111413,5,4,0:0:0:0:
344,332,111728,1,0,0:0:0:0:
256,348,112044,2,0,P|208:320|160:336,1,100,8|0,0:0|0:0,0:0:0:0:
84,364,112676,2,0,P|144:328|120:200,1,200,0|8,0:0|0:0,0:0:0:0:
100,127,113623,1,0,0:0:0:0:
140,44,113939,6,0,B|192:44|192:44|220:4,1,100,2|0,0:0|0:0,0:0:0:0:
292,4,114570,2,0,B|320:44|320:44|372:44,1,100,8|0,0:0|0:0,0:0:0:0:
435,107,115202,2,0,P|507:155|435:207,1,200,0|8,0:0|0:0,0:0:0:0:
376,272,116149,1,0,0:0:0:0:
376,272,116465,6,0,P|336:324|252:304,1,150,2|0,0:0|0:0,0:0:0:0:
240,272,117096,2,0,L|168:188,1,100,8|0,0:0|0:0,0:0:0:0:
100,148,117728,2,0,P|96:88|172:44,1,150
208,64,118359,2,0,P|256:76|304:60,1,100,8|0,0:0|0:0,0:0:0:0:
392,72,118991,6,0,L|412:176,1,100,2|0,0:0|0:0,0:0:0:0:
428,260,119622,2,0,B|416:312|416:312|372:344|320:340|296:276,1,200,8|0,0:0|0:0,0:0:0:0:
256,200,120569,1,0,0:0:0:0:
214,279,120885,2,0,B|192:340|140:344|96:312|96:312|84:260,1,200,8|2,0:0|0:0,0:0:0:0:
59,173,121832,5,0,0:0:0:0:
32,88,122148,2,0,P|48:44|96:32,1,100,8|0,0:0|0:0,0:0:0:0:
160,100,122780,2,0,P|188:160|308:144,1,200,0|8,0:0|0:0,0:0:0:0:
368,84,123727,1,0,0:0:0:0:
420,160,124043,6,0,L|464:116,2,50,2|0|0,0:0|0:0|0:0,0:0:0:0:
412,248,124674,2,0,P|364:308|256:248,1,200,8|0,0:0|0:0,0:0:0:0:
336,216,125622,1,0,0:0:0:0:
264,268,125937,2,0,P|216:292|168:280,1,100,8|0,0:0|0:0,0:0:0:0:
128,204,126569,6,0,P|189:133|277:185,1,200,2|8,0:0|0:0,0:0:0:0:
344,328,127832,2,0,B|292:348|256:302|256:302|224:348|156:328,1,200,0|8,0:0|0:0,0:0:0:0:
76,330,128779,1,0,0:0:0:0:
25,255,129095,6,0,P|28:152|112:140,1,200,2|8,0:0|0:0,0:0:0:0:
197,138,130042,1,0,0:0:0:0:
272,184,130358,2,0,P|320:172|344:124,1,100
344,40,130989,1,8,0:0:0:0:
256,60,131305,1,0,0:0:0:0:
8,124,141725,6,0,B|28:84|60:84|60:84|112:84,1,100,2|0,0:0|0:0,0:0:0:0:
84,176,142357,2,0,P|64:240|156:324,1,200,8|0,0:0|0:0,0:0:0:0:
240,332,143304,1,0,0:0:0:0:
272,248,143620,1,8,0:0:0:0:
504,124,144251,6,0,B|484:84|452:84|452:84|400:84,1,100,2|0,0:0|0:0,0:0:0:0:
428,176,144883,2,0,P|448:240|356:324,1,200,8|0,0:0|0:0,0:0:0:0:
272,332,145830,1,0,0:0:0:0:
240,248,146146,1,8,0:0:0:0:
240,68,146777,6,0,P|184:72|152:100,1,100,2|0,0:0|0:0,0:0:0:0:
109,179,147409,1,8,0:0:0:0:
75,262,147725,1,0,0:0:0:0:
136,328,148040,2,0,B|192:360|228:324|208:292|180:324|256:368|256:368|320:324|308:292|280:324|316:360|376:328,1,300
392,240,149303,6,0,P|376:192|396:144,1,100,2|0,0:0|0:0,0:0:0:0:
392,57,149935,1,8,0:0:0:0:
308,84,150251,1,0,0:0:0:0:
308,84,150566,2,0,P|284:132|152:112,1,200,0|8,0:0|0:0,0:0:0:0:
224,60,151514,1,0,0:0:0:0:
224,60,151829,6,0,P|248:108|160:212,1,200,2|8,0:0|0:0,0:0:0:0:
78,211,152777,2,0,B|78:267|118:303|178:303|178:303|230:303,1,200
314,303,153724,1,8,0:0:0:0:
377,239,154040,1,0,0:0:0:0:
392,152,154355,6,0,B|348:120|348:120|348:72,1,100,2|0,0:0|0:0,0:0:0:0:
300,0,154987,1,8,0:0:0:0:
216,36,155303,2,0,P|168:52|152:96,1,100
151,185,155934,1,0,0:0:0:0:
156,276,156250,2,0,B|172:324|172:324|220:344,1,100,8|0,0:0|0:0,0:0:0:0:
307,343,156881,6,0,P|379:291|307:227,1,200,2|8,0:0|0:0,0:0:0:0:
205,343,158144,2,0,P|133:291|205:227,1,200,0|8,0:0|0:0,0:0:0:0:
256,160,159092,1,0,0:0:0:0:
332,116,159407,6,0,P|256:60|172:116,1,200,2|8,0:0|0:0,0:0:0:0:
111,172,160355,1,0,0:0:0:0:
140,256,160671,2,0,B|180:264|180:264|184:296|224:320,1,100,0|0,0:0|0:0,0:0:0:0:
301,311,161302,2,0,B|328:295|332:263|332:263|372:255,1,100,8|0,0:0|0:0,0:0:0:0:
444,308,161934,6,0,P|480:252|384:176,1,200,2|8,0:0|0:0,0:0:0:0:
324,124,162881,1,0,0:0:0:0:
256,184,163197,2,0,P|204:256|116:192,1,200,0|8,0:0|0:0,0:0:0:0:
120,122,164144,1,0,0:0:0:0:
172,48,164460,6,0,B|224:48|256:93|256:93|284:48|344:48,1,200,2|8,0:0|0:0,0:0:0:0:
431,48,165407,1,0,0:0:0:0:
431,48,165565,1,0,0:0:0:0:
431,48,165723,2,0,B|456:96|456:96|456:148|428:200|368:184,1,200,0|8,0:0|0:0,0:0:0:0:
279,184,166670,1,0,0:0:0:0:
196,148,166986,6,0,P|176:192|196:244,1,100,2|0,0:0|0:0,0:0:0:0:
320,238,167617,2,0,P|336:192|316:148,1,100,8|0,0:0|0:0,0:0:0:0:
184,68,168249,2,0,B|232:56|256:4|256:4|276:56|344:72,1,200,0|8,0:0|0:0,0:0:0:0:
300,244,169512,6,0,P|256:264|204:240,1,100,2|0,0:0|0:0,0:0:0:0:
212,140,170143,2,0,P|256:120|308:144,1,100,8|0,0:0|0:0,0:0:0:0:
388,112,170775,2,0,B|416:156|352:192|352:192|424:236|380:296,1,200,0|8,0:0|0:0,0:0:0:0:
329,336,171722,1,0,0:0:0:0:
240,319,172038,6,0,P|228:259|108:267,1,200,4|8,0:0|0:0,0:0:0:0:
32,304,172985,2,0,B|100:280|116:232|116:192|116:192|116:132,1,200
167,68,173932,1,8,0:0:0:0:
256,88,174248,1,0,0:0:0:0:
345,68,174564,6,0,P|392:152|328:244,1,200,2|8,0:0|0:0,0:0:0:0:
376,320,175511,2,0,B|364:260|328:232|264:232|264:232|200:232,1,200
131,232,176458,1,8,0:0:0:0:
131,232,176774,1,0,0:0:0:0:
131,232,177090,6,0,P|120:176|232:116,1,200,2|8,0:0|0:0,0:0:0:0:
317,114,178037,1,0,0:0:0:0:
400,148,178353,2,0,B|400:208|400:208|400:256|368:296|304:272,1,200,0|8,0:0|0:0,0:0:0:0:
112,148,179616,6,0,B|112:208|112:208|112:256|144:296|208:272,1,200,2|8,0:0|0:0,0:0:0:0:
256,200,180563,1,0,0:0:0:0:
308,128,180879,1,8,0:0:0:0:
204,128,181195,1,0,0:0:0:0:
252,52,181510,1,8,0:0:0:0:
344,56,181826,1,0,0:0:0:0:
412,116,182142,6,0,P|396:208|300:216,1,200,4|8,0:0|0:0,0:0:0:0:
336,132,183089,1,0,0:0:0:0:
336,132,183405,2,0,L|272:328,1,200,0|8,0:0|0:0,0:0:0:0:
184,340,184352,2,0,P|140:312|128:256,1,100,0|2,0:0|0:0,0:0:0:0:
126,177,184984,5,0,0:0:0:0:
189,113,185299,1,8,0:0:0:0:
256,56,185615,1,0,0:0:0:0:
256,56,185931,2,0,P|312:132|424:92,1,200,0|8,0:0|0:0,0:0:0:0:
356,288,187194,6,0,L|136:288,1,200,2|8,0:0|0:0,0:0:0:0:
92,224,188141,1,0,0:0:0:0:
120,140,188457,2,0,B|164:136|164:136|188:104|240:104,1,100
301,107,189089,2,0,B|324:104|348:136|348:136|392:140,1,100,8|0,0:0|0:0,0:0:0:0:
468,96,189720,6,0,P|476:188|380:220,1,200,2|8,0:0|0:0,0:0:0:0:
324,286,190667,1,0,0:0:0:0:
308,376,190983,2,0,P|240:312|264:216,1,200,0|8,0:0|0:0,0:0:0:0:
344,56,192246,6,0,B|292:56|256:96|256:96|220:56|160:56,1,200,2|8,0:0|0:0,0:0:0:0:
77,56,193193,1,0,0:0:0:0:
36,148,193509,2,0,P|-15:227|35:307,1,200,0|8,0:0|0:0,0:0:0:0:
204,356,194772,6,0,P|248:328|260:284,1,100,2|0,0:0|0:0,0:0:0:0:
232,196,195404,2,0,P|188:224|176:268,1,100,8|0,0:0|0:0,0:0:0:0:
264,264,196035,2,0,P|316:184|240:120,1,200,0|8,0:0|0:0,0:0:0:0:
196,192,196982,1,0,0:0:0:0:
180,280,197298,6,0,P|252:344|356:280,1,200,2|8,0:0|0:0,0:0:0:0:
428,312,198246,1,0,0:0:0:0:
428,312,198561,2,0,B|446:254|446:254|412:220|446:166|446:166|428:124,1,200,0|8,0:0|0:0,0:0:0:0:
348,88,199509,1,0,0:0:0:0:
296,164,199824,6,0,B|220:164|220:224|256:244|288:228|288:164|208:164,1,200,2|8,0:0|0:0,0:0:0:0:
144,101,200771,1,0,0:0:0:0:
80,40,201087,2,0,P|32:88|108:180,1,200,0|8,0:0|0:0,0:0:0:0:
176,164,202034,1,0,0:0:0:0:
256,204,202350,5,4,0:0:0:0:
336,164,202666,1,0,0:0:0:0:
364,80,202981,2,0,P|404:112|412:160,1,100,8|0,0:0|0:0,0:0:0:0:
330,196,203613,2,0,B|294:196|278:220|278:220|256:188|242:164|242:164|226:196|174:196,1,200,0|8,0:0|0:0,0:0:0:0:
101,149,204560,1,0,0:0:0:0:
144,72,204876,6,0,P|192:56|240:76,1,100,2|0,0:0|0:0,0:0:0:0:
324,100,205508,2,0,P|368:116|416:100,1,100,8|0,0:0|0:0,0:0:0:0:
379,32,206139,2,0,P|464:23|487:130,1,200,0|8,0:0|0:0,0:0:0:0:
496,208,207086,1,0,0:0:0:0:
496,339,207402,5,2,0:0:0:0:
496,339,208034,2,0,P|449:347|409:307,1,100,8|0,0:0|0:0,0:0:0:0:
384,304,208507,2,0,P|360:240|280:240,1,150
222,300,209297,2,0,P|176:276|168:228,1,100,8|0,0:0|0:0,0:0:0:0:
167,142,209928,5,2,0:0:0:0:
201,59,210244,1,0,0:0:0:0:
292,60,210560,2,0,P|336:92|344:148,1,100,8|0,0:0|0:0,0:0:0:0:
364,176,211033,2,0,P|376:224|304:280,1,150
215,281,211823,1,8,0:0:0:0:
184,196,212138,1,0,0:0:0:0:
104,156,212454,6,0,L|128:52|128:52,1,100,2|0,0:0|0:0,0:0:0:0:
184,196,213086,2,0,L|156:304,1,100,8|0,0:0|0:0,0:0:0:0:
240,332,213717,2,0,B|292:332|292:332|336:368,1,100
416,340,214349,2,0,P|360:264|432:180,1,200,8|2,0:0|0:0,0:0:0:0:
460,264,215296,5,0,0:0:0:0:
416,340,215612,1,8,0:0:0:0:
332,308,215927,1,0,0:0:0:0:
268,245,216243,2,0,B|248:184|248:184|228:149|152:153|136:205,1,200,0|8,0:0|0:0,0:0:0:0:
136,293,217190,1,0,0:0:0:0:
68,344,217506,5,2,0:0:0:0:
68,344,218138,1,8,0:0:0:0:
40,260,218454,1,0,0:0:0:0:
60,172,218769,2,0,P|124:104|216:152,1,200,0|8,0:0|0:0,0:0:0:0:
208,240,219717,1,0,0:0:0:0:
208,240,220032,6,0,P|256:256|304:240,1,100,2|0,0:0|0:0,0:0:0:0:
372,180,220664,1,8,0:0:0:0:
304,120,220980,2,0,P|256:136|208:120,2,100
336,44,221927,2,0,P|256:-8|172:44,1,200,8|2,0:0|0:0,0:0:0:0:
256,228,232663,6,0,B|244:164|148:196|112:144|88:40|184:4|216:28|256:72|256:72|288:32|328:4|408:40|400:144|364:196|308:156|284:168,1,600,2|2,0:0|0:0,0:0:0:0:
108,296,235189,6,0,B|108:360|160:412|204:368|256:197|256:197|304:372|344:412|400:356|400:284,1,600,2|2,0:0|0:0,0:0:0:0:
452,120,237715,6,0,B|452:60|416:32|360:32|360:32|288:32,1,200,2|2,0:0|0:0,0:0:0:0:
60,120,238978,2,0,B|60:60|96:32|152:32|152:32|206:32,1,200,2|2,0:0|0:0,0:0:0:0:
256,192,240241,12,0,242451,0:0:0:0:
110,313,242767,6,0,B|166:313|166:313|198:273,1,100,4|0,0:0|0:0,0:0:0:0:
256,216,243399,1,8,0:0:0:0:
260,128,243714,2,0,P|332:168|300:292,1,200
256,332,244662,1,8,0:0:0:0:
176,292,244977,1,0,0:0:0:0:
100,244,245293,6,0,P|72:188|152:96,1,200,2|8,0:0|0:0,0:0:0:0:
192,176,246240,2,0,B|232:164|256:104|256:104|272:160|324:180,1,200
379,119,247188,2,0,P|431:127|463:167,1,100,8|0,0:0|0:0,0:0:0:0:
461,252,247819,5,2,0:0:0:0:
404,320,248135,1,0,0:0:0:0:
316,332,248451,1,8,0:0:0:0:
256,264,248767,1,0,0:0:0:0:
196,332,249082,1,0,0:0:0:0:
108,320,249398,1,0,0:0:0:0:
51,252,249714,1,8,0:0:0:0:
60,164,250030,2,0,B|88:120|88:120|136:96,1,100,0|2,0:0|0:0,0:0:0:0:
204,152,250661,5,0,0:0:0:0:
260,80,250977,2,0,P|312:64|388:176,1,200,8|0,0:0|0:0,0:0:0:0:
372,252,251924,1,0,0:0:0:0:
364,264,252082,1,0,0:0:0:0:
356,276,252240,1,8,0:0:0:0:
300,344,252556,2,0,P|256:324|212:344,1,100,0|2,0:0|0:0,0:0:0:0:
122,345,253187,5,0,0:0:0:0:
96,260,253503,1,8,0:0:0:0:
96,260,253819,2,0,B|96:204|96:204|96:152|128:112|188:120|192:144,1,200
200,228,254766,2,0,B|200:172|200:172|200:120|232:80|292:88|296:112,1,200,8|2,0:0|0:0,0:0:0:0:
357,170,255713,5,0,0:0:0:0:
360,260,256029,2,0,P|308:284|300:344,1,100,8|0,0:0|0:0,0:0:0:0:
206,322,256660,2,0,P|193:284|141:260,2,100,0|0|8,0:0|0:0|0:0,0:0:0:0:
297,322,257608,1,0,0:0:0:0:
336,240,257923,6,0,P|364:188|456:188,1,150,2|0,0:0|0:0,0:0:0:0:
486,208,258555,2,0,L|504:104,1,100,8|0,0:0|0:0,0:0:0:0:
444,44,259186,2,0,P|400:16|344:40,1,100
276,72,259818,2,0,P|228:92|184:76,1,100,8|0,0:0|0:0,0:0:0:0:
196,8,260449,6,0,P|132:20|140:132,1,200,0|8,0:0|0:0,0:0:0:0:
205,197,261397,1,0,0:0:0:0:
296,192,261713,2,0,P|252:276|148:252,1,200,0|8,0:0|0:0,0:0:0:0:
96,201,262660,1,0,0:0:0:0:
96,201,262976,1,4,0:0:0:0:
