osu file format v12

[General]
AudioFilename: 04 Luv (Sic) Pt3 (Feat. Shing02).mp3
AudioLeadIn: 2000
PreviewTime: 106045
Countdown: 0
SampleSet: Soft
StackLeniency: 0.7
Mode: 0
LetterboxInBreaks: 0
WidescreenStoryboard: 0

[Editor]
Bookmarks: 42578,61523,131621,141725,161934,172038,262976
DistanceSpacing: 0.9
BeatDivisor: 4
GridSize: 4

[Metadata]
Title:Luv (Sic) Pt3
TitleUnicode:Luv (Sic) Pt3
Artist:Nujabes Feat. Shing02
ArtistUnicode:Nujabes Feat. Shing02
Creator:Kiddo-Kun
Version:Soft
Source:
Tags:Modal Soul
BeatmapID:231142
BeatmapSetID:82848

[Difficulty]
HPDrainRate:3
CircleSize:3
OverallDifficulty:3
ApproachRate:3
SliderMultiplier:1.2
SliderTickRate:2

[Events]
//Background and Video events
0,0,"bg.png",0,0
//Break Periods
2,71196,79660
2,131189,140285
2,222759,231223
//Storyboard Layer 0 (Background)
//Storyboard Layer 1 (Fail)
//Storyboard Layer 2 (Pass)
//Storyboard Layer 3 (Foreground)
//Storyboard Sound Samples
//Background Colour Transformations
3,100,255,255,255

[TimingPoints]
266.842321898611,631.512472371329,4,2,1,65,1,0
111413,-100,4,2,1,65,0,1
131621,-100,4,2,1,65,0,0
202350,-100,4,2,1,65,0,1
222559,-100,4,2,1,65,0,0

[Colours]
Combo1 : 255,159,64
Combo2 : 255,187,255
Combo3 : 255,255,159
Combo4 : 0,128,192
Combo5 : 255,140,140

[HitObjects]
200,260,265,1,2,0:0:0:0:
312,260,898,1,8,0:0:0:0:
420,248,1529,2,0,P|424:172|384:140,1,120,0|8,0:0|0:0,0:0:0:0:
312,76,2792,6,0,P|257:56|193:80,1,120,2|8,0:0|0:0,0:0:0:0:
104,128,4055,2,0,L|44:100,2,60,0|0|8,0:0|0:0|0:0,0:0:0:0:
140,228,5318,6,0,P|204:216|224:164,1,120,2|8,0:0|0:0,0:0:0:0:
200,64,6581,2,0,B|244:52|256:72|256:72|268:52|320:64,1,120,0|8,0:0|0:0,0:0:0:0:
372,156,7844,6,0,P|308:168|288:220,1,120,2|8,0:0|0:0,0:0:0:0:
312,320,9108,2,0,B|268:332|256:312|256:312|244:332|192:320,1,120,0|8,0:0|0:0,0:0:0:0:
124,245,10371,6,0,B|124:197|124:197|124:161|164:129,1,120,2|8,0:0|0:0,0:0:0:0:
203,38,11634,1,0,0:0:0:0:
256,38,11949,1,0,0:0:0:0:
310,38,12265,1,8,0:0:0:0:
412,76,12897,6,0,P|416:184|296:204,1,240,2|0,0:0|0:0,0:0:0:0:
256,112,14791,1,8,0:0:0:0:
206,209,15423,6,0,P|96:184|100:76,1,240,2|0,0:0|0:0,0:0:0:0:
196,27,17317,1,8,0:0:0:0:
284,88,17949,6,0,B|340:88|340:88|364:88|392:76|400:52,1,120,2|8,0:0|0:0,0:0:0:0:
503,61,19212,1,0,0:0:0:0:
503,168,19843,2,0,L|484:291,1,120,8|2,0:0|0:0,0:0:0:0:
376,286,21106,5,8,0:0:0:0:
299,362,21738,2,0,P|239:370|195:314,1,120,0|8,0:0|0:0,0:0:0:0:
256,240,23001,5,2,0:0:0:0:
211,141,23632,1,8,0:0:0:0:
148,52,24264,2,0,P|108:96|108:164,1,120,0|8,0:0|0:0,0:0:0:0:
108,256,25527,6,0,B|168:256|168:256|216:212,1,120,2|8,0:0|0:0,0:0:0:0:
299,215,26790,2,0,B|344:256|344:256|404:256,1,120,0|8,0:0|0:0,0:0:0:0:
380,152,28053,6,0,P|356:88|296:76,1,120,2|8,0:0|0:0,0:0:0:0:
202,73,29316,2,0,P|157:87|133:151,1,120,0|8,0:0|0:0,0:0:0:0:
133,259,30579,5,4,0:0:0:0:
209,335,31210,1,8,0:0:0:0:
316,328,31842,2,0,P|384:320|412:256,1,120,0|8,0:0|0:0,0:0:0:0:
352,172,33105,6,0,B|304:192|256:120|256:120|204:192|128:164,1,240,2|0,0:0|0:0,0:0:0:0:
77,247,35000,1,8,0:0:0:0:
156,320,35631,6,0,B|204:320|224:292|224:260|224:260|224:220,1,120,2|8,0:0|0:0,0:0:0:0:
280,152,36894,2,0,B|280:134|280:134|280:102|300:74|348:74,1,120,0|8,0:0|0:0,0:0:0:0:
424,151,38157,5,2,0:0:0:0:
424,259,38789,1,8,0:0:0:0:
402,308,39104,1,0,0:0:0:0:
352,324,39420,2,0,P|308:344|240:308,1,120,0|8,0:0|0:0,0:0:0:0:
169,240,40683,6,0,P|132:193|148:125,1,120,2|8,0:0|0:0,0:0:0:0:
200,48,41946,1,0,0:0:0:0:
308,48,42578,1,8,0:0:0:0:
304,156,43209,6,0,B|272:152|256:184|256:184|240:152|200:156,1,120,2|8,0:0|0:0,0:0:0:0:
204,48,44472,2,0,P|256:24|312:48,1,120,0|8,0:0|0:0,0:0:0:0:
387,123,45735,5,2,0:0:0:0:
387,231,46367,1,8,0:0:0:0:
310,307,46998,2,0,P|264:268|208:280,1,120,0|8,0:0|0:0,0:0:0:0:
132,355,48261,6,0,B|80:327|80:327|68:255,1,120,2|8,0:0|0:0,0:0:0:0:
69,158,49524,1,0,0:0:0:0:
145,81,50156,1,8,0:0:0:0:
196,176,50787,6,0,L|324:176,1,120,2|8,0:0|0:0,0:0:0:0:
424,176,52050,2,0,B|424:140|424:140|424:112|404:84|368:84,1,120,0|8,0:0|0:0,0:0:0:0:
264,84,53313,5,2,0:0:0:0:
155,84,53945,1,8,0:0:0:0:
72,152,54576,2,0,P|76:188|148:236,1,120,0|8,0:0|0:0,0:0:0:0:
200,324,55839,5,2,0:0:0:0:
308,324,56471,1,8,0:0:0:0:
409,286,57102,1,0,0:0:0:0:
424,232,57418,1,0,0:0:0:0:
436,180,57734,2,0,P|424:132|360:112,1,120,8|2,0:0|0:0,0:0:0:0:
285,187,58997,5,8,0:0:0:0:
184,228,59629,2,0,P|156:172|196:116,1,120,0|8,0:0|0:0,0:0:0:0:
256,48,60892,5,2,0:0:0:0:
348,108,61523,1,8,0:0:0:0:
436,172,62155,1,0,0:0:0:0:
420,280,62786,2,0,P|368:280|316:232,1,120,8|2,0:0|0:0,0:0:0:0:
256,148,64049,5,8,0:0:0:0:
193,237,64681,2,0,P|144:280|92:280,1,120,0|8,0:0|0:0,0:0:0:0:
91,171,65944,5,2,0:0:0:0:
148,79,66575,1,8,0:0:0:0:
256,60,67207,1,0,0:0:0:0:
364,79,67838,1,8,0:0:0:0:
421,171,68470,6,0,P|412:232|356:264,1,120,2|8,0:0|0:0,0:0:0:0:
256,276,69733,2,0,L|256:340,2,60,0|0|8,0:0|0:0|0:0,0:0:0:0:
256,167,70996,5,2,0:0:0:0:
432,340,81100,6,0,P|472:316|476:240,1,120,2|8,0:0|0:0,0:0:0:0:
435,149,82363,1,0,0:0:0:0:
364,68,82994,2,0,L|384:8,2,60,8|0|2,0:0|0:0|0:0,0:0:0:0:
312,164,84258,5,8,0:0:0:0:
204,164,84889,1,0,0:0:0:0:
127,240,85521,2,0,P|75:200|71:144,1,120,8|2,0:0|0:0,0:0:0:0:
69,41,86784,5,8,0:0:0:0:
169,81,87415,1,0,0:0:0:0:
256,20,88047,1,8,0:0:0:0:
343,81,88678,5,2,0:0:0:0:
443,41,89310,1,8,0:0:0:0:
492,136,89941,2,0,L|468:260|468:260,1,120,8|8,0:0|0:0,0:0:0:0:
392,330,91204,5,4,0:0:0:0:
312,260,91836,2,0,P|300:216|340:152,2,120,8|0|8,0:0|0:0|0:0,0:0:0:0:
408,308,93730,6,0,B|460:296|460:296|496:240,1,120,2|8,0:0|0:0,0:0:0:0:
492,132,94993,2,0,P|492:80|424:44,1,120,0|8,0:0|0:0,0:0:0:0:
340,84,96256,5,2,0:0:0:0:
288,104,96572,1,0,0:0:0:0:
240,124,96888,2,0,P|184:108|160:44,2,120,8|0|8,0:0|0:0|0:0,0:0:0:0:
347,124,98782,5,2,0:0:0:0:
304,223,99414,1,8,0:0:0:0:
268,324,100045,2,0,P|224:288|160:312,1,120,0|8,0:0|0:0,0:0:0:0:
69,349,101308,5,2,0:0:0:0:
38,245,101940,1,8,0:0:0:0:
38,137,102571,2,0,L|6:85,2,60,0|0|8,0:0|0:0|0:0,0:0:0:0:
146,137,103834,6,0,B|194:137|210:105|210:105|258:105,1,120,2|8,0:0|0:0,0:0:0:0:
362,105,105097,1,0,0:0:0:0:
362,159,105413,1,0,0:0:0:0:
362,213,105729,2,0,P|356:272|296:300,1,120,8|2,0:0|0:0,0:0:0:0:
205,337,106992,5,8,0:0:0:0:
176,232,107623,1,0,0:0:0:0:
215,131,108255,1,8,0:0:0:0:
320,156,108886,6,0,P|364:168|428:128,1,120,2|8,0:0|0:0,0:0:0:0:
348,60,110150,2,0,P|304:48|240:88,1,120,0|8,0:0|0:0,0:0:0:0:
184,176,111413,5,4,0:0:0:0:
256,256,112044,1,8,0:0:0:0:
204,352,112676,2,0,P|256:376|316:348,1,120,0|8,0:0|0:0,0:0:0:0:
304,244,113939,6,0,B|272:244|256:212|256:212|240:244|204:244,1,120,2|8,0:0|0:0,0:0:0:0:
101,243,115202,1,0,0:0:0:0:
101,243,115833,2,0,P|92:184|128:132,1,120,8|2,0:0|0:0,0:0:0:0:
196,56,117096,5,8,0:0:0:0:
196,56,117728,2,0,P|248:84|312:60,1,120,0|8,0:0|0:0,0:0:0:0:
412,80,118991,6,0,B|452:128|452:128|452:188,1,120,2|8,0:0|0:0,0:0:0:0:
375,261,120254,2,0,B|335:213|335:213|335:153,1,120,0|8,0:0|0:0,0:0:0:0:
306,51,121517,5,2,0:0:0:0:
212,100,122148,1,8,0:0:0:0:
128,168,122780,2,0,P|220:228|300:148,1,240,0|2,0:0|0:0,0:0:0:0:
299,41,124674,5,8,0:0:0:0:
200,80,125306,2,0,P|156:64|104:120,1,120,0|8,0:0|0:0,0:0:0:0:
105,216,126569,5,2,0:0:0:0:
200,268,127200,1,8,0:0:0:0:
308,268,127832,1,0,0:0:0:0:
407,216,128463,1,8,0:0:0:0:
340,132,129095,6,0,P|276:176|168:76,1,240,2|0,0:0|0:0,0:0:0:0:
256,24,130989,1,8,0:0:0:0:
312,276,141725,6,0,B|276:292|256:272|256:272|236:292|192:272,1,120,2|8,0:0|0:0,0:0:0:0:
123,198,142988,2,0,P|123:146|175:106,1,120,0|8,0:0|0:0,0:0:0:0:
281,106,144251,6,0,L|401:106,2,120,2|8|0,0:0|0:0|0:0,0:0:0:0:
172,106,146146,1,8,0:0:0:0:
116,200,146777,6,0,L|48:184,2,60,2|0|8,0:0|0:0|0:0,0:0:0:0:
200,268,148040,2,0,P|256:288|320:260,1,120,0|8,0:0|0:0,0:0:0:0:
396,184,149303,6,0,L|464:200,2,60,2|0|8,0:0|0:0|0:0,0:0:0:0:
312,116,150566,2,0,P|256:96|192:124,1,120,0|8,0:0|0:0,0:0:0:0:
128,196,151829,6,0,P|132:252|188:288,1,120,2|8,0:0|0:0,0:0:0:0:
272,228,153092,2,0,P|268:172|212:136,2,120,0|8|2,0:0|0:0|0:0,0:0:0:0:
222,323,154987,5,8,0:0:0:0:
116,298,155618,1,0,0:0:0:0:
77,259,155934,1,0,0:0:0:0:
77,204,156250,2,0,P|124:168|128:104,1,120,8|2,0:0|0:0,0:0:0:0:
53,34,157513,5,8,0:0:0:0:
131,111,158144,2,0,L|251:111,1,120,0|8,0:0|0:0,0:0:0:0:
360,108,159407,5,2,0:0:0:0:
400,208,160039,1,8,0:0:0:0:
363,309,160671,1,0,0:0:0:0:
316,336,160986,1,0,0:0:0:0:
264,356,161302,2,0,P|208:360|176:288,1,120,8|2,0:0|0:0,0:0:0:0:
173,204,162565,5,8,0:0:0:0:
256,132,163197,1,0,0:0:0:0:
339,204,163828,1,8,0:0:0:0:
304,304,164460,6,0,P|256:336|204:300,1,120,2|8,0:0|0:0,0:0:0:0:
130,231,165723,2,0,L|74:267,2,60,0|0|8,0:0|0:0|0:0,0:0:0:0:
206,154,166986,5,2,0:0:0:0:
288,84,167617,1,8,0:0:0:0:
396,90,168249,1,0,0:0:0:0:
434,128,168564,1,0,0:0:0:0:
456,176,168880,2,0,P|448:232|380:252,1,120,8|2,0:0|0:0,0:0:0:0:
318,331,170143,5,8,0:0:0:0:
209,331,170775,1,0,0:0:0:0:
164,300,171090,1,0,0:0:0:0:
124,264,171406,2,0,B|80:224|80:224|104:148,1,120,8|4,0:0|0:0,0:0:0:0:
200,128,172669,5,8,0:0:0:0:
308,128,173301,1,0,0:0:0:0:
312,236,173932,2,0,B|276:252|256:232|256:232|236:252|192:232,1,120,8|2,0:0|0:0,0:0:0:0:
108,176,175195,6,0,P|156:148|172:80,1,120,8|0,0:0|0:0,0:0:0:0:
65,88,176458,2,0,P|17:116|1:184,1,120,8|2,0:0|0:0,0:0:0:0:
0,283,177721,5,8,0:0:0:0:
92,336,178353,1,0,0:0:0:0:
199,336,178984,1,8,0:0:0:0:
260,248,179616,6,0,P|300:220|304:148,1,120,2|8,0:0|0:0,0:0:0:0:
256,56,180879,2,0,P|216:84|212:156,1,120,0|8,0:0|0:0,0:0:0:0:
252,252,182142,6,0,L|236:312,2,60,4|0|8,0:0|0:0|0:0,0:0:0:0:
300,156,183405,2,0,P|256:120|208:164,1,120,0|8,0:0|0:0,0:0:0:0:
260,252,184668,6,0,L|276:312,2,60,2|0|8,0:0|0:0|0:0,0:0:0:0:
212,156,185931,2,0,P|256:120|304:164,1,120,0|8,0:0|0:0,0:0:0:0:
377,227,187194,5,2,0:0:0:0:
328,324,187826,1,8,0:0:0:0:
220,312,188457,2,0,P|168:272|108:292,1,120,0|8,0:0|0:0,0:0:0:0:
23,333,189720,5,2,0:0:0:0:
12,224,190352,2,0,P|16:160|68:124,1,120,8|0,0:0|0:0,0:0:0:0:
152,76,191615,1,8,0:0:0:0:
256,101,192246,5,2,0:0:0:0:
360,128,192878,1,8,0:0:0:0:
461,164,193509,2,0,B|453:200|465:224|465:224|437:248|429:288,1,120,0|8,0:0|0:0,0:0:0:0:
356,348,194772,5,2,0:0:0:0:
256,304,195404,1,8,0:0:0:0:
156,348,196035,2,0,P|100:336|80:268,1,120,0|8,0:0|0:0,0:0:0:0:
77,174,197298,5,2,0:0:0:0:
168,116,197930,1,8,0:0:0:0:
256,56,198561,2,0,P|292:100|364:92,1,120,0|8,0:0|0:0,0:0:0:0:
459,99,199824,5,2,0:0:0:0:
459,207,200456,1,8,0:0:0:0:
464,316,201087,2,0,B|424:340|384:312|384:312|340:340|340:340,1,120,0|8,0:0|0:0,0:0:0:0:
256,376,202350,5,4,0:0:0:0:
162,322,202982,1,8,0:0:0:0:
244,252,203613,2,0,P|304:252|332:192,1,120,0|8,0:0|0:0,0:0:0:0:
332,97,204876,5,2,0:0:0:0:
280,80,205192,1,0,0:0:0:0:
228,64,205508,2,0,P|180:108|180:164,2,120,8|0|8,0:0|0:0|0:0,0:0:0:0:
335,64,207402,5,2,0:0:0:0:
380,164,208034,1,8,0:0:0:0:
312,248,208665,2,0,B|276:232|256:252|256:252|236:232|192:252,1,120,0|8,0:0|0:0,0:0:0:0:
252,344,209928,5,2,0:0:0:0:
360,344,210560,2,0,P|392:304|384:232,1,120,8|0,0:0|0:0,0:0:0:0:
356,136,211823,1,8,0:0:0:0:
256,100,212455,5,2,0:0:0:0:
156,136,213086,1,8,0:0:0:0:
88,220,213718,2,0,L|24:184,2,60,0|0|8,0:0|0:0|0:0,0:0:0:0:
160,300,214981,6,0,P|204:280|216:196,1,120,2|8,0:0|0:0,0:0:0:0:
256,172,215928,1,0,0:0:0:0:
288,215,216244,2,0,P|308:280|352:300,1,120,0|8,0:0|0:0,0:0:0:0:
460,300,217507,5,2,0:0:0:0:
460,192,218138,1,8,0:0:0:0:
383,115,218770,1,0,0:0:0:0:
283,157,219401,1,8,0:0:0:0:
260,264,220033,6,0,B|200:264|200:264|136:228,1,120,2|8,0:0|0:0,0:0:0:0:
196,140,221296,2,0,B|256:140|256:140|320:176,2,120,0|8|4,0:0|0:0|0:0,0:0:0:0:
264,224,232663,22,0,B|264:160|336:180|420:100|320:40|280:60|280:60|256:80|256:80|228:60|228:60|184:40|104:96|168:168|204:148|216:168,2,480,2|2|2,0:0|0:0|0:0,0:0:0:0:
308,324,238347,5,0,0:0:0:0:
200,324,238978,1,2,0:0:0:0:
256,232,239610,1,0,0:0:0:0:
256,192,240241,12,0,242136,0:0:0:0:
120,54,242767,5,4,0:0:0:0:
200,124,243399,2,0,P|212:168|172:232,2,120,8|0|8,0:0|0:0|0:0,0:0:0:0:
104,76,245293,6,0,B|52:88|52:88|16:144,1,120,2|8,0:0|0:0,0:0:0:0:
20,252,246556,2,0,P|20:304|88:340,1,120,0|8,0:0|0:0,0:0:0:0:
172,300,247819,5,2,0:0:0:0:
224,280,248135,1,0,0:0:0:0:
272,260,248451,2,0,P|328:276|352:340,2,120,8|0|8,0:0|0:0|0:0,0:0:0:0:
165,260,250345,5,2,0:0:0:0:
208,161,250977,1,8,0:0:0:0:
244,60,251608,2,0,P|288:96|352:72,1,120,0|8,0:0|0:0,0:0:0:0:
443,35,252871,5,2,0:0:0:0:
474,139,253503,1,8,0:0:0:0:
474,247,254134,2,0,L|506:299,2,60,0|0|8,0:0|0:0|0:0,0:0:0:0:
366,247,255397,6,0,B|318:247|302:279|302:279|254:279,1,120,2|8,0:0|0:0,0:0:0:0:
150,279,256660,1,0,0:0:0:0:
150,225,256976,1,0,0:0:0:0:
150,171,257292,2,0,P|156:112|216:84,1,120,8|2,0:0|0:0,0:0:0:0:
307,47,258555,5,8,0:0:0:0:
336,152,259186,1,0,0:0:0:0:
297,253,259818,1,8,0:0:0:0:
192,228,260449,6,0,P|148:216|84:256,1,120,2|8,0:0|0:0,0:0:0:0:
164,324,261713,2,0,P|208:336|272:296,1,120,0|8,0:0|0:0,0:0:0:0:
256,180,262976,5,4,0:0:0:0:
