osu file format v12

[General]
AudioFilename: 04 Luv (Sic) Pt3 (Feat. Shing02).mp3
AudioLeadIn: 2000
PreviewTime: 106045
Countdown: 0
SampleSet: Soft
StackLeniency: 0.7
Mode: 0
LetterboxInBreaks: 0
WidescreenStoryboard: 0

[Editor]
Bookmarks: 42578,61523,131621,141725,161934,172038,262976
DistanceSpacing: 1
BeatDivisor: 4
GridSize: 4

[Metadata]
Title:Luv (Sic) Pt3
TitleUnicode:Luv (Sic) Pt3
Artist:Nujabes Feat. Shing02
ArtistUnicode:Nujabes Feat. Shing02
Creator:Kiddo-Kun
Version:Average
Source:
Tags:Modal Soul
BeatmapID:236065
BeatmapSetID:82848

[Difficulty]
HPDrainRate:4
CircleSize:4
OverallDifficulty:5
ApproachRate:6
SliderMultiplier:1.4
SliderTickRate:2

[Events]
//Background and Video events
0,0,"bg.png",0,0
//Break Periods
2,70879,80050
2,131189,140675
2,222127,231613
//Storyboard Layer 0 (Background)
//Storyboard Layer 1 (Fail)
//Storyboard Layer 2 (Pass)
//Storyboard Layer 3 (Foreground)
//Storyboard Sound Samples
//Background Colour Transformations
3,100,255,255,255

[TimingPoints]
266.842321898611,631.512472371329,4,2,1,65,1,0
111413,-100,4,2,1,65,0,1
131621,-100,4,2,1,65,0,0
202350,-100,4,2,1,65,0,1
222559,-100,4,2,1,65,0,0

[Colours]
Combo1 : 255,159,64
Combo2 : 255,187,255
Combo3 : 255,255,159
Combo4 : 0,128,192
Combo5 : 255,140,140

[HitObjects]
276,324,266,2,0,P|312:324|352:236,1,140,2|8,0:0|0:0,0:0:0:0:
284,248,1214,1,0,0:0:0:0:
209,254,1529,2,0,P|252:172|288:172,1,140,0|8,0:0|0:0,0:0:0:0:
428,172,2792,5,2,0:0:0:0:
328,72,3424,1,8,0:0:0:0:
264,96,3740,1,0,0:0:0:0:
200,120,4055,2,0,P|132:136|84:84,1,140,0|8,0:0|0:0,0:0:0:0:
152,64,5003,1,0,0:0:0:0:
152,64,5318,6,0,L|108:200,1,140,2|8,0:0|0:0,0:0:0:0:
192,312,6581,2,0,B|232:312|256:288|256:288|280:312|328:312,1,140,0|8,0:0|0:0,0:0:0:0:
390,311,7529,1,0,0:0:0:0:
436,372,7844,6,0,P|468:312|436:252,1,140,2|8,0:0|0:0,0:0:0:0:
326,174,9108,2,0,L|174:174,1,140,0|8,0:0|0:0,0:0:0:0:
115,174,10055,1,0,0:0:0:0:
44,174,10371,5,4,0:0:0:0:
44,313,11002,1,8,0:0:0:0:
170,372,11634,2,0,P|236:356|248:280,1,140,0|8,0:0|0:0,0:0:0:0:
256,224,12581,1,0,0:0:0:0:
260,156,12897,6,0,P|276:92|342:76,1,140,2|8,0:0|0:0,0:0:0:0:
441,175,14160,2,0,P|424:238|358:254,1,140,0|8,0:0|0:0,0:0:0:0:
288,254,15107,1,0,0:0:0:0:
217,254,15423,6,0,B|176:304|176:304|92:304,1,140,2|8,0:0|0:0,0:0:0:0:
1,204,16686,2,0,B|42:154|42:154|126:154,1,140,0|8,0:0|0:0,0:0:0:0:
256,136,17949,5,2,0:0:0:0:
394,154,18580,2,0,B|470:154|470:154|511:204,1,140,8|0,0:0|0:0,0:0:0:0:
411,303,19843,1,8,0:0:0:0:
270,303,20475,5,2,0:0:0:0:
248,236,20790,1,0,0:0:0:0:
180,220,21106,2,0,P|216:164|296:184,1,140,8|0,0:0|0:0,0:0:0:0:
381,269,22369,2,0,P|345:325|265:305,1,140,8|2,0:0|0:0,0:0:0:0:
256,252,23317,5,0,0:0:0:0:
206,202,23632,2,0,L|58:202,1,140,8|0,0:0|0:0,0:0:0:0:
156,96,24895,2,0,L|300:96,1,140,8|2,0:0|0:0,0:0:0:0:
436,96,26158,5,8,0:0:0:0:
436,236,26790,1,0,0:0:0:0:
296,236,27421,1,8,0:0:0:0:
155,236,28053,5,2,0:0:0:0:
115,177,28369,1,0,0:0:0:0:
115,107,28684,2,0,P|184:100|212:32,2,140,8|0|8,0:0|0:0|0:0,0:0:0:0:
144,44,30263,1,0,0:0:0:0:
144,44,30579,6,0,L|184:184,1,140,4|8,0:0|0:0,0:0:0:0:
329,178,31842,2,0,L|368:44,1,140,0|8,0:0|0:0,0:0:0:0:
438,43,32789,1,0,0:0:0:0:
484,96,33105,6,0,L|445:230,1,140,2|8,0:0|0:0,0:0:0:0:
345,329,34368,2,0,P|289:353|237:297,1,140,0|8,0:0|0:0,0:0:0:0:
237,163,35631,5,2,0:0:0:0:
292,32,36263,1,8,0:0:0:0:
188,128,36894,1,0,0:0:0:0:
316,68,37526,1,8,0:0:0:0:
176,76,38157,6,0,P|124:76|88:152,1,140,2|8,0:0|0:0,0:0:0:0:
147,273,39420,2,0,P|199:273|235:197,1,140,0|8,0:0|0:0,0:0:0:0:
256,136,40367,1,0,0:0:0:0:
256,65,40683,6,0,P|308:65|344:141,1,140,4|8,0:0|0:0,0:0:0:0:
324,276,41946,1,0,0:0:0:0:
272,324,42262,1,0,0:0:0:0:
200,328,42578,2,0,P|148:284|80:312,1,140,8|2,0:0|0:0,0:0:0:0:
15,305,43525,6,0,P|20:268|43:237,1,70,0|8,0:0|0:0,0:0:0:0:
87,191,44156,1,0,0:0:0:0:
136,141,44472,2,0,L|280:141,1,140,0|8,0:0|0:0,0:0:0:0:
416,141,45735,5,2,0:0:0:0:
388,264,46367,1,8,0:0:0:0:
276,304,46998,1,0,0:0:0:0:
207,288,47314,1,0,0:0:0:0:
156,240,47630,2,0,P|160:172|236:148,1,140,8|2,0:0|0:0,0:0:0:0:
359,144,48893,5,8,0:0:0:0:
320,280,49524,2,0,B|284:280|256:256|256:256|228:280|184:280,1,140,0|8,0:0|0:0,0:0:0:0:
92,180,50787,6,0,B|92:144|112:112|156:112|156:112|196:112,1,140,2|8,0:0|0:0,3:0:0:0:
256,140,51735,1,0,0:0:0:0:
321,112,52050,2,0,B|356:112|356:112|400:112|420:144|420:180,1,140,0|8,0:0|0:0,3:0:0:0:
412,320,53313,6,0,P|372:352|292:316,1,140,2|8,0:0|0:0,0:0:0:0:
256,264,54261,1,0,0:0:0:0:
216,322,54576,2,0,P|140:352|100:320,1,140,0|8,0:0|0:0,0:0:0:0:
100,180,55839,5,2,0:0:0:0:
188,72,56471,1,8,0:0:0:0:
327,72,57102,1,0,0:0:0:0:
376,121,57418,1,0,0:0:0:0:
444,136,57734,2,0,P|412:184|332:176,1,140,8|2,0:0|0:0,0:0:0:0:
256,64,58997,5,8,0:0:0:0:
175,179,59629,2,0,P|100:184|68:136,1,140,0|8,0:0|0:0,0:0:0:0:
136,121,60576,1,0,0:0:0:0:
192,80,60892,6,0,B|228:80|256:56|256:56|284:80|328:80,1,140,2|8,0:0|0:0,0:0:0:0:
384,112,61839,1,0,0:0:0:0:
440,156,62155,2,0,P|476:212|440:268,1,140,0|8,0:0|0:0,0:0:0:0:
300,267,63418,6,0,P|264:211|300:155,1,140,2|8,0:0|0:0,0:0:0:0:
369,155,64365,1,0,0:0:0:0:
439,155,64681,2,0,P|475:210|439:267,1,140,0|8,0:0|0:0,0:0:0:0:
326,350,65944,6,0,L|186:350,1,140,2|8,0:0|0:0,0:0:0:0:
96,240,67207,2,0,L|240:240,1,140,0|8,0:0|0:0,0:0:0:0:
326,132,68470,6,0,L|182:132,1,140,2|8,0:0|0:0,0:0:0:0:
45,132,69733,1,0,0:0:0:0:
29,200,70048,1,0,0:0:0:0:
40,268,70364,2,0,B|60:296|60:296|96:312,1,70,8|0,0:0|0:0,0:0:0:0:
284,320,81100,6,0,P|336:320|364:240,1,140,2|8,0:0|0:0,0:0:0:0:
366,177,82047,2,0,P|366:125|234:141,1,210,0|8,0:0|0:0,0:0:0:0:
142,218,83626,5,2,0:0:0:0:
241,317,84258,1,8,0:0:0:0:
380,317,84889,2,0,P|440:289|424:205,1,140,0|8,0:0|0:0,0:0:0:0:
390,172,85836,1,0,0:0:0:0:
412,104,86152,6,0,P|344:116|324:192,1,140,2|8,0:0|0:0,0:0:0:0:
320,316,87415,2,0,B|284:316|256:340|256:340|228:316|184:316,1,140,0|8,0:0|0:0,0:0:0:0:
121,316,88362,1,0,0:0:0:0:
52,320,88678,6,0,P|52:280|84:252,1,70,2|0,0:0|0:0,0:0:0:0:
136,236,89310,2,0,P|168:224|184:192,1,70,8|0,0:0|0:0,0:0:0:0:
183,123,89941,2,0,P|247:103|295:159,1,140,0|8,0:0|0:0,0:0:0:0:
320,287,91204,6,0,P|278:303|211:243,1,140,4|8,0:0|0:0,0:0:0:0:
255,192,92151,1,0,0:0:0:0:
310,149,92467,2,0,P|256:111|199:152,1,140,0|8,0:0|0:0,0:0:0:0:
192,288,93730,6,0,B|228:288|256:312|256:312|284:288|328:288,1,140,2|8,0:0|0:0,0:0:0:0:
390,288,94677,1,0,0:0:0:0:
460,288,94993,2,0,B|492:256|493:218|493:218|493:154,1,140,0|8,0:0|0:0,0:0:0:0:
393,58,96256,5,2,0:0:0:0:
252,58,96888,1,8,0:0:0:0:
131,128,97519,1,0,0:0:0:0:
81,177,97835,1,0,0:0:0:0:
32,228,98151,2,0,P|60:288|136:276,1,140,8|2,0:0|0:0,0:0:0:0:
256,232,99414,5,8,0:0:0:0:
388,284,100045,1,0,0:0:0:0:
436,236,100361,1,0,0:0:0:0:
485,186,100677,2,0,P|465:142|377:126,1,140,8|2,0:0|0:0,0:0:0:0:
323,163,101624,5,0,0:0:0:0:
256,176,101940,2,0,P|228:148|224:112,1,70,8|0,0:0|0:0,0:0:0:0:
240,52,102571,2,0,L|136:164,1,140,0|8,0:0|0:0,0:0:0:0:
243,253,103834,6,0,L|338:150,1,140,2|8,0:0|0:0,0:0:0:0:
408,150,104782,1,0,0:0:0:0:
464,104,105097,2,0,P|480:156|424:220,1,140,0|8,0:0|0:0,0:0:0:0:
340,324,106360,6,0,P|304:348|232:296,1,140,2|8,0:0|0:0,0:0:0:0:
183,250,107308,1,0,0:0:0:0:
116,276,107623,2,0,P|108:228|180:176,1,140,0|8,0:0|0:0,0:0:0:0:
313,175,108886,6,0,B|313:135|313:135|313:107|293:71|237:71,1,140,2|8,0:0|0:0,0:3:0:0:
178,71,109834,1,0,0:0:0:0:
108,72,110150,2,0,L|84:228,1,140,0|8,0:0|0:0,0:0:0:0:
156,332,111413,5,4,0:0:0:0:
224,340,111728,1,0,0:0:0:0:
292,328,112044,2,0,P|308:288|344:276,1,70,8|0,0:0|0:0,0:0:0:0:
400,272,112676,2,0,P|372:216|292:216,1,140,0|8,0:0|0:0,0:0:0:0:
197,309,113939,5,2,0:0:0:0:
128,324,114254,1,0,0:0:0:0:
60,308,114570,2,0,P|40:260|88:180,1,140,8|0,0:0|0:0,0:0:0:0:
148,196,115517,2,0,L|192:132|192:132,1,70,0|8,0:0|0:0,0:0:0:0:
296,56,116465,6,0,L|436:84,1,140,2|8,0:0|0:0,0:0:0:0:
482,132,117412,1,0,0:0:0:0:
484,200,117728,2,0,P|448:240|364:212,1,140,0|8,0:0|0:0,0:0:0:0:
256,140,118991,6,0,P|196:112|144:172,1,140,2|8,0:0|0:0,0:0:0:0:
146,225,119938,1,0,0:0:0:0:
192,288,120254,2,0,B|228:288|256:312|256:312|284:288|328:288,1,140,0|8,0:0|0:0,0:0:0:0:
451,239,121517,6,0,P|479:303|431:359,2,140,2|8|0,0:0|0:0|0:0,0:0:0:0:
401,189,123096,1,0,0:0:0:0:
351,139,123411,1,8,0:0:0:0:
210,139,124043,6,0,P|164:92|86:127,2,140,2|8|0,0:0|0:0|0:0,0:0:0:0:
224,207,125622,1,0,0:0:0:0:
236,276,125937,1,8,0:0:0:0:
368,324,126569,6,0,B|404:324|428:300|428:252|428:252|428:216,1,140,2|8,0:0|0:0,0:0:0:0:
428,148,127516,1,0,0:0:0:0:
428,76,127832,2,0,B|372:80|360:124|360:124|304:124,1,140,0|8,0:0|0:0,0:0:0:0:
166,120,129095,6,0,P|126:180|150:248,1,140,2|8,0:0|0:0,0:0:0:0:
193,290,130042,1,0,0:0:0:0:
188,364,130358,2,0,P|232:352|256:260,1,140,0|8,0:0|0:0,0:0:0:0:
160,170,141725,5,2,0:0:0:0:
299,170,142357,1,8,0:0:0:0:
295,246,142672,2,0,P|351:222|327:98,1,210,0|8,0:0|0:0,0:0:0:0:
188,80,144251,6,0,P|136:136|64:120,1,140,2|8,0:0|0:0,0:0:0:0:
96,60,145198,2,0,L|96:284,1,210,0|8,0:0|0:0,0:0:0:0:
212,348,146777,6,0,P|256:340|272:256,1,140,2|8,0:0|0:0,0:0:0:0:
256,188,147725,1,0,0:0:0:0:
206,138,148040,2,0,P|150:102|90:150,1,140,0|8,0:0|0:0,0:0:0:0:
152,264,149303,5,2,0:0:0:0:
252,360,149935,1,8,0:0:0:0:
320,356,150251,1,0,0:0:0:0:
388,348,150566,2,0,P|412:320|364:228,1,140,0|8,0:0|0:0,0:0:0:0:
256,168,151829,6,0,B|256:128|256:128|256:96|232:68|184:68,1,140,2|8,0:0|0:0,0:0:0:0:
49,68,153092,2,0,P|17:128|49:192,1,140,0|8,0:0|0:0,0:0:0:0:
94,238,154040,1,0,0:0:0:0:
143,287,154355,5,2,0:0:0:0:
256,204,154987,1,8,0:0:0:0:
324,224,155303,1,0,0:0:0:0:
324,300,155618,2,0,P|380:268|392:196,1,140,0|8,0:0|0:0,0:0:0:0:
328,72,156881,6,0,B|284:72|284:72|248:52|248:52|184:52,1,140,2|8,0:0|0:0,0:0:0:0:
122,52,157829,1,0,0:0:0:0:
52,52,158144,1,0,0:0:0:0:
88,188,158776,1,8,0:0:0:0:
184,292,159407,6,0,P|240:308|292:248,1,140,2|8,0:0|0:0,0:0:0:0:
291,183,160355,1,0,0:0:0:0:
332,124,160671,2,0,P|292:108|220:160,2,140,0|8|2,0:0|0:0|0:0,0:0:0:0:
430,222,162565,5,8,0:0:0:0:
330,321,163197,2,0,L|250:321,2,70,0|0|8,0:0|0:0|0:0,0:0:0:0:
470,321,164460,6,0,L|500:184,1,140,2|8,0:0|0:0,0:0:0:0:
450,134,165407,1,0,0:0:0:0:
400,183,165723,2,0,P|340:215|276:183,1,140,0|8,0:0|0:0,0:0:0:0:
229,137,166670,1,0,0:0:0:0:
179,87,166986,5,2,0:0:0:0:
84,192,167617,1,8,0:0:0:0:
212,252,168249,2,0,P|312:184|204:112,1,280,0|2,0:0|0:0,0:0:0:0:
79,106,170143,5,8,0:0:0:0:
79,246,170775,1,0,0:0:0:0:
120,304,171090,1,0,0:0:0:0:
164,360,171406,2,0,P|196:348|224:244,1,140,8|4,0:0|0:0,0:0:0:0:
121,148,172669,5,8,0:0:0:0:
21,247,173301,2,0,P|53:339|85:351,1,140,0|8,0:0|0:0,0:0:0:0:
225,351,174564,5,2,0:0:0:0:
323,252,175195,1,8,0:0:0:0:
323,111,175827,1,0,0:0:0:0:
224,12,176458,1,8,0:0:0:0:
185,70,176774,1,0,0:0:0:0:
135,119,177090,6,0,P|108:76|8:84,1,140,2|8,0:0|0:0,0:0:0:0:
25,210,178353,2,0,P|52:253|134:258,1,140,0|8,0:0|0:0,0:0:0:0:
196,228,179300,1,0,0:0:0:0:
256,192,179616,5,2,0:0:0:0:
354,93,180247,1,8,0:0:0:0:
453,192,180879,1,0,0:0:0:0:
354,290,181510,1,8,0:0:0:0:
300,332,181826,2,0,P|256:332|224:312,1,70,0|4,0:0|0:0,0:0:0:0:
183,270,182458,5,0,0:0:0:0:
133,220,182773,2,0,P|185:176|257:196,2,140,8|0|8,0:0|0:0|0:0,0:0:0:0:
133,290,184352,1,0,0:0:0:0:
186,337,184668,6,0,L|338:337,1,140,2|8,0:0|0:0,0:0:0:0:
375,287,185615,1,0,0:0:0:0:
375,216,185931,2,0,P|337:161|375:100,1,140,0|8,0:0|0:0,0:0:0:0:
496,160,187194,5,2,0:0:0:0:
396,60,187826,1,8,0:0:0:0:
260,88,188457,2,0,P|208:128|136:88,1,140,0|8,0:0|0:0,0:0:0:0:
196,56,189404,1,0,0:0:0:0:
196,56,189720,6,0,L|152:208,1,140,2|8,0:0|0:0,0:0:0:0:
160,332,190983,2,0,P|228:340|264:276,1,140,0|8,0:0|0:0,0:0:0:0:
356,180,192246,6,0,P|376:116|464:116,1,140,2|8,0:0|0:0,0:0:0:0:
490,152,193193,1,0,0:0:0:0:
488,224,193509,2,0,B|488:264|488:264|488:304|464:336|416:336,1,140,0|8,0:0|0:0,0:0:0:0:
290,334,194772,6,0,B|254:334|232:303|232:263|232:263|232:223,1,140,2|8,0:0|0:0,0:0:0:0:
230,151,195719,1,0,0:0:0:0:
279,101,196035,2,0,P|344:114|364:178,1,140,0|8,0:0|0:0,0:0:0:0:
348,316,197298,6,0,P|304:340|224:284,1,140,2|8,0:0|0:0,0:0:0:0:
348,316,198561,2,0,P|299:301|282:205,1,140,0|8,0:0|0:0,0:0:0:0:
415,222,199824,5,2,0:0:0:0:
512,321,200456,1,8,0:0:0:0:
415,222,201087,2,0,P|472:192|476:112,1,140,0|8,0:0|0:0,0:0:0:0:
356,52,202350,5,4,0:0:0:0:
288,44,202666,1,0,0:0:0:0:
220,56,202982,2,0,P|204:96|168:108,1,70,8|0,0:0|0:0,0:0:0:0:
112,110,203613,2,0,P|140:166|220:166,1,140,0|8,0:0|0:0,0:0:0:0:
315,75,204876,5,2,0:0:0:0:
384,60,205192,1,0,0:0:0:0:
452,76,205508,2,0,P|472:124|424:204,1,140,8|0,0:0|0:0,0:0:0:0:
364,188,206455,2,0,L|320:252|320:252,1,70,0|8,0:0|0:0,0:0:0:0:
216,328,207402,6,0,L|76:300,1,140,2|8,0:0|0:0,0:0:0:0:
30,252,208350,1,0,0:0:0:0:
28,184,208665,2,0,P|64:144|148:172,1,140,0|8,0:0|0:0,0:0:0:0:
256,244,209928,6,0,P|316:272|368:212,1,140,2|8,0:0|0:0,0:0:0:0:
366,159,210876,1,0,0:0:0:0:
320,104,211192,2,0,B|284:104|256:80|256:80|228:104|184:104,1,140,0|8,0:0|0:0,0:0:0:0:
61,145,212455,6,0,P|33:81|81:25,2,140,2|8|0,0:0|0:0|0:0,0:0:0:0:
111,195,214033,1,0,0:0:0:0:
161,245,214349,1,8,0:0:0:0:
302,245,214981,6,0,P|348:292|426:257,2,140,2|8|0,0:0|0:0|0:0,0:0:0:0:
288,177,216559,1,0,0:0:0:0:
276,108,216875,1,8,0:0:0:0:
144,60,217507,6,0,B|108:60|84:84|84:132|84:132|84:168,1,140,2|8,0:0|0:0,0:0:0:0:
84,236,218454,1,0,0:0:0:0:
84,308,218770,2,0,B|140:308|156:264|156:264|212:264,1,140,0|8,0:0|0:0,0:0:0:0:
346,264,220033,6,0,P|386:204|362:136,1,140,2|8,0:0|0:0,0:0:0:0:
319,94,220980,1,0,0:0:0:0:
324,20,221296,2,0,P|280:32|256:124,1,140,0|8,0:0|0:0,0:0:0:0:
256,244,232663,6,0,B|244:184|164:212|92:124|144:16|208:32|248:60|248:60|256:64|256:64|264:60|264:60|304:32|360:8|420:120|352:164|328:156|312:180,2,560,2|2|2,0:0|0:0|0:0,0:0:0:0:
156,343,238347,1,0,0:0:0:0:
57,244,238978,2,0,P|104:204|96:120,1,140,2|0,0:0|0:0,0:0:0:0:
256,192,240241,12,0,242136,0:0:0:0:
192,97,242767,6,0,P|234:81|301:141,1,140,4|8,0:0|0:0,0:0:0:0:
257,192,243714,1,0,0:0:0:0:
202,235,244030,2,0,P|256:273|313:232,1,140,0|8,0:0|0:0,0:0:0:0:
320,96,245293,6,0,B|284:96|256:72|256:72|228:96|184:96,1,140,2|8,0:0|0:0,0:0:0:0:
122,96,246240,1,0,0:0:0:0:
52,96,246556,2,0,B|20:128|19:166|19:166|19:230,1,140,0|8,0:0|0:0,0:0:0:0:
119,326,247819,5,2,0:0:0:0:
260,326,248451,1,8,0:0:0:0:
381,256,249082,1,0,0:0:0:0:
431,207,249398,1,0,0:0:0:0:
480,156,249714,2,0,P|452:96|376:108,1,140,8|2,0:0|0:0,0:0:0:0:
256,152,250977,5,8,0:0:0:0:
124,100,251608,1,0,0:0:0:0:
76,148,251924,1,0,0:0:0:0:
27,198,252240,2,0,P|47:242|135:258,1,140,8|2,0:0|0:0,0:0:0:0:
189,221,253187,5,0,0:0:0:0:
256,208,253503,2,0,P|284:236|288:272,1,70,8|0,0:0|0:0,0:0:0:0:
272,332,254134,2,0,L|376:220,1,140,0|8,0:0|0:0,0:0:0:0:
269,131,255397,6,0,L|174:234,1,140,2|8,0:0|0:0,0:0:0:0:
104,234,256345,1,0,0:0:0:0:
48,280,256660,2,0,P|32:228|88:164,1,140,0|8,0:0|0:0,0:0:0:0:
172,60,257923,6,0,P|208:36|280:88,1,140,2|8,0:0|0:0,0:0:0:0:
329,134,258871,1,0,0:0:0:0:
396,108,259186,2,0,P|404:156|328:204,1,140,0|8,0:0|0:0,0:0:0:0:
199,209,260449,6,0,B|199:249|199:249|199:277|219:313|275:313,1,140,2|8,0:0|0:0,0:3:0:0:
334,313,261397,1,0,0:0:0:0:
404,312,261713,2,0,L|428:156,1,140,0|8,0:0|0:0,0:0:0:0:
