osu file format v9

[General]
AudioFilename: Nuclear Fusion.mp3
AudioLeadIn: 1000
PreviewTime: 79177
Countdown: 0
SampleSet: Soft
StackLeniency: 0.6
Mode: 0
LetterboxInBreaks: 0
EpilepsyWarning: 1

[Editor]
Bookmarks: 7453,12970,24004,35039,57108,68142,90211,112280,126073,137108,148142,159177,170211,192280
DistanceSpacing: 1
BeatDivisor: 4
GridSize: 8

[Metadata]
Title:Nuclear Fusion
Artist:Nudarai
Creator:Sandpig
Version:Tritium
Source:Touhou
Tags:ZUN Solar Sect of Mystic Wisdom Okuu Utsuho Reiuji Subterranean Animism Radiant Symphony iori Project Shrine Maiden Selee lepidopodus

[Difficulty]
HPDrainRate:6
CircleSize:4
OverallDifficulty:6
ApproachRate:8
SliderMultiplier:1.8
SliderTickRate:0.5

[Events]
//Background and Video events
0,0,"bg.jpg" F,0,0,0,0
//Break Periods
2,7652,12220
2,123342,125323
2,159377,163944
//Storyboard Layer 0 (Background)
//Storyboard Layer 1 (Fail)
//Storyboard Layer 2 (Pass)
//Storyboard Layer 3 (Foreground)
//Storyboard Sound Samples
//Background Colour Transformations
3,100,0,0,0

[TimingPoints]
1936,344.827586206897,4,2,1,61,1,0
1936,-133.333333333333,4,2,1,61,0,0
7625,-100,4,2,1,61,0,0
12970,-100,4,2,2,46,0,0
26763,-100,4,2,1,0,0,0
26849,-100,4,2,1,48,0,0
29522,-100,4,2,1,0,0,0
29608,-100,4,2,1,47,0,0
32280,-100,4,2,1,0,0,0
32367,-100,4,2,1,54,0,0
33660,-100,4,1,1,59,0,0
35039,-100,4,1,1,49,0,1
37798,-100,4,1,1,44,0,0
40556,-100,4,1,1,49,0,1
43315,-100,4,1,1,44,0,0
46073,-100,4,1,1,49,0,1
48832,-100,4,1,1,44,0,0
51591,-100,4,1,1,49,0,1
54349,-100,4,1,1,44,0,0
55729,-100,4,1,1,49,0,0
56418,-100,4,1,1,54,0,0
57108,-133.333333333333,4,2,2,46,0,0
62625,-133.333333333333,4,2,2,53,0,0
65384,-133.333333333333,4,2,2,61,0,0
66763,-100,4,2,1,59,0,0
68142,-133.333333333333,4,2,1,77,0,1
68142,-133.333333333333,4,2,1,77,0,0
68229,-133.333333333333,4,2,1,77,0,0
72280,-100,4,2,1,77,0,0
73660,-133.333333333333,4,2,1,77,0,0
78487,-133.333333333333,4,2,1,82,0,0
79177,-133.333333333333,4,2,2,51,0,0
83315,-100,4,2,2,51,0,0
87453,-100,4,2,2,59,0,0
88832,-100,4,2,2,63,0,0
89522,-100,4,2,2,69,0,0
90211,-100,4,1,1,51,0,1
109522,-100,4,1,1,60,0,0
112280,-133.333333333333,4,1,2,48,0,1
114953,-133.333333333333,4,1,2,48,0,0
115039,-100,4,1,2,48,0,1
117711,-100,4,1,2,48,0,0
117798,-100,4,1,2,48,0,1
120470,-100,4,1,2,48,0,0
120556,-100,4,1,2,48,0,1
122970,-100,4,1,2,56,0,1
123142,-100,4,1,2,56,0,0
126073,-100,4,1,1,48,0,1
126160,-100,4,1,1,48,0,0
128832,-100,4,2,1,73,0,0
131591,-100,4,1,1,49,0,0
134349,-100,4,2,1,73,0,0
137108,-100,4,1,1,54,0,0
139867,-100,4,1,1,48,0,0
142625,-100,4,1,1,54,0,0
145384,-100,4,1,1,48,0,0
146073,-100,4,1,1,54,0,0
148142,-133.333333333333,4,2,1,54,0,0
153660,-100,4,2,1,54,0,0
156418,-133.333333333333,4,2,1,54,0,0
159177,-133.333333333333,4,2,2,54,0,0
164694,-133.333333333333,4,2,2,0,0,0
167798,-133.333333333333,4,1,1,43,0,0
168832,-100,4,1,1,57,0,0
170211,-100,4,1,1,51,0,1
189522,-100,4,1,1,51,0,1
190901,-100,4,1,1,55,0,1
191936,-100,4,1,1,61,0,1
195039,-100,4,1,1,46,0,0

[Colours]
Combo1 : 84,126,237
Combo2 : 238,222,26

[HitObjects]
152,80,1936,2,0,B|80:80,1,67.4999979883433,2|0
88,144,2280,1,0
152,144,2453,2,0,B|224:144,1,67.4999979883433,2|0
216,208,2798,1,0
152,208,2970,2,0,B|80:208,2,67.4999979883433,2|0|0
152,272,3487,2,0,B|224:272,2,67.4999979883433,2|0|0
88,272,4004,1,2
424,272,4349,1,0
312,200,4694,6,0,B|312:120,1,67.4999979883433,2|0
248,128,5038,1,0
248,192,5211,2,0,B|248:265,1,67.4999979883433,2|0
184,256,5556,1,0
184,192,5728,2,0,B|184:112,2,67.4999979883433,2|0|0
120,192,6245,2,0,B|120:272,2,67.4999979883433,2|0|0
120,120,6763,2,0,B|120:80,1,33.7499989941716,2|0
256,120,7108,2,0,B|256:72,4,33.7499989941716,0|0|0|0|4
400,112,12970,5,4
312,112,13142,1,0
312,200,13315,1,2
312,112,13487,1,0
224,112,13660,6,0,B|128:112,1,90
192,176,14004,2,0,B|280:176,2,90,10|0|0
256,240,14522,2,0,B|368:240,2,90,0|2|0
312,304,15039,2,0,B|408:304,2,90,8|0|10
224,304,15556,1,2
136,304,15729,5,4
136,216,15901,1,0
48,216,16073,1,2
136,216,16246,1,0
224,216,16418,6,0,B|224:120,1,90
288,64,16763,2,0,B|288:168,2,90,10|0|0
352,128,17280,2,0,B|352:240,2,90,0|2|0
416,192,17798,2,0,B|416:296,2,90,8|8|10
416,104,18315,1,2
328,104,18487,5,4
256,160,18660,1,0
328,216,18832,1,2
256,272,19004,1,8
176,216,19177,6,0,B|102:142,1,90
176,88,19522,1,10
256,48,19694,2,0,B|329:121,1,90
256,176,20039,1,8
192,248,20211,2,0,B|256:312,1,90,2|0
336,264,20556,1,8
392,192,20729,1,0
336,264,20901,2,0,B|398:326,1,90,10|2
256,192,21246,5,4
192,128,21418,1,0
128,192,21591,1,2
64,128,21763,1,8
128,192,21936,6,0,B|218:282,1,90
256,320,22280,1,10
320,255,22453,2,0,B|384:192,1,90
336,112,22798,1,8
256,72,22970,6,0,B|256:176,1,90,2|0
192,224,23315,1,8
256,288,23487,1,0
320,224,23660,2,0,B|320:128,2,90,10|0|4
256,192,24091,12,0,26763
256,192,26849,12,0,29522
256,192,29608,12,0,32280
256,192,32367,12,2,33660
256,72,34004,5,2
256,152,34349,6,0,B|160:152,1,90,2|2
256,232,34694,2,0,B|344:232,1,90,2|2
240,312,35039,6,0,B|56:312,1,180,12|8
256,192,35901,1,8
80,56,36418,2,0,B|208:184,1,180,12|0
304,183,36936,2,0,B|432:56,1,180,8|0
352,32,37453,2,0,B|264:32,1,90,8|0
136,107,37798,6,0,B|104:192,1,90,0|0
168,312,38142,1,10
80,256,38315,1,0
176,192,38487,2,0,B|280:192,1,90
384,256,38832,2,0,B|272:256,1,90,10|8
296,128,39177,6,0,B|384:128,1,90,0|0
384,256,39522,2,0,B|304:304,1,90,10|0
208,304,39867,1,10
256,224,40039,2,8,B|256:168,2,45,0|0|10
304,304,40384,1,8
400,304,40556,6,0,B|400:120,1,180,12|8
256,192,41418,1,8
56,336,41936,2,0,B|208:240,1,180,12|0
208,144,42453,2,0,B|56:48,1,180,8|0
24,112,42970,2,0,B|24:216,1,90,8|0
144,320,43315,6,0,B|144:216,1,90,0|0
144,96,43660,1,10
208,208,43832,1,0
272,184,44004,2,0,B|272:64,1,90
336,216,44349,2,0,B|336:312,1,90,10|8
208,304,44694,6,0,B|208:208,1,90,2|0
272,96,45039,2,0,B|336:184,1,90,10|8
392,272,45384,2,0,B|392:328,2,45,2|0|2
448,168,45729,1,10
448,168,45901,1,10
368,72,46073,6,0,B|176:72,1,180,12|8
256,192,46936,1,8
64,232,47453,2,0,B|208:344,1,180,12|0
306,343,47970,2,0,B|448:232,1,180,8|0
448,144,48487,2,0,B|448:48,1,90,8|0
352,136,48832,6,0,B|352:248,1,90,0|0
304,312,49177,1,10
208,312,49349,1,0
160,224,49522,2,0,B|160:104,1,90,0|0
256,80,49867,1,10
256,192,50039,1,8
304,312,50211,6,0,B|336:224,1,90,0|0
208,312,50556,2,0,B|176:224,1,90,10|0
344,328,50901,2,0,B|416:272,1,90,2|0
168,328,51246,2,0,B|96:272,1,90,10|8
128,192,51591,5,12
384,192,51936,1,8
56,72,52453,1,8
456,72,52970,2,0,B|272:72,1,180,12|0
256,192,53487,2,0,B|440:192,1,180,8|0
392,304,54004,2,0,B|392:352,2,45,8|0|0
256,304,54349,5,0
160,248,54522,1,0
256,192,54694,2,0,B|256:120,2,45,10|0|0
352,248,55039,5,0
256,192,55211,1,0
256,304,55384,2,0,B|256:352,2,45,10|0|0
256,192,55729,6,0,B|256:96,1,90,2|0
160,144,56073,1,10
64,192,56246,1,0
160,240,56418,5,2
208,328,56591,1,2
304,328,56763,1,10
352,240,56936,1,10
256,104,57108,6,0,B|176:104|120:176,1,134.999995976687,14|2
375,157,57970,1,2
375,157,58142,2,0,B|336:104|256:104,1,134.999995976687,0|10
72,192,59004,2,0,B|72:272,1,67.4999979883433,2|0
184,336,59522,2,0,B|256:336,1,67.4999979883433,2|0
317,284,59867,6,0,B|231:254|232:192,1,134.999995976687,10|2
317,99,60729,1,2
317,99,60901,2,0,B|231:129|232:192,1,134.999995976687,0|10
376,336,61763,2,0,B|448:336,1,67.4999979883433,2|0
472,208,62280,2,0,B|472:136,1,67.4999979883433,2|0
400,136,62625,5,14
304,136,62798,1,8
176,136,62970,1,8
176,136,63487,1,2
136,192,63660,2,0,B|104:264,1,67.4999979883433
176,256,64004,2,0,B|264:248,1,67.4999979883433,8|0
224,184,64349,2,0,B|256:112,1,67.4999979883433,2|0
304,168,64694,2,0,B|376:208,1,67.4999979883433,8|0
312,248,65039,2,0,B|344:336,1,67.4999979883433,10|2
264,328,65384,5,14
168,328,65556,1,8
72,264,65729,1,10
256,192,66246,1,2
176,192,66418,2,0,B|176:112,1,67.4999979883433
256,80,66763,6,0,B|320:80|320:80|360:128|360:128|432:128,1,180,2|0
312,200,67453,2,0,B|280:160|280:160|216:160|216:160|168:112,1,180,2|0
128,208,68142,6,0,B|136:216|136:216|120:216|120:216|128:224|128:224|128:344,1,134.999995976687,6|0
128,208,68832,2,0,B|138:210|138:210|125:218|125:218|136:221|136:221|196:325,1,134.999995976687,2|0
128,208,69522,2,0,B|138:205|138:205|130:218|130:218|141:216|141:216|245:276,1,134.999995976687,2|0
128,208,70211,2,0,B|136:200|136:200|136:216|136:216|144:208|144:208|264:208,1,134.999995976687,2|0
408,192,70901,6,0,B|384:248|384:248|320:296,1,134.999995976687,10|0
408,192,71591,1,2
408,192,71763,2,0,B|384:136|384:136|320:88,1,134.999995976687,0|0
232,88,72280,2,0,B|176:88|176:88|128:120|128:120|56:120,1,180,10|0
112,192,72798,1,0
61,264,72970,2,0,B|128:264|128:264|176:296|176:296|232:296,1,180,10|0
280,224,73487,1,0
232,144,73660,6,0,B|224:152|224:152|224:136|224:136|216:144|216:144|96:144,1,134.999995976687,6|0
232,144,74350,2,0,B|230:154|230:154|222:141|222:141|219:152|219:152|115:212,1,134.999995976687,2|0
232,144,75040,2,0,B|235:154|235:154|222:146|222:146|224:157|224:157|164:261,1,134.999995976687,2|0
232,144,75729,2,0,B|240:152|240:152|224:152|224:152|232:160|232:160|232:280,1,134.999995976687,2|0
304,304,76246,5,0
368,248,76418,2,0,B|368:176|368:176|408:120,1,134.999995976687,14|0
336,80,76936,2,0,B|296:128|296:128|208:128,1,134.999995976687
224,208,77453,2,0,B|296:208,1,67.4999979883433,10|0
296,288,77798,5,10
184,288,78142,1,0
152,178,78487,1,10
224,88,78832,1,8
336,160,79177,6,0,B|200:224,1,134.999995976687,12|2
216,296,79694,2,0,B|338:238,1,134.999995976687,0|0
408,200,80211,2,0,B|408:280,1,67.4999979883433,2|0
384,336,80556,6,0,B|256:272,1,134.999995976687,8|2
264,192,81073,2,0,B|384:252,1,134.999995976687,0|0
456,288,81591,2,0,B|488:224,1,67.4999979883433,2|0
488,144,81936,5,12
352,232,82280,1,2
216,144,82625,1,8
216,64,82798,1,2
216,224,83142,5,2
256,320,83315,2,0,B|320:288|320:288|320:192,1,135,8|0
320,192,83660,2,0,B|320:104,1,90,10|0
224,56,84004,2,0,B|224:168,1,90,8|0
128,96,84349,2,0,B|128:192,1,90,10|2
40,192,84694,6,0,B|160:344,1,180,12|0
256,360,85211,2,0,B|144:218,1,180,2|0
120,112,85729,2,0,B|216:64,1,90,10|0
304,88,86073,6,0,B|200:240,1,180,10|0
208,344,86591,2,0,B|309:195,1,180,2|0
408,144,87108,2,0,B|488:192,1,90,10|0
408,264,87453,5,12
104,264,87970,1,2
408,264,88487,2,0,B|408:168,1,90,10|0
304,192,88832,5,14
176,192,89177,1,8
240,296,89522,1,14
176,192,89867,1,8
240,88,90211,6,0,B|344:88,2,90,6|0|8
152,88,90729,2,0,B|88:160|88:160|88:272,1,180
152,312,91246,1,8
216,248,91418,1,0
280,312,91591,6,0,B|336:240|336:240|336:144,1,180,2|8
256,112,92108,2,0,B|216:184|216:184|96:184,1,180,0|0
72,256,92625,2,0,B|24:256,2,45,8|0|0
120,336,92970,6,0,B|208:336,1,90,6|0
208,248,93315,2,0,B|288:184,1,90,8|0
360,232,93660,2,0,B|392:128,1,90,8|8
208,120,94177,1,8
128,160,94349,2,0,B|128:248|128:248|64:328,1,180,2|8
144,376,94867,2,0,B|200:296,1,90,0|2
256,232,95211,1,0
320,296,95384,2,0,B|371:369,1,90,8|8
441,319,95729,6,0,B|384:248|384:248|384:160,1,180,6|8
304,200,96246,2,0,B|304:136|304:136|200:48,1,180,0|0
152,128,96763,1,8
88,64,96936,1,0
152,128,97108,6,0,B|152:312,1,180,2|8
64,336,97625,1,0
248,336,97970,1,0
336,336,98142,2,0,B|368:296|368:296|368:256,1,90,8|0
448,288,98487,6,0,B|448:200|448:200|384:112,1,180,14|0
312,96,99004,2,2,B|264:152|264:152|144:152,1,180,8|0
120,232,99522,2,0,B|208:232,1,90,10|0
256,312,99867,5,10
256,72,100211,2,0,B|152:72,1,90,0|2
128,152,100556,1,0
168,232,100729,1,2
168,232,100815,1,0
168,232,100901,2,0,B|256:232,1,90,8|8
352,232,101246,6,0,B|352:328,1,90,6|0
256,352,101591,1,8
160,320,101763,2,2,B|160:248|160:248|104:144,1,180,0|2
136,64,102280,1,8
192,136,102453,1,0
240,64,102625,2,0,B|304:136,1,90,2|0
400,128,102970,1,8
400,224,103142,6,2,B|344:224|344:224|248:312,1,180,0|2
160,296,103660,2,0,B|240:224,1,90,8|0
152,192,104004,5,14
344,80,104349,1,8
344,304,104694,1,2
344,304,104867,1,8
344,80,105211,1,8
256,80,105384,2,0,B|160:80,1,90,2|0
88,128,105729,2,0,B|152:192,1,90,10|0
256,80,106073,1,2
224,192,106246,1,0
192,296,106418,2,0,B|296:296,1,90,10|10
312,208,106763,6,0,B|384:208|384:208|472:96,1,180,6|8
376,64,107280,2,2,B|288:64|288:64|192:112,1,180,0|2
136,168,107798,1,8
64,104,107970,1,0
136,168,108142,6,0,B|200:208|200:208|328:208,1,180,2|8
384,160,108660,2,2,B|384:232|384:232|312:328,1,180,0|2
256,256,109177,1,8
256,168,109349,1,0
256,256,109522,6,2,B|216:336,1,90,12|0
200,160,110039,2,0,B|151:85,1,90,10|0
311,160,110556,2,2,B|400:154,1,90,8|0
368,240,110901,5,14
144,240,111246,1,8
256,120,111591,5,14
256,224,111763,1,0
256,120,111936,1,10
256,224,112108,1,10
328,304,112280,6,0,B|400:272|408:176,1,134.999995976687,6|0
368,80,112798,2,0,B|312:128|304:208,1,134.999995976687,2|0
206,196,113315,2,0,B|200:128|144:80,1,134.999995976687,2|0
107,199,113832,2,0,B|112:272|184:304,1,134.999995976687,2|0
256,296,114349,6,0,B|256:200,1,67.4999979883433,6|0
256,160,114694,2,0,B|256:64,1,67.4999979883433,6|0
336,72,115039,6,0,B|400:144|400:144|392:256,1,180,6|0
384,320,115556,2,0,B|304:272|304:272|304:176,1,180,2|0
206,185,116073,2,0,B|206:272|206:272|127:320,1,180,2|0
116,227,116591,2,0,B|111:144|111:144|176:72,1,180,2|0
256,80,117108,5,6
256,152,117280,1,2
256,224,117453,2,0,B|256:320,1,90,6|0
352,336,117798,6,0,B|464:336,2,90,6|0|0
328,248,118315,2,0,B|440:248,2,90,2|0|0
352,160,118832,2,0,B|464:160,2,90,2|0|0
328,72,119349,2,0,B|440:72,2,90,2|0|0
192,72,119867,2,2,B|96:72,1,90,6|0
72,160,120211,2,2,B|168:160,1,90,2|0
172,240,120556,6,0,B|96:284,2,90,6|0|0
223,282,121073,2,0,B|193:364,2,90,2|0|0
288,282,121591,2,0,B|318:364,2,90,2|0|0
339,240,122108,2,0,B|415:284,2,90,2|0|0
256,192,122625,2,6,B|256:80,3,90
96,104,126073,5,2
96,104,126418,1,2
144,280,126763,1,0
144,280,126935,1,2
192,104,127280,1,0
192,104,127367,1,0
192,104,127452,1,6
256,280,127798,2,2,B|192:192,1,90,0|0
320,104,128315,2,0,B|272:192,1,90,0|2
384,280,128832,6,0,B|440:232|440:104,1,180,12|2
352,80,129349,2,0,B|240:80,2,90,0|8|0
320,168,129867,2,0,B|296:216|296:216|240:216,1,90,2|0
256,216,130211,2,0,B|232:264|232:264|160:264,1,90,8|0
192,264,130556,1,2
248,336,130729,1,8
248,336,130815,1,0
248,336,130901,2,0,B|344:336,1,90,0|0
416,296,131246,1,10
416,208,131418,1,0
344,144,131591,5,2
168,112,131936,1,0
168,112,132108,1,2
344,80,132453,1,2
344,80,132539,1,0
344,80,132625,2,0,B|248:80,1,90,0|0
176,152,132970,2,2,B|280:152,1,90,4|0
384,216,133315,2,2,B|296:216,1,90,2|0
256,216,133573,1,0
218,216,133660,2,2,B|128:216,1,90,0|0
176,288,134004,2,0,B|272:288,1,90,2|0
328,360,134349,6,0,B|416:344|416:344|488:272,1,180,12|2
400,224,134867,1,0
400,128,135039,2,0,B|400:16,2,90,8|0|2
312,176,135556,1,0
312,176,135642,1,0
312,176,135729,2,0,B|304:224|304:224|240:256,1,90,8|0
208,168,136073,2,0,B|208:128|208:128|176:88,1,90,2|8
120,168,136418,1,0
64,88,136591,2,0,B|16:88,2,45,0|0|10
120,168,136936,1,0
120,264,137108,5,4
392,264,137453,2,0,B|296:264,1,90
120,264,137970,2,0,B|224:264,1,90
392,264,138487,5,4
120,192,139004,1,0
392,120,139522,1,0
256,48,139867,5,0
168,48,140039,1,0
168,136,140211,2,0,B|168:224,1,90,10|0
256,256,140556,1,0
344,224,140729,1,0
344,224,140815,1,0
344,224,140901,2,0,B|344:112,1,90,10|0
256,104,141246,6,0,B|152:144,1,90,0|0
216,216,141591,2,0,B|152:304,1,90,10|0
256,288,141936,2,0,B|256:376,2,90,0|2|8
256,200,142453,1,2
344,200,142625,5,4
160,200,142970,2,0,B|48:200,1,90
344,200,143487,2,0,B|432:200,1,90
256,48,144004,6,0,B|256:144,1,90,4|0
117,288,144522,2,0,B|200:240,1,90,0|0
394,288,145039,2,0,B|310:240,1,90,0|0
320,152,145384,5,0
384,88,145556,1,0
320,152,145729,1,10
256,88,145901,1,0
192,152,146073,5,0
256,88,146246,1,0
192,152,146418,1,10
256,216,146591,1,0
256,304,146763,5,0
256,192,146849,12,0,148142
256,192,148315,5,0
256,120,148487,2,0,B|328:120,1,67.4999979883433,2|0
328,192,148832,2,0,B|328:272,1,67.4999979883433
256,264,149177,2,0,B|176:264,1,67.4999979883433,2|0
184,192,149522,6,0,B|184:104,1,67.4999979883433
112,152,149867,2,0,B|40:152,1,67.4999979883433,2|0
72,224,150211,2,0,B|72:296,1,67.4999979883433
144,264,150556,2,0,B|216:264,1,67.4999979883433,2|0
288,264,150901,6,0,B|350:201,1,67.4999979883433
288,264,151246,2,0,B|338:314,1,67.4999979883433,2|0
288,264,151591,2,0,B|225:326,1,67.4999979883433
288,264,151936,2,0,B|231:207,1,67.4999979883433,2|0
192,160,152280,6,0,B|239:112,1,67.4999979883433,0|0
192,65,152625,2,0,B|239:112,1,67.4999979883433,2|0
287,65,152970,2,0,B|239:112,1,67.4999979883433,0|0
287,160,153315,2,0,B|239:112,1,67.4999979883433,2|0
160,64,153660,6,0,B|96:120|96:120|96:232,1,180,0|2
136,296,154177,1,0
136,296,154349,2,0,B|216:240|216:240|216:144,1,180,0|2
296,157,154867,1,0
296,157,155039,2,0,B|296:240|296:240|376:296,1,180,0|2
416,214,155556,1,0
416,214,155729,2,0,B|416:120|416:120|352:64,1,180,0|2
256,96,156246,1,0
256,192,156418,6,0,B|245:189|245:189|253:202|253:202|242:200|242:200|159:248,1,134.999995976687,0|2
256,192,157108,2,0,B|245:196|245:196|260:202|260:202|250:207|250:207|217:297,1,134.999995976687,0|2
256,192,157798,2,0,B|251:202|251:202|266:196|266:196|261:207|261:207|294:297,1,134.999995976687,0|2
256,192,158487,2,0,B|258:202|258:202|266:189|266:189|269:200|269:200|352:248,1,134.999995976687,0|2
256,192,159177,5,4
256,192,164694,12,0,167453
256,192,167539,12,2,168832
256,48,169177,5,2
256,152,169522,5,2
200,200,169694,1,2
256,248,169867,1,2
312,296,170039,1,2
256,344,170211,6,0,B|168:344,1,90,6|0
96,288,170556,1,8
168,232,170729,2,2,B|248:232|248:232|304:128,1,180,0|2
392,104,171246,1,8
352,200,171418,1,0
464,200,171591,6,0,B|432:280|432:280|336:336,1,180,2|8
256,280,172108,2,2,B|336:232|336:232|336:128,1,180,0|2
256,72,172625,2,0,B|256:144,2,45,8|0|0
152,48,172970,6,0,B|56:48,1,90,6|0
104,152,173315,2,2,B|104:248,1,90,8|0
208,200,173660,1,2
312,200,173832,1,10
104,328,174177,1,2
104,328,174349,2,0,B|152:328|152:328|192:248,1,135,2|0
192,216,174694,2,0,B|192:96,1,90,10|8
288,80,175039,1,2
368,152,175211,1,0
448,80,175384,1,10
368,152,175556,1,10
288,80,175729,6,0,B|224:152|224:152|224:264,1,180,6|8
256,336,176246,2,2,B|312:264|312:264|312:168,1,180,0|2
224,120,176763,1,8
128,168,176936,1,0
32,120,177108,1,2
128,168,177280,1,0
128,168,177367,1,0
128,168,177453,2,2,B|128:256,1,90,8|2
336,312,177970,1,2
432,256,178142,2,2,B|432:160,1,90,8|0
368,80,178487,6,0,B|264:80|264:80|208:144,1,180,14|0
136,64,179004,2,2,B|88:120|88:120|88:232,1,180,8|0
168,296,179522,2,0,B|168:208,1,90,10|0
240,128,179867,1,10
312,208,180039,2,0,B|312:256,2,45,0|0|2
384,128,180384,2,0,B|384:80,2,45,0|0|10
456,208,180729,1,0
456,208,180901,2,0,B|456:312,1,90,10|10
344,296,181246,6,0,B|304:328|304:328|248:328,1,90,6|0
176,272,181591,1,8
264,216,181763,2,2,B|320:176|320:176|368:56,1,180,0|2
256,72,182280,1,8
152,72,182453,1,0
152,72,182625,2,0,B|200:168,2,90,2|0|8
80,152,183142,2,2,B|120:232|120:232|200:272,1,180,0|2
304,272,183660,2,0,B|392:224,1,90,8|0
256,192,184004,5,14
256,120,184349,1,10
256,48,184694,1,2
256,48,184867,1,10
104,200,185211,5,10
104,200,185384,2,0,B|104:248|104:248|144:304,1,90,2|0
176,152,185729,2,0,B|176:200|176:200|152:240,1,90,10|8
208,328,186073,2,2,B|208:288|208:288|248:240,2,90,0|0|10
312,352,186591,1,8
416,328,186763,6,0,B|416:240|416:240|344:176,1,180,6|8
440,152,187280,2,2,B|376:96|376:96|272:96,1,180,0|2
184,96,187798,1,8
232,184,187970,1,0
136,184,188142,2,0,B|136:272|136:272|200:336,1,180,2|8
232,240,188660,2,2,B|296:312|296:312|400:312,1,180,0|2
456,248,189177,1,8
456,248,189349,1,0
376,192,189522,6,2,B|376:88,1,90,12|8
136,192,190039,2,0,B|136:311,1,90,2|0
376,192,190556,2,2,B|376:88,1,90,8|8
256,192,190901,5,14
200,112,191073,2,0,B|176:72,2,45,0|0|10
312,112,191418,2,0,B|336:72,2,45,8|0|2
256,192,191763,5,0
256,288,191936,2,0,B|256:336,4,45,10|0|10|0|0
256,192,192367,12,4,195039
