osu file format v10

[General]
AudioFilename: MMDWinter Alice.mp3
AudioLeadIn: 0
PreviewTime: 76248
Countdown: 1
SampleSet: Soft
StackLeniency: 0.7
Mode: 0
LetterboxInBreaks: 1

[Editor]
DistanceSpacing: 0.8
BeatDivisor: 4
GridSize: 8

[Metadata]
Title:Winter Alice
TitleUnicode:Winter Alice
Artist:Nowaru
ArtistUnicode:Nowaru
Creator:loveFantasy
Version:Hard
Source:
Tags:doriko vocaloid hatsune miku mikumikudance mmd nico douga ia
BeatmapID:185879
BeatmapSetID:62726

[Difficulty]
HPDrainRate:6
CircleSize:5
OverallDifficulty:6
ApproachRate:8
SliderMultiplier:1.4
SliderTickRate:1

[Events]
//Background and Video events
0,0,"bg.jpg"
//Break Periods
2,106448,119816
2,166448,179134
2,224630,237771
//Storyboard Layer 0 (Background)
//Storyboard Layer 1 (Fail)
//Storyboard Layer 2 (Pass)
//Storyboard Layer 3 (Foreground)
//Storyboard Sound Samples
//Background Colour Transformations
3,100,0,0,0

[TimingPoints]
794,454.545454545455,4,2,1,30,1,0
1703,-133.333333333333,4,2,1,30,0,0
2612,-133.333333333333,4,2,1,40,0,0
15339,-133.333333333333,4,1,1,40,0,0
15794,-133.333333333333,4,1,1,46,0,0
16248,-133.333333333333,4,1,1,53,0,0
16703,-133.333333333333,4,1,1,60,0,0
17157,-100,4,1,1,55,0,0
18180,-100,4,1,1,70,0,0
18294,-100,4,1,1,55,0,0
21816,-100,4,1,1,70,0,0
21930,-100,4,1,1,55,0,0
25453,-100,4,1,1,70,0,0
25566,-100,4,1,1,55,0,0
29884,-100,4,1,1,65,0,0
30112,-100,4,1,1,55,0,0
31362,-100,4,1,1,50,0,0
31475,-100,4,1,1,45,0,0
31703,-133.333333333333,4,2,1,40,0,0
45339,-133.333333333333,4,1,1,40,0,0
45794,-133.333333333333,4,1,1,20,0,0
45907,-133.333333333333,4,1,1,40,0,0
46248,-100,4,1,1,50,0,0
60794,-200,4,1,2,50,0,0
63521,-133.333333333333,4,1,2,50,0,0
63975,-133.333333333333,4,2,1,50,0,0
64203,-133.333333333333,4,1,2,50,0,0
65339,-200,4,1,2,50,0,0
67157,-133.333333333333,4,1,1,50,0,0
67612,-133.333333333333,4,2,1,50,0,0
68066,-133.333333333333,4,1,1,50,0,0
68748,-133.333333333333,4,1,2,50,0,0
69430,-133.333333333333,4,1,1,50,0,0
70566,-133.333333333333,4,1,2,50,0,0
71248,-133.333333333333,4,1,1,50,0,0
71703,-133.333333333333,4,1,1,60,0,0
74884,-66.6666666666667,4,2,0,70,0,0
75339,-133.333333333333,4,1,1,60,0,0
76248,-133.333333333333,4,2,1,60,0,0
77157,-80,4,1,1,75,0,1
78748,-80,4,1,1,25,0,1
78975,-80,4,1,1,75,0,1
93294,-80,4,1,1,25,0,1
93521,-80,4,1,1,75,0,1
106248,-80,4,2,1,60,0,0
120566,-80,4,1,1,50,0,0
120794,-200,4,1,2,50,0,0
124430,-133.333333333333,4,1,2,50,0,0
125339,-200,4,1,2,50,0,0
127157,-133.333333333333,4,1,2,50,0,0
127612,-133.333333333333,4,2,1,50,0,0
127839,-133.333333333333,4,1,2,50,0,0
128521,-133.333333333333,4,1,1,50,0,0
129203,-133.333333333333,4,2,1,50,0,0
129430,-133.333333333333,4,1,1,50,0,0
130339,-133.333333333333,4,1,1,50,0,0
131021,-133.333333333333,4,2,1,50,0,0
131248,-133.333333333333,4,1,1,50,0,0
136248,-133.333333333333,4,2,1,60,0,0
137157,-80,4,1,1,75,0,1
166248,-80,4,1,2,50,0,0
179884,-100,4,1,1,35,0,0
181703,-100,4,1,1,55,0,0
182044,-100,4,1,1,35,0,0
183521,-100,4,1,1,55,0,0
183862,-100,4,1,1,35,0,0
184771,-100,4,1,1,40,0,0
185112,-100,4,1,1,45,0,0
185339,-100,4,1,1,50,0,0
185680,-100,4,1,1,55,0,0
186248,-100,4,2,0,60,0,0
187157,-100,4,1,1,40,0,0
187384,-100,4,1,1,45,0,0
187612,-100,4,1,1,50,0,0
187839,-100,4,1,1,55,0,0
191703,-100,4,1,1,45,0,0
191930,-100,4,1,1,35,0,0
192157,-100,4,1,1,30,0,0
192384,-133.333333333333,4,1,1,25,0,0
192612,-133.333333333333,4,2,1,50,0,0
193066,-133.333333333333,4,1,1,40,0,0
193180,-133.333333333333,4,1,0,40,0,0
193521,-133.333333333333,4,1,0,37,0,0
193748,-133.333333333333,4,1,0,34,0,0
193975,-133.333333333333,4,1,0,31,0,0
194203,-133.333333333333,4,1,0,28,0,0
194430,-133.333333333333,4,1,0,25,0,0
194657,-133.333333333333,4,1,0,22,0,0
194884,-133.333333333333,4,1,0,19,0,0
195112,-133.333333333333,4,1,0,16,0,0
195339,-200,4,2,1,50,0,0
196248,-200,4,2,1,30,0,0
197157,-200,4,2,1,50,0,0
198294,-200,4,2,1,30,0,0
198975,-200,4,2,1,50,0,0
199884,-200,4,2,1,30,0,0
200339,-200,4,2,1,50,0,0
201930,-200,4,2,1,30,0,0
202612,-200,4,2,1,50,0,0
203521,-200,4,2,1,30,0,0
203975,-200,4,2,1,50,0,0
206248,-200,4,2,0,50,0,0
207384,-200,4,2,1,50,0,0
208975,-200,4,2,1,60,0,0
209884,-80,4,1,1,75,0,1
224430,-80,4,2,1,60,0,0
238521,-80,4,1,1,50,0,0
238975,-66.6666666666667,4,1,1,75,0,1
252612,-80,4,1,1,75,0,0
253521,-66.6666666666667,4,1,1,75,0,1
268066,-80,4,2,1,75,0,0

[Colours]
Combo1 : 137,241,250
Combo2 : 251,136,190
Combo3 : 192,192,192
Combo4 : 194,134,255

[HitObjects]
220,153,1703,2,0,B|211:115|175:91,2,78.7500030040742,0|0|2,0:0|0:0|0:0,0:0:0
256,217,2612,6,0,B|241:256|259:297,2,78.7500030040742,8|8|0,0:0|0:0|0:0,0:0:0
310,168,3521,2,0,B|408:127,1,105.000004005432,2|0,0:0|0:0,0:0:0
470,98,4203,1,2,0:0:0
470,98,4430,6,0,B|490:62|473:19,2,78.7500030040742,8|0|8,0:0|0:0|0:0,0:0:0
470,108,5225,1,0,0:0:0
470,118,5339,1,2,0:0:0
433,187,5566,2,0,B|384:207,2,52.5000020027161,0|8|2,0:0|0:0|0:0,0:0:0
385,279,6248,6,0,B|336:280|314:218,1,78.7500030040742,8|8,0:0|0:0,0:0:0
305,209,6703,1,0,0:0:0
274,83,7157,2,0,B|338:90|345:151,1,105.000004005432,2|0,0:0|0:0,0:0:0
276,154,7839,1,2,0:0:0
271,163,7953,1,0,0:0:0
262,168,8066,6,0,B|223:192|183:183,2,78.7500030040742,8|0|8,0:0|0:0|0:0,0:0:0
248,97,8975,1,2,0:0:0
243,261,9316,1,0,0:0:0
243,261,9430,1,8,0:0:0
308,224,9657,1,2,0:0:0
305,297,9884,6,0,B|334:321|381:311,2,78.7500030040742,8|8|0,0:0|0:0|0:0,0:0:0
242,333,10794,1,2,0:0:0
140,283,11134,1,0,0:0:0
232,215,11475,1,2,0:0:0
176,169,11703,6,0,B|161:124|186:76|231:57|277:66|308:108,1,210.000008010865,8|0,0:0|0:0,0:0:0
246,145,13066,1,2,0:0:0
256,192,13521,12,0,15112,0:0:0
256,192,15339,12,12,16703,0:0:0
224,230,17157,5,0,0:0:0
262,163,17384,1,0,0:0:0
219,102,17612,2,0,B|160:131|126:75,1,105,8|0,0:0|0:0,0:0:0
99,62,18066,2,0,B|93:26,2,35
84,137,18521,2,0,B|89:171,3,35,8|0|0|8,0:0|0:0|0:0|0:0,0:0:0
124,202,18975,5,0,0:0:0
76,264,19203,1,0,0:0:0
109,332,19430,2,0,B|139:284|193:275,1,105,8|8,0:0|0:0,0:0:0
213,295,19884,2,0,B|247:298|282:289,1,70
328,199,20339,2,0,B|337:235,1,35,8|0,0:0|0:0,0:0:0
360,340,20680,2,0,B|374:304,1,35,8|0,0:0|0:0,0:0:0
434,261,21021,5,0,0:0:0
406,189,21248,1,8,0:0:0
384,73,21589,2,0,B|353:87,3,35
305,148,22157,1,8,0:0:0
305,148,22271,1,0,0:0:0
256,89,22498,1,0,0:0:0
221,100,22612,6,0,B|190:120|147:106,1,70,0|0,0:0|0:0,0:0:0
93,74,23066,1,8,0:0:0
131,148,23294,2,0,B|116:183|86:202,1,70
30,241,23748,1,0,0:0:0
31,316,23975,1,8,0:0:0
95,279,24203,1,8,0:0:0
103,286,24316,1,8,0:0:0
107,296,24430,6,0,B|132:265|172:255,1,70
237,255,24884,2,0,B|254:198|230:146,1,105,8|0,0:0|0:0,0:0:0
209,127,25339,2,0,B|202:92,2,35
262,42,25794,2,0,B|269:77,3,35,8|0|0|8,0:0|0:0|0:0|0:0,0:0:0
296,106,26248,6,0,B|368:124,1,70
420,167,26703,2,0,B|391:198|421:229,1,70,8|0,0:0|0:0,0:0:0
422,244,27044,1,8,0:0:0
422,259,27157,1,0,0:0:0
422,274,27271,1,8,0:0:0
422,289,27384,1,0,0:0:0
357,319,27612,2,0,B|334:351,1,35,8|0,0:0|0:0,0:0:0
294,283,27953,2,0,B|315:255,1,35,8|0,0:0|0:0,0:0:0
326,174,28294,5,0,0:0:0
255,209,28521,1,8,0:0:0
258,131,28748,2,0,B|264:93,1,35,0|8,0:0|0:0,0:0:0
227,112,28975,2,0,B|232:75,1,35
189,106,29203,2,0,B|189:71,1,35,8|0,0:0|0:0,0:0:0
151,112,29430,2,0,B|146:77,1,35,8|0,0:0|0:0,0:0:0
120,131,29657,2,0,B|114:96,1,35,8|8,0:0|0:0,0:0:0
90,125,29884,6,0,B|60:145|47:179,1,70,4|0,0:0|0:0,0:0:0
31,248,30339,1,8,0:0:0
108,219,30566,2,0,B|100:260|123:290,1,70
174,335,31021,1,8,0:0:0
189,258,31248,1,8,0:0:0
195,263,31361,1,0,0:0:0
202,268,31475,1,2,0:0:0
211,271,31588,1,2,0:0:0
219,273,31703,6,0,B|274:284|312:240,1,105.000004005432,4|0,0:0|0:0,0:0:0
252,199,32384,2,0,B|292:160|284:100,1,105.000004005432
131,65,33294,2,0,B|160:113|218:123,1,105.000004005432
229,50,33975,1,0,0:0:0
291,200,35112,5,0,0:0:0
281,193,35225,1,0,0:0:0
269,190,35339,2,0,B|218:171|166:183,1,105.000004005432,4|0,0:0|0:0,0:0:0
204,250,36021,2,0,B|186:304|203:359,1,105.000004005432
262,301,36703,1,0,0:0:0
391,265,38748,5,0,0:0:0
393,253,38862,1,0,0:0:0
393,241,38975,2,0,B|400:185|380:127,1,105.000004005432,4|0,0:0|0:0,0:0:0
327,93,39657,2,0,B|224:76,1,105.000004005432
90,124,40566,2,0,B|193:141,1,105.000004005432
224,207,41248,1,0,0:0:0
272,267,42384,5,0,0:0:0
203,279,42612,2,0,B|148:265|105:223,1,105.000004005432,4|0,0:0|0:0,0:0:0
65,174,43294,1,0,0:0:0
84,34,43748,1,0,0:0:0
128,141,44203,2,0,B|178:114|241:112,1,105.000004005432
296,129,44884,1,0,0:0:0
448,178,45339,6,0,B|420:167,3,26.2500010013581,8|0|0|0,0:0|0:0|0:0|0:0,0:0:0
448,206,45794,2,0,B|420:217,3,26.2500010013581,8|0|0|0,0:0|0:0|0:0|0:0,0:0:0
403,240,46248,6,0,B|330:263|316:341,1,140,0|8,0:0|0:0,0:0:0
317,263,46930,2,0,B|303:186|230:163,1,140,0|2,0:0|0:0,0:0:0
199,232,47612,1,8,0:0:0
161,167,47839,2,0,B|127:176|100:204,2,70,2|0|0,0:0|0:0|0:0,0:0:0
161,167,48521,1,8,0:0:0
250,32,48975,2,0,B|201:90|230:163,1,140,0|8,0:0|0:0,0:0:0
297,139,49657,5,2,0:0:0
297,139,49771,1,2,0:0:0
297,139,49884,2,0,B|339:198|418:195,1,140,0|8,0:0|0:0,0:0:0
459,129,50566,2,0,B|507:195|462:258,1,140,0|2,0:0|0:0,0:0:0
433,322,51248,2,8,B|395:303|393:263,1,70,8|10,0:0|0:0,0:0:0
329,306,51703,5,0,0:0:0
262,278,51930,2,0,B|252:254,3,23.3333333333333,2|2|2|8,0:0|0:0|0:0|0:0,0:0:0
198,312,52384,1,2,0:0:0
131,344,52612,2,0,B|144:375,2,35
66,305,53066,1,8,0:0:0
76,234,53294,1,2,0:0:0
144,198,53521,6,0,B|170:129|119:66,1,140,0|8,0:0|0:0,0:0:0
181,108,54203,2,0,B|248:141|319:109,1,140,0|2,0:0|0:0,0:0:0
374,65,54884,1,8,0:0:0
380,141,55112,2,0,B|411:124|447:142,2,70,2|0|0,0:0|0:0|0:0,0:0:0
321,187,55794,1,8,0:0:0
230,293,56248,2,0,B|204:322|170:330,1,70
165,257,56703,2,0,B|131:263|99:237,1,70,8|2,0:0|0:0,0:0:0
149,185,57157,6,0,B|121:119|160:49,1,140,0|8,0:0|0:0,0:0:0
230,71,57839,2,0,B|258:137|219:207,1,140
165,257,58521,1,8,0:0:0
165,257,58748,2,0,B|242:233|287:301,1,140
322,364,59430,1,8,0:0:0
322,364,59657,1,8,0:0:0
360,304,59884,6,0,B|396:236,1,70,0|8,0:0|0:0,0:0:0
328,215,60339,2,0,B|346:181,1,35,8|0,0:0|0:0,0:0:0
361,153,60566,1,2,0:0:0
377,122,60679,1,2,0:0:0
392,90,60794,6,0,B|332:42|262:125|189:75,1,210,0|0,0:0|0:0,0:0:0
132,148,62384,5,0,0:0:0
161,148,62498,1,0,0:0:0
190,148,62612,2,0,B|239:165|296:149,1,105
368,110,63521,2,0,B|354:147|367:189,1,78.7500030040742
376,225,63975,2,0,B|327:250,1,52.5000020027161,4|0,0:0|0:0,0:0:0
258,270,64430,6,0,B|272:307|259:349,2,78.7500030040742
324,315,65339,2,0,B|264:267|194:350|121:300,1,210
74,151,67157,2,0,B|102:159|131:151,1,52.5000020027161,2|0,0:0|0:0,0:0:0
186,186,67612,2,0,B|211:177|239:186,1,52.5000020027161,4|0,0:0|0:0,0:0:0
296,232,68066,6,0,B|349:222|379:168,1,105.000004005432,0|2,0:0|0:0,0:0:0
300,154,68748,2,0,B|357:97|374:11,1,157.500006008148,0|2,0:0|0:0,0:0:0
216,232,69884,6,0,B|163:222|133:168,1,105.000004005432,0|2,0:0|0:0,0:0:0
212,154,70566,2,0,B|155:97|138:11,1,157.500006008148,0|2,0:0|0:0,0:0:0
310,114,71703,6,0,B|355:186,2,78.7500030040742,0|8|8,0:0|0:0|0:0,0:0:0
276,183,72612,2,0,B|270:263,2,78.7500030040742,0|8|0,0:0|0:0|0:0,0:0:0
203,237,73521,2,0,B|128:278,2,78.7500030040742,0|8|8,0:0|0:0|0:0,0:0:0
203,237,74316,1,0,0:0:0
203,237,74430,1,8,0:0:0
197,159,74657,1,0,0:0:0
252,101,74884,6,0,B|251:67|251:67|221:94|221:94|251:101,1,105.000004005432,4|0,0:0|0:0,0:0:0
317,137,75339,2,8,B|348:156,6,26.2500010013581,8|0|0|8|0|0|0,0:0|0:0|0:0|0:0|0:0|0:0|0:0,0:0:0
342,218,76248,5,8,0:0:0
378,347,76589,1,8,0:0:0
248,313,76930,1,8,0:0:0
185,268,77157,5,4,0:0:0
211,197,77384,1,0,0:0:0
151,152,77612,2,0,B|130:88|189:30,1,131.25,8|8,0:0|0:0,0:0:0
218,67,78066,2,0,B|180:103|194:146,1,87.5,0|0,0:0|0:0,0:0:0
267,138,78521,1,8,0:0:0
267,138,78634,1,0,0:0:0
267,138,78748,2,0,B|304:106|352:102,1,87.5
440,69,79203,6,0,B|415:107,1,43.75,0|0,0:0|0:0,0:0:0
440,175,79544,2,0,B|415:213,1,43.75,0|2,0:0|0:0,0:0:0
360,260,79884,1,0,0:0:0
290,236,80112,2,0,B|276:281|298:320,2,87.5,2|8|2,0:0|0:0|0:0,0:0:0
231,199,80794,6,0,B|193:176|148:179,1,87.5
233,179,81248,2,0,B|222:136|188:106,1,87.5,8|0,0:0|0:0,0:0:0
235,127,81589,1,8,0:0:0
249,167,81703,2,0,B|272:129|269:84,1,87.5
268,169,82157,2,0,B|311:158|341:124,1,87.5,8|0,0:0|0:0,0:0:0
390,70,82612,6,0,B|418:109|407:156,1,87.5
424,224,83066,2,0,B|395:264|393:313,1,87.5,8|2,0:0|0:0,0:0:0
399,332,83407,1,0,0:0:0
253,278,83748,2,0,B|224:245|178:233,1,87.5,2|8,0:0|0:0,0:0:0
156,229,84089,1,0,0:0:0
133,234,84203,1,2,0:0:0
112,246,84316,1,0,0:0:0
91,262,84430,6,0,B|55:169|109:94,1,175,4|8,0:0|0:0,0:0:0
175,69,85112,2,0,B|179:48|190:25,2,43.75,0|8|0,0:0|0:0|0:0,0:0:0
165,142,85566,1,0,0:0:0
165,142,85794,2,0,B|202:109|250:106,1,87.5,8|0,0:0|0:0,0:0:0
284,166,86248,5,0,0:0:0
284,166,86475,1,2,0:0:0
325,102,86703,1,8,0:0:0
390,63,86930,1,2,0:0:0
390,63,87044,2,0,B|415:133|480:164,1,131.25,0|2,0:0|0:0,0:0:0
411,204,87612,1,8,0:0:0
376,270,87839,5,2,0:0:0
376,270,88066,1,4,0:0:0
208,320,88521,1,8,0:0:0
208,320,88748,1,0,0:0:0
161,130,89203,5,8,0:0:0
152,257,89544,1,8,0:0:0
265,200,89884,1,8,0:0:0
231,134,90112,1,0,0:0:0
236,124,90225,1,8,0:0:0
242,115,90339,1,0,0:0:0
250,107,90452,1,0,0:0:0
258,99,90566,1,8,0:0:0
331,93,90794,5,0,0:0:0
403,108,91021,2,0,B|445:96,1,43.75,0|8,0:0|0:0,0:0:0
387,184,91362,2,0,B|429:172,2,43.75,0|8|8,0:0|0:0|0:0,0:0:0
353,166,91703,5,4,0:0:0
353,166,91930,1,0,0:0:0
281,188,92157,2,0,B|230:231|209:301,1,131.25,8|8,0:0|0:0,0:0:0
185,249,92612,2,0,B|219:220|233:177,1,87.5
242,105,93066,1,8,0:0:0
235,78,93180,1,0,0:0:0
223,53,93294,2,0,B|187:32|138:35,1,87.5
100,94,93748,6,0,B|77:95|55:88,2,43.75,0|0|8,0:0|0:0|0:0,0:0:0
131,159,94203,2,0,B|111:231|157:287,1,131.25,2|0,0:0|0:0,0:0:0
194,267,94657,2,0,B|144:277|118:313,2,87.5,2|8|2,0:0|0:0|0:0,0:0:0
258,299,95339,6,0,B|307:304|351:279,1,87.5
293,227,95794,2,0,B|332:207|360:172,1,87.5,8|0,0:0|0:0,0:0:0
315,178,96134,1,8,0:0:0
287,149,96248,2,0,B|312:110|308:60,1,87.5
236,90,96703,1,8,0:0:0
227,83,96816,1,0,0:0:0
217,78,96930,1,8,0:0:0
207,74,97043,1,8,0:0:0
196,72,97157,5,0,0:0:0
162,207,97498,2,0,B|117:210,1,43.75,0|8,0:0|0:0,0:0:0
76,272,97839,1,2,0:0:0
131,327,98066,2,0,B|175:325,2,43.75,0|0|2,0:0|0:0|0:0,0:0:0
215,262,98521,2,0,B|264:268|308:244,1,87.5,8|2,0:0|0:0,0:0:0
362,214,98975,5,4,0:0:0
413,79,99316,1,0,0:0:0
300,173,99657,1,0,0:0:0
212,173,99884,5,0,0:0:0
99,79,100225,1,8,0:0:0
150,214,100566,1,8,0:0:0
218,245,100794,6,0,B|236:288|215:334,2,87.5,0|2|8,0:0|0:0|0:0,0:0:0
294,245,101475,1,2,0:0:0
294,245,101589,1,0,0:0:0
294,245,101703,2,0,B|300:197|338:173,1,87.5,0|2,0:0|0:0,0:0:0
387,120,102157,2,0,B|360:31,1,87.5,8|2,0:0|0:0,0:0:0
298,73,102612,5,4,0:0:0
156,108,102953,1,8,0:0:0
298,143,103294,1,8,0:0:0
254,204,103521,5,8,0:0:0
396,239,103862,1,0,0:0:0
254,274,104203,1,0,0:0:0
194,238,104430,5,0,0:0:0
256,192,104544,12,4,106248,0:0:0
208,342,120566,5,0,0:0:0
208,317,120680,1,0,0:0:0
207,292,120794,2,0,B|257:236|157:164|208:89,1,210
267,46,122384,5,0,0:0:0
292,38,122498,1,0,0:0:0
317,46,122612,2,0,B|364:70|421:44,1,105
462,102,123521,2,0,B|462:210,1,105
403,247,124430,6,0,B|388:284|404:323,2,78.7500030040742
340,210,125339,2,0,B|314:157|322:110|367:96|392:134|365:170|326:179|284:161,1,210
168,136,127157,2,0,B|156:112|174:83,2,52.5000020027161,0|0|4,0:0|0:0|0:0,0:0:0
213,192,127839,5,0,0:0:0
209,206,127953,1,0,0:0:0
201,220,128066,2,0,B|168:266|118:279,1,105.000004005432,0|2,0:0|0:0,0:0:0
183,283,128748,2,0,B|196:340|249:374,1,105.000004005432,0|4,0:0|0:0,0:0:0
254,269,129430,1,2,0:0:0
298,211,129657,5,0,0:0:0
298,211,129884,2,0,B|296:154|326:105,1,105.000004005432,0|2,0:0|0:0,0:0:0
383,147,130566,2,0,B|433:167|488:137,1,105.000004005432,0|4,0:0|0:0,0:0:0
388,78,131248,1,2,0:0:0
322,46,131475,1,0,0:0:0
256,80,131703,5,8,0:0:0
154,52,132044,1,8,0:0:0
181,154,132384,1,0,0:0:0
150,221,132612,5,8,0:0:0
207,322,132953,1,8,0:0:0
265,222,133293,1,0,0:0:0
207,178,133521,5,0,0:0:0
273,150,133748,2,0,B|260:120,3,17.500000667572,2|2|2|8,0:0|0:0|0:0|0:0,0:0:0
331,190,134203,1,0,0:0:0
391,152,134430,1,0,0:0:0
396,221,134657,2,0,B|420:223,3,17.500000667572,2|2|2|8,0:0|0:0|0:0|0:0,0:0:0
449,283,135112,1,0,0:0:0
401,339,135339,6,0,B|390:367,6,26.2500010013581,8|0|0|8|0|0|8,0:0|0:0|0:0|0:0|0:0|0:0|0:0,0:0:0
333,311,136248,5,8,0:0:0
210,250,136589,1,8,0:0:0
160,122,136930,1,8,0:0:0
203,60,137157,6,0,B|196:105|233:141,1,87.5,4|0,0:0|0:0,0:0:0
251,160,137498,1,0,0:0:0
272,175,137612,2,0,B|307:203|359:202,1,87.5,8|0,0:0|0:0,0:0:0
427,206,138066,2,0,B|458:173,2,43.75,0|8|0,0:0|0:0|0:0,0:0:0
447,277,138521,2,0,B|417:308,1,43.75,8|0,0:0|0:0,0:0:0
347,278,138862,1,0,0:0:0
347,278,138975,6,0,B|311:221|336:150,1,131.25
348,120,139430,1,8,0:0:0
329,51,139657,1,2,0:0:0
259,73,139884,1,0,0:0:0
248,76,139997,1,8,0:0:0
238,80,140111,1,2,0:0:0
228,85,140224,1,0,0:0:0
219,91,140338,1,8,0:0:0
233,162,140566,1,2,0:0:0
162,139,140794,6,0,B|89:147|43:192,1,131.25
78,215,141248,2,0,B|107:185|156:180,1,87.5,8|0,0:0|0:0,0:0:0
158,255,141703,1,0,0:0:0
162,265,141816,1,8,0:0:0
167,274,141930,1,0,0:0:0
174,283,142043,1,0,0:0:0
181,291,142157,1,8,0:0:0
242,335,142384,1,0,0:0:0
289,279,142612,6,0,B|276:234|295:190,1,87.5
234,72,143066,2,0,B|247:117|229:157,1,87.5,8|2,0:0|0:0,0:0:0
229,157,143407,1,8,0:0:0
378,130,143748,2,0,B|340:111|290:127,2,87.5,2|8|2,0:0|0:0|0:0,0:0:0
438,94,144430,6,0,B|363:153|376:248,1,175,4|8,0:0|0:0,0:0:0
407,313,145112,1,0,0:0:0
407,313,145339,2,0,B|375:280|334:265,1,87.5
262,281,145794,2,0,B|172:264,1,87.5,8|0,0:0|0:0,0:0:0
104,255,146248,5,0,0:0:0
133,185,146475,1,0,0:0:0
104,115,146703,1,8,0:0:0
133,45,146930,2,0,B|176:54,1,43.75
185,126,147271,2,0,B|228:135,1,43.75
296,160,147612,2,0,B|341:166|382:149,1,87.5,8|0,0:0|0:0,0:0:0
439,100,148066,5,0,0:0:0
474,171,148294,1,2,0:0:0
476,181,148407,1,2,0:0:0
476,192,148521,1,8,0:0:0
475,203,148634,1,0,0:0:0
472,213,148748,1,2,0:0:0
439,284,148975,1,2,0:0:0
372,243,149203,5,8,0:0:0
256,314,149544,1,8,0:0:0
140,243,149884,1,8,0:0:0
120,142,150111,6,0,B|131:100,1,43.75
165,164,150339,2,0,B|169:121,1,43.75,8|0,0:0|0:0,0:0:0
211,140,150566,1,0,0:0:0
301,140,150794,2,0,B|301:188,2,43.75,0|8|0,0:0|0:0|0:0,0:0:0
343,121,151135,2,0,B|347:168,2,43.75,0|8|0,0:0|0:0|0:0,0:0:0
381,100,151475,1,0,0:0:0
433,39,151703,6,0,B|381:124|451:204,1,175,4|8,0:0|0:0,0:0:0
499,254,152384,1,0,0:0:0
447,308,152612,2,0,B|420:348,2,43.75,0|8|0,0:0|0:0|0:0,0:0:0
396,254,153066,2,0,B|369:294,1,43.75,8|0,0:0|0:0,0:0:0
259,313,153521,6,0,B|216:293|170:313,1,87.5
142,327,153862,1,0,0:0:0
110,311,153975,2,0,B|68:327|24:309,1,87.5,8|2,0:0|0:0,0:0:0
68,247,154430,1,0,0:0:0
68,247,154657,2,0,B|65:200|97:162,1,87.5,2|8,0:0|0:0,0:0:0
147,113,155112,1,2,0:0:0
214,82,155339,5,0,0:0:0
214,82,155566,1,0,0:0:0
274,125,155794,2,0,B|253:196|296:254,1,131.25,8|8,0:0|0:0,0:0:0
327,277,156248,5,0,0:0:0
327,277,156475,1,0,0:0:0
386,228,156703,1,8,0:0:0
399,222,156816,1,0,0:0:0
411,214,156930,1,0,0:0:0
422,204,157043,1,0,0:0:0
438,181,157157,5,0,0:0:0
376,132,157384,1,0,0:0:0
358,56,157612,1,8,0:0:0
281,73,157839,2,0,B|284:27,1,43.75,2|0,0:0|0:0,0:0:0
233,198,158294,2,0,B|227:288,2,87.5,2|8|2,0:0|0:0|0:0,0:0:0
180,145,158975,6,0,B|119:114|50:119,2,131.25,4|8|8,0:0|0:0|0:0,0:0:0
150,212,159884,1,8,0:0:0
207,333,160225,1,0,0:0:0
337,364,160566,1,0,0:0:0
393,318,160794,6,0,B|429:288|441:245,1,87.5,0|2,0:0|0:0,0:0:0
400,265,161134,1,0,0:0:0
361,244,161248,2,0,B|375:195|356:153,1,87.5,8|2,0:0|0:0,0:0:0
291,127,161703,1,0,0:0:0
280,124,161816,1,8,0:0:0
269,124,161930,1,2,0:0:0
258,125,162043,1,0,0:0:0
248,128,162157,1,8,0:0:0
187,179,162384,1,2,0:0:0
121,222,162612,6,0,B|110:294|49:332,2,131.25,4|8|8,0:0|0:0|0:0,0:0:0
80,161,163521,1,8,0:0:0
172,65,163862,1,0,0:0:0
302,82,164203,1,0,0:0:0
347,143,164430,5,0,0:0:0
256,192,164544,12,4,166248,0:0:0
254,256,179884,5,0,0:0:0
251,245,179997,1,0,0:0:0
247,235,180111,1,0,0:0:0
242,225,180224,1,0,0:0:0
237,215,180338,1,0,0:0:0
230,207,180452,1,0,0:0:0
223,199,180565,1,0,0:0:0
214,192,180679,1,0,0:0:0
205,186,180794,6,0,B|163:150|110:147,2,105
243,126,181703,1,8,0:0:0
314,204,182044,1,0,0:0:0
413,170,182384,1,0,0:0:0
413,242,182612,6,0,B|396:315,2,70
305,337,183521,1,8,0:0:0
216,272,183862,1,0,0:0:0
203,163,184203,1,0,0:0:0
265,212,184430,5,0,0:0:0
265,212,184771,1,0,0:0:0
265,212,185112,1,0,0:0:0
272,139,185339,1,8,0:0:0
200,47,185680,1,8,0:0:0
317,31,186021,1,8,0:0:0
343,100,186248,5,4,0:0:0
449,229,186589,1,6,0:0:0
283,251,186930,1,6,0:0:0
224,300,187157,5,0,0:0:0
215,303,187270,1,0,0:0:0
207,306,187384,1,0,0:0:0
199,307,187497,1,0,0:0:0
190,308,187611,1,0,0:0:0
181,308,187725,1,0,0:0:0
172,307,187838,1,0,0:0:0
164,305,187952,1,0,0:0:0
155,303,188066,5,0,0:0:0
39,328,188407,1,0,0:0:0
77,213,188748,1,0,0:0:0
102,142,188975,2,0,B|74:36,2,105,8|0|0,0:0|0:0|0:0,0:0:0
148,204,189884,6,0,B|176:174|177:136,1,70
248,159,190339,2,0,B|253:119|232:89,1,70
307,68,190794,2,0,B|282:34|244:19,2,70,8|0|0,0:0|0:0|0:0,0:0:0
307,68,191703,5,0,0:0:0
337,107,191930,1,0,0:0:0
378,134,192157,1,0,0:0:0
423,153,192384,2,0,B|449:156,2,26.2500010013581,2|2|4,0:0|0:0|0:0,0:0:0
449,228,193066,2,0,B|423:231,3,26.2500010013581,8|0|0|0,0:0|0:0|0:0|0:0,0:0:0
437,259,193521,5,8,0:0:0
437,259,193748,1,8,0:0:0
437,259,193975,1,8,0:0:0
437,259,194203,1,8,0:0:0
437,259,194430,1,8,0:0:0
437,259,194657,1,8,0:0:0
437,259,194884,1,8,0:0:0
437,259,195112,1,8,0:0:0
379,303,195339,6,0,B|312:326|241:301,1,140,4|8,0:0|0:0,0:0:0
164,301,196703,1,0,0:0:0
134,301,196930,1,8,0:0:0
104,301,197157,2,0,B|101:272|87:246,2,52.5,4|0|0,0:0|0:0|0:0,0:0:0
159,233,198294,6,0,B|142:205|141:165,1,70,8|8,0:0|0:0,0:0:0
180,156,198975,2,0,B|183:119|207:87,1,70,4|0,0:0|0:0,0:0:0
272,51,199884,2,0,B|307:58|335:85,1,70,8|0,0:0|0:0,0:0:0
391,127,200794,6,0,B|376:198,1,70,4|0,0:0|0:0,0:0:0
376,195,201475,1,0,0:0:0
408,259,201930,2,0,B|373:271|338:256,1,70,8|8,0:0|0:0,0:0:0
309,193,202612,6,0,B|259:172|205:184,1,105,4|0,0:0|0:0,0:0:0
143,150,203521,2,0,B|126:80,2,70,8|0|4,0:0|0:0|0:0,0:0:0
155,219,204884,2,0,B|132:253,1,35
75,284,205566,1,0,0:0:0
75,284,206021,1,2,0:0:0
132,330,206248,6,0,B|164:348|205:341,1,70,4|0,0:0|0:0,0:0:0
254,293,206930,1,0,0:0:0
254,293,207044,1,0,0:0:0
254,293,207157,1,0,0:0:0
256,221,207384,5,8,0:0:0
306,69,207725,1,8,0:0:0
418,185,208066,1,8,0:0:0
380,176,208975,5,8,0:0:0
313,107,209316,1,8,0:0:0
283,198,209657,1,8,0:0:0
283,198,209771,1,0,0:0:0
283,198,209884,6,0,B|253:236|206:236,1,87.5,4|0,0:0|0:0,0:0:0
215,160,210339,2,0,B|226:83|188:29,2,131.25,8|8|0,0:0|0:0|0:0,0:0:0
146,193,211248,1,8,0:0:0
146,193,211362,1,0,0:0:0
146,193,211475,1,0,0:0:0
94,244,211703,6,0,B|99:290|132:325,1,87.5
195,356,212157,1,8,0:0:0
193,279,212384,2,0,B|216:290|239:292,1,43.75,0|8,0:0|0:0,0:0:0
356,311,212839,2,0,B|401:306|437:277,1,87.5,0|8,0:0|0:0,0:0:0
435,277,213180,1,0,0:0:0
435,277,213294,1,0,0:0:0
371,236,213521,6,0,B|394:198|393:152,1,87.5
320,177,213975,2,0,B|323:103|275:52,1,131.25,8|8,0:0|0:0,0:0:0
242,36,214430,1,0,0:0:0
242,36,214657,1,0,0:0:0
195,92,214884,1,8,0:0:0
187,83,214997,1,0,0:0:0
179,76,215111,1,0,0:0:0
170,70,215224,1,0,0:0:0
160,65,215338,5,0,0:0:0
136,136,215566,1,0,0:0:0
136,136,215794,1,8,0:0:0
83,85,216021,2,0,B|67:71|46:63,1,43.75,0|8,0:0|0:0,0:0:0
60,222,216475,1,0,0:0:0
122,259,216703,2,0,B|139:214|190:196,1,87.5,8|0,0:0|0:0,0:0:0
248,165,217157,5,4,0:0:0
323,58,217498,1,8,0:0:0
248,165,217839,1,8,0:0:0
287,225,218066,5,8,0:0:0
410,177,218407,1,0,0:0:0
287,225,218748,1,0,0:0:0
291,298,218975,6,0,B|378:269,2,87.5,0|0|8,0:0|0:0|0:0,0:0:0
233,342,219657,1,0,0:0:0
222,345,219770,1,8,0:0:0
212,348,219884,1,0,0:0:0
201,352,219997,1,0,0:0:0
191,355,220111,1,0,0:0:0
128,320,220339,2,0,B|118:273|138:229,1,87.5,8|0,0:0|0:0,0:0:0
176,166,220794,5,8,0:0:0
155,96,221021,2,0,B|121:67,3,29.1666666666667
218,59,221475,1,0,0:0:0
294,59,221703,5,8,0:0:0
438,65,222044,1,0,0:0:0
336,166,222384,1,8,0:0:0
256,122,222612,5,0,0:0:0
256,192,222725,12,4,224430,0:0:0
283,281,238521,5,8,0:0:0
234,189,238748,1,8,0:0:0
277,95,238975,2,0,B|323:69|380:67,1,105.000004005432,4|0,0:0|0:0,0:0:0
455,137,239430,1,8,0:0:0
367,187,239657,2,0,B|355:244,1,52.5000020027161
216,313,240112,2,0,B|164:310|102:349,1,105.000004005432,0|8,0:0|0:0,0:0:0
59,255,240566,5,0,0:0:0
59,255,240794,2,0,B|51:201|76:151,1,105.000004005432
131,66,241248,1,8,0:0:0
216,122,241475,2,0,B|234:100|260:89,1,52.5000020027161
358,110,241816,2,0,B|328:118|312:137,1,52.5000020027161
262,199,242157,1,8,0:0:0
263,225,242270,1,0,0:0:0
267,251,242384,1,0,0:0:0
273,276,242497,1,0,0:0:0
282,301,242612,6,0,B|332:316|392:301,2,105.000004005432,0|0|8,0:0|0:0|0:0,0:0:0
184,337,243294,2,0,B|160:343|130:336,1,52.5000020027161
150,189,243748,1,0,0:0:0
187,95,243975,2,0,B|153:51,2,52.5000020027161,8|0|0,0:0|0:0|0:0,0:0:0
295,78,244430,5,0,0:0:0
251,174,244657,1,0,0:0:0
251,174,244884,2,0,B|201:200|139:197,1,105.000004005432,8|0,0:0|0:0,0:0:0
120,197,245225,1,0,0:0:0
216,322,245566,2,0,B|258:301|320:307,1,105.000004005432,0|8,0:0|0:0,0:0:0
346,321,245907,1,0,0:0:0
375,319,246021,1,0,0:0:0
404,315,246134,1,0,0:0:0
427,296,246248,6,0,B|451:187,1,105.000004005432
368,226,246703,2,0,B|392:117,1,105.000004005432,8|0,0:0|0:0,0:0:0
390,123,247044,1,0,0:0:0
253,65,247384,1,0,0:0:0
253,65,247612,1,8,0:0:0
175,134,247839,5,0,0:0:0
151,146,247952,1,0,0:0:0
133,164,248066,2,0,B|93:202|75:260,1,105.000004005432,0|0,0:0|0:0,0:0:0
183,255,248521,2,0,B|183:313|227:353,1,105.000004005432,8|0,0:0|0:0,0:0:0
322,319,248975,2,0,B|371:341|433:330,2,105.000004005432,0|0|8,0:0|0:0|0:0,0:0:0
282,222,249657,1,0,0:0:0
264,119,249884,5,0,0:0:0
71,90,250225,1,8,0:0:0
264,61,250566,1,8,0:0:0
209,89,250794,5,8,0:0:0
402,118,251135,1,0,0:0:0
209,147,251476,1,0,0:0:0
171,200,251703,5,0,0:0:0
167,212,251816,1,8,0:0:0
165,225,251930,1,0,0:0:0
164,238,252043,1,0,0:0:0
164,251,252157,1,8,0:0:0
165,264,252271,1,0,0:0:0
166,277,252384,1,8,0:0:0
169,290,252498,1,8,0:0:0
172,303,252612,6,0,B|232:329|301:304,1,131.25,0|8,0:0|0:0,0:0:0
305,291,253066,1,8,0:0:0
308,279,253180,1,0,0:0:0
309,265,253293,1,8,0:0:0
310,252,253407,1,8,0:0:0
310,239,253521,6,0,B|318:183|298:134,1,105.000004005432,4|0,0:0|0:0,0:0:0
213,70,253975,2,0,B|110:48,1,105.000004005432,8|0,0:0|0:0,0:0:0
78,38,254316,1,0,0:0:0
56,203,254657,2,0,B|37:254|52:309,1,105.000004005432,0|8,0:0|0:0,0:0:0
153,342,255112,5,0,0:0:0
153,342,255339,2,0,B|198:312|254:306,1,105.000004005432
283,209,255794,2,0,B|302:104,1,105.000004005432,8|0,0:0|0:0,0:0:0
309,76,256134,1,0,0:0:0
358,240,256475,2,0,B|379:345,2,105.000004005432,0|8|0,0:0|0:0|0:0,0:0:0
370,134,257157,6,0,B|396:90|455:65,1,105.000004005432
335,51,257612,2,0,B|292:88|235:96,1,105.000004005432,8|0,0:0|0:0,0:0:0
213,100,257953,1,0,0:0:0
186,94,258066,2,0,B|130:85|94:43,1,105.000004005432
47,138,258521,1,8,0:0:0
47,138,258748,1,0,0:0:0
78,239,258975,5,0,0:0:0
153,313,259203,2,0,B|210:301,1,52.5000020027161,0|8,0:0|0:0,0:0:0
216,203,259544,2,0,B|271:189,1,52.5000020027161,0|8,0:0|0:0,0:0:0
358,152,259884,2,0,B|370:95|339:43,2,105.000004005432,0|0|8,0:0|0:0|0:0,0:0:0
431,223,260566,5,0,0:0:0
431,223,260680,1,0,0:0:0
431,223,260794,2,0,B|414:278|440:334,2,105.000004005432,0|0|8,0:0|0:0|0:0,0:0:0
341,267,261475,1,0,0:0:0
341,267,261589,1,0,0:0:0
196,216,261930,2,0,B|144:195|89:202,1,105.000004005432,0|8,0:0|0:0,0:0:0
170,280,262384,5,0,0:0:0
170,280,262498,1,0,0:0:0
170,280,262612,2,0,B|166:228|198:176,1,105.000004005432
283,141,263066,2,0,B|287:84|260:40,2,105.000004005432,8|0|0,0:0|0:0|0:0,0:0:0
397,292,263975,1,0,0:0:0
311,349,264203,1,0,0:0:0
222,298,264430,5,0,0:0:0
222,88,264771,1,8,0:0:0
403,193,265112,1,8,0:0:0
281,252,265339,5,8,0:0:0
281,42,265680,1,8,0:0:0
100,147,266021,1,8,0:0:0
100,147,266248,5,12,0:0:0
256,192,266362,12,6,268066,0:0:0
