osu file format v5

[General]
AudioFilename: Slam.mp3
AudioLeadIn: 0
PreviewTime: 47656
Countdown: 1
SampleSet: Normal
StackLeniency: 0.7
Mode: 0
LetterboxInBreaks: 1

[Metadata]
Title:SLAM
Artist:Novasonic
Creator:Starrodkirby86
Version:Normal
Source:
Tags:

[Difficulty]
HPDrainRate:5
CircleSize:5
OverallDifficulty:6
SliderMultiplier:1.4
SliderTickRate:1

[Events]
//Background and Video events
0,0,"slam.png"
1,5769,"SLAM.avi"
//Break Periods
2,36490,39332
//Storyboard Layer 0 (Background)
//Storyboard Layer 1 (Failing)
//Storyboard Layer 2 (Passing)
//Storyboard Layer 3 (Foreground)
//Storyboard Sound Samples
//Background Colour Transformations
3,100,163,162,255

[TimingPoints]
7648,454.545454545455,4,1,1,100,1

[Colours]
Combo1 : 72,72,255
Combo2 : 4,200,4
Combo3 : 0,0,160
Combo4 : 192,37,37
Combo5 : 238,233,138

[HitObjects]
64,192,7648,5,0
128,256,8102,2,4,C|288:256,1,140
256,192,8784,1,0
320,192,9011,1,12
416,192,9466,5,0
352,96,9920,2,4,C|192:96,1,140
192,160,10602,1,0
256,160,10829,1,12
160,96,11284,5,0
256,96,11738,2,4,C|128:224,1,140
192,256,12420,1,8
256,256,12648,1,12
352,192,13102,5,2
288,160,13329,1,2
224,128,13557,1,2
160,96,13784,1,2
128,160,14011,2,4,C|256:224,2,140
192,160,15148,5,2
288,160,15602,1,2
320,192,15829,2,4,B|256:224|224:192|192:224|96:192,1,210
224,160,16966,5,2
320,160,17420,1,2
352,128,17648,2,4,B|288:96|256:128|224:96|128:128,1,210
64,192,18784,5,2
160,256,19238,1,2
160,192,19466,2,4,B|448:192,1,280
448,224,20602,1,8
384,224,20829,1,8
256,224,21284,1,8
128,224,21738,1,12
288,224,22420,5,2
160,224,22875,1,2
128,192,23102,2,4,B|192:160|224:192|256:160|352:192,1,210
256,224,24238,5,2
128,224,24693,1,2
96,256,24920,2,4,B|160:288|192:256|224:288|320:256,1,210
384,192,26057,5,2
288,96,26511,1,2
288,160,26738,2,4,B|0:160,1,280
32,96,27875,1,8
96,96,28102,1,8
192,96,28557,1,8
288,96,29011,1,12
384,160,29466,5,0
384,160,29693,1,0
384,160,29920,1,12
288,160,30375,1,4
288,160,30602,1,4
320,256,31284,6,0,B|192:192|192:128|352:96,1,280
344,176,32648,5,2
64,192,33102,5,0
96,128,33329,1,8
128,192,33557,1,0
160,128,33784,1,8
192,192,34011,1,0
288,192,34466,1,4
384,192,34920,1,4
480,192,35375,2,4,B|448:96|320:64|224:64,1,280
64,192,40375,6,0,L|224:192|224:32|288:32|288:192|448:192|448:256|224:256,1,980
160,256,44011,6,2,C|64:288|64:352|320:352,1,420
352,288,45829,5,4
416,224,46284,1,4
416,128,46738,1,4
352,64,47193,1,4
256,32,47647,5,0
256,128,48102,1,0
256,224,48557,1,0
224,320,49011,1,0
288,320,49238,1,4
384,96,50148,6,0,C|256:96|160:160,1,210
224,192,51057,1,4
160,192,51284,5,2
224,256,51738,1,2
288,320,52193,1,2
384,288,52647,1,8
384,224,52875,1,0
448,192,53102,2,2,B|352:128|256:192,2,140
416,192,55375,5,0
352,128,55829,1,4
288,192,56284,1,0
224,128,56738,2,4,B|96:192,2,140
320,128,58102,5,0
320,128,58329,1,0
320,192,58557,5,2
224,192,59011,1,0
128,192,59466,1,2
64,288,59920,5,0
160,288,60375,1,4
256,288,60829,1,0
352,288,61284,1,4
448,288,61738,1,0
256,192,62193,12,4,65375
64,192,65829,5,0
96,128,66057,1,4
128,192,66284,1,12
224,192,66738,1,4
448,192,67647,2,2,B|320:128,2,140
448,192,69466,5,0
416,128,69693,1,4
384,192,69920,1,12
288,192,70375,1,4
64,192,71284,2,2,B|192:128,2,140
160,288,73102,5,0
192,320,73329,1,4
224,288,73557,1,12
320,288,74011,1,6
256,192,74466,1,2
256,192,74693,1,6
192,288,75147,1,2
192,288,75375,1,6
256,192,75829,1,6
160,96,76738,5,0
192,64,76966,1,4
224,96,77193,1,12
320,96,77647,1,6
256,192,78102,1,2
256,192,78329,1,6
320,96,78784,1,2
320,96,79011,1,6
192,96,79466,1,14
32,192,80375,5,0
96,96,80829,1,4
192,32,81284,1,0
320,32,81738,1,4
416,96,82193,1,0
480,192,82647,1,4
416,288,83102,2,4,B|384:128,1,140
480,192,84011,5,0
416,288,84466,1,4
320,352,84920,1,0
192,352,85375,1,4
96,288,85829,1,0
32,192,86284,1,4
96,96,86738,2,6,B|224:32,1,140
96,64,87647,6,8,B|96:96|128:128,1,70
192,128,88102,1,4
288,64,88557,6,8,B|288:96|320:128,1,70
384,128,89011,1,4
320,224,89466,6,8,B|320:256|288:288,1,70
224,288,89920,1,4
128,224,90375,6,10,B|128:256|96:288,1,70
32,288,90829,1,6
128,288,91284,6,8,B|128:256|160:224,1,70
224,224,91738,1,12
320,288,92193,6,8,B|320:256|352:224,1,70
416,224,92648,1,12
416,128,93102,6,8,B|416:96|384:64,1,70
320,64,93557,1,12
224,128,94011,6,6,B|224:96|192:64,1,70
128,64,94466,1,6
256,192,94920,12,4,96284
256,192,96738,12,4,98102
256,192,98557,12,4,99920
320,288,100375,5,2
192,288,100829,1,2
256,192,101284,1,6
