osu file format v6

[General]
AudioFilename: Jigoku Shoujo Mitsuganae ED ''Ichi Nuke''.mp3
AudioLeadIn: 0
PreviewTime: -1
Countdown: 1
SampleSet: Soft
StackLeniency: 0.4
Mode: 0
LetterboxInBreaks: 1

[Editor]
DistanceSpacing: 0.800000011920929
BeatDivisor: 2
GridSize: 32

[Metadata]
Title:Ichi Nuke
Artist:Noto Mamiko
Creator:Tsuki_no_Kikyou
Version:Normal
Source:
Tags:

[Difficulty]
HPDrainRate:3
CircleSize:5
OverallDifficulty:4
SliderMultiplier:1.4
SliderTickRate:2

[Events]
//Background and Video events
0,0,"enmaai300jv7.png"
//Break Periods
//Storyboard Layer 0 (Background)
//Storyboard Layer 1 (Fail)
//Storyboard Layer 2 (Pass)
//Storyboard Layer 3 (Foreground)
//Storyboard Sound Samples
//Background Colour Transformations
3,100,183,0,0

[TimingPoints]
10698.8542489988,666.644518493835,4,2,0,100,1,0

[Colours]
Combo1 : 0,0,0
Combo2 : 164,0,0
Combo3 : 249,0,0
Combo4 : 252,69,69
Combo5 : 255,191,191

[HitObjects]
32,288,10698,1,0
224,288,11365,1,2
128,352,12032,2,0,B|128:192,1,140,0|2
192,96,13365,5,0
192,288,14032,1,2
320,192,14698,2,0,B|160:192,1,140,0|2
448,32,16032,5,0
320,160,16698,1,2
352,64,17365,2,0,B|480:160,1,140,0|2
320,64,18698,5,0
192,64,19365,1,2
320,160,20031,2,0,B|160:160,1,140,0|2
160,224,21365,1,0
160,32,22032,1,2
224,128,22699,2,0,B|64:128,1,140,0|2
160,256,24032,5,0
352,256,24699,1,2
256,128,25365,2,0,B|256:288,1,140,0|2
192,128,26699,5,0
320,256,27365,1,2
224,224,28031,2,0,B|320:96,1,140,0|2
128,128,29365,5,0
128,256,30032,1,2
224,128,30698,2,0,B|224:288,1,140,0|2
160,64,32031,5,2
352,64,32698,1,2
224,192,33364,2,0,B|320:192,2,70,2|8|2
224,256,34698,5,2
224,128,35364,1,2
96,192,36031,2,2,B|192:192,2,70,2|8|2
384,96,37364,5,2
384,288,38031,1,2
256,160,38697,2,2,B|256:256,2,70,2|8|2
320,192,40031,5,2
448,192,40697,1,2
384,64,41364,2,2,B|384:160,2,70,2|8|2
160,96,42697,5,0
96,192,43364,1,0
224,192,44031,2,2,B|352:256,1,140
352,96,45364,5,0
416,192,46031,1,0
288,192,46698,2,2,B|160:256,1,140
128,96,48030,5,0
384,288,48697,1,0
192,192,49364,2,2,B|352:192,1,140
320,128,50697,5,0
192,128,51364,1,0
256,160,52030,2,2,B|256:320,1,140
192,320,53364,5,2
128,288,53697,1,8
224,256,54030,1,2
160,224,54697,2,0,B|128:160|128:160|224:96,1,140
320,64,56030,5,2
288,128,56364,1,8
384,96,56697,1,2
352,160,57363,2,0,B|384:224|384:224|288:288,1,140
320,320,58697,5,2
256,288,59030,1,8
320,256,59363,1,2
384,288,60030,2,0,B|448:192|512:320,1,140
192,64,61363,5,2
256,96,61696,1,8
192,128,62029,1,2
128,96,62696,2,0,B|64:192|0:64,1,140
160,192,64030,5,2
256,96,64363,1,8
352,192,64697,1,2
256,256,65363,2,0,L|256:96,1,140
160,288,66696,5,2
64,288,67030,1,8
96,224,67363,1,2
160,288,68030,2,0,L|224:320|256:256,1,140
320,96,69363,5,2
256,160,69696,1,8
224,96,70030,1,2
352,160,70696,2,0,B|384:192|384:224|384:256|352:288,1,140
384,96,72030,5,2
480,96,72364,1,8
448,160,72697,1,2
384,96,73364,2,0,L|320:64|288:128,1,140,0|4
96,64,74696,5,0
96,128,75363,1,0
160,64,76030,2,2,B|192:96|160:128,2,70
416,320,77363,5,0
416,256,78030,1,0
352,320,78696,2,2,B|320:288|352:256,2,70
192,160,80029,5,0
320,160,80363,1,0
256,256,80696,1,4
192,224,81696,1,0
256,128,82029,1,0
320,224,82363,1,4
256,208,83029,12,0,85363
