osu file format v9

[General]
AudioFilename: Shintaha!.mp3
AudioLeadIn: 3000
PreviewTime: -1
Countdown: 0
SampleSet: Soft
StackLeniency: 0.7
Mode: 2
LetterboxInBreaks: 0

[Editor]
Bookmarks: 35386
DistanceSpacing: 0.8
BeatDivisor: 2
GridSize: 16

[Metadata]
Title:Aha?
Artist:NotShinta
Creator:NatsumeRin
Version:Catch The B
Source:
Tags:aniki gachimuchi boy next door sapphireghost lks

[Difficulty]
HPDrainRate:4
CircleSize:4
OverallDifficulty:6
ApproachRate:9
SliderMultiplier:2.22
SliderTickRate:0.5

[Events]
//Background and Video events
0,0,"Picture 071.jpg"
//Break Periods
//Storyboard Layer 0 (Background)
//Storyboard Layer 1 (Fail)
//Storyboard Layer 2 (Pass)
//Storyboard Layer 3 (Foreground)
//Storyboard Sound Samples
//Background Colour Transformations
3,100,163,162,255

[TimingPoints]
132,338.983050847458,4,2,1,70,1,0
4199,-100,4,2,1,55,0,0
4538,-100,4,2,1,60,0,0
4708,-100,4,2,1,65,0,0
5386,-100,4,2,1,65,0,1
5555,-100,4,2,2,70,0,0
7759,-100,4,2,1,90,0,0
8098,-100,4,2,2,70,0,0
10809,-100,4,1,2,60,0,0
10979,-100,4,1,2,70,0,0
11148,-100,4,2,2,70,0,0
13013,-100,4,1,2,60,0,0
13521,-100,4,2,2,70,0,0
15725,-100,4,1,2,60,0,0
16403,-100,4,2,2,70,0,0
17504,-100,4,2,2,10,0,0
17589,-100,4,2,2,70,0,0
18437,-100,4,1,2,50,0,0
18521,-100,4,2,2,10,0,0
18606,-100,4,2,2,70,0,0
21487,-100,4,1,2,60,0,0
21657,-100,4,2,2,70,0,0
24538,-100,4,1,2,60,0,0
29962,-100,4,2,1,70,0,0
35386,-100,4,2,0,70,0,0
40809,-100,4,2,2,70,0,0
45047,-100,4,2,2,10,0,0
45216,-100,4,2,2,70,0,0

[HitObjects]
464,128,132,2,0,B|352:88|240:128,1,222,8|0
464,128,640,1,8
48,272,809,2,0,B|160:312|272:272,1,222,8|0
320,224,1233,1,0
256,192,1318,1,0
370,170,1402,1,0
240,112,1487,6,0,B|128:72|16:112,1,222,8|0
240,112,1996,1,8
400,48,2165,2,0,B|512:88|608:48,1,111,8|2
240,112,2504,2,0,B|128:72|32:112,1,111,2|8
0,352,2843,6,0,B|112:336|224:352,1,222,8|0
0,352,3352,1,8
512,352,3521,2,0,B|400:368|288:352,1,222,8|0
512,352,4030,1,8
64,288,4199,5,12
448,192,4538,1,12
64,96,4877,1,12
256,144,5047,1,12
448,192,5216,1,12
256,224,5386,1,12
448,112,5555,5,6
256,64,5725,2,0,B|320:80|384:96,1,111,2|8
64,16,6064,2,0,B|128:32|192:48,1,111,2|0
448,192,6403,5,2
464,224,6487,1,0
480,256,6572,1,4
256,224,6742,2,0,B|128:192|32:272,1,222,2|2
256,304,7250,1,0
400,320,7420,2,0,B|384:256|320:240,1,111,2|4
112,64,7759,2,8,B|128:128|192:144,1,111,8|8
32,16,8098,5,2
64,48,8182,1,0
112,64,8267,1,6
256,80,8437,1,2
480,32,8606,1,8
224,160,8776,2,0,B|336:176|448:160,1,222,2|2
192,240,9284,2,0,B|144:240|80:224,1,111,4|2
160,320,9623,6,0,B|224:320|256:272,1,111,0|2
336,64,9962,1,2
432,128,10132,5,0
208,64,10301,1,4
480,240,10470,5,0
104,113,10640,1,4
387,300,10809,5,2
269,299,10979,1,0
160,112,11318,1,0
224,176,11403,1,0
96,48,11572,1,0
16,352,11148,2,0,B|16:16,1,333,0|8
352,112,11996,1,0
288,176,12081,1,0
416,48,12250,1,0
496,352,11826,2,0,B|496:16,1,333,0|8
160,112,12674,1,0
224,176,12759,1,0
96,48,12928,1,0
16,352,12504,6,0,B|16:16,1,333,0|2
256,32,13182,1,0
496,19,13352,1,2
256,112,13521,1,0
251,237,13860,1,0
384,80,13691,6,0,B|448:96|480:160|448:224|384:240,1,222,2|0
256,112,14199,1,0
192,64,14284,1,0
450,160,14538,1,0
435,209,14623,1,0
320,160,14369,6,0,B|256:176|224:240|256:304|320:320,1,222
512,16,14877,1,0
448,48,14962,1,0
251,237,15216,1,0
384,80,15047,6,0,B|448:96|480:160|448:224|384:240,1,222
160,352,15555,1,0
32,304,15725,1,2
48,224,15894,1,2
192,240,16064,1,0
64,144,16233,1,2
224,128,16403,6,0,B|336:112|432:48,1,222,2|2
381,76,16657,2,0,B|441:132|469:219,1,166.5
132,70,17081,2,0,B|196:101|272:166,1,166.5,0|0
224,127,17250,2,0,B|77:212,1,166.5,2|0
127,182,17420,2,0,B|178:206|221:240,1,111,2|0
368,352,17928,2,0,B|352:288,2,55.5
464,304,17759,6,0,B|368:352|256:432|128:352|48:304,1,444,2|8
149,353,18267,2,0,B|95:339|58:281|55:210,1,166.5,2|0
352,272,18606,2,0,B|368:208|416:176,1,111,0|2
256,304,18945,1,0
95,198,19284,1,0
160,112,19115,6,0,B|144:192|32:224,1,166.5,2|0
44,220,19454,2,0,B|121:243|214:243,1,166.5
250,189,19793,1,0
153,241,19623,2,0,B|272:304|352:192,1,222,2|2
464,80,20132,2,0,B|394:80|368:144,1,111,2|0
254,7,20809,1,0
149,354,20640,2,0,B|256:314|368:355,1,222,2|2
48,80,20470,6,0,B|144:32|256:-48|384:32|464:80,1,444,2|6
48,80,21487,1,2
32,192,21826,5,0
256,192,21995,1,8
400,240,22165,1,2
192,240,22334,1,0
256,288,22419,1,0
320,240,22504,1,0
480,192,22673,1,8
112,240,22843,1,2
320,144,23013,1,0
192,144,23182,1,0
60,336,24538,6,0,B|192:336|208:336|224:320|240:304|256:288|256:272|256:256|272:240|288:224|304:208|320:208|464:208,1,444,0|8
452,336,25216,2,0,B|320:336|304:336|288:320|272:304|256:288|256:272|256:256|240:240|224:224|208:208|192:208|48:208,1,444
57,208,25894,2,0,B|64:112|80:96|96:80|192:80,1,222
256,32,26487,1,0
192,80,26233,2,0,B|192:157|256:178|320:157|320:80,1,222
320,79,26572,2,0,B|416:80|432:96|448:112|454:208,1,222,8|0
454,207,26911,6,0,B|336:208,1,111
57,207,27250,2,0,B|176:208,1,111,0|0
168,207,27420,2,0,B|288:208,1,111
343,207,27589,2,0,B|224:208,1,111,2|0
32,272,27928,6,0,B|151:273,1,111,8|0
143,272,28098,2,0,B|255:272,1,111
320,272,28267,2,0,B|201:273,1,111,2|0
368,336,28606,6,0,B|480:336,1,111,0|2
368,256,28945,2,0,B|416:224|416:160,1,111,0|2
272,48,29284,2,0,B|496:48,1,222,2|0
208,112,29962,5,8
16,128,30470,1,8
224,224,30640,1,8
32,240,30979,1,8
416,208,31318,1,0
224,224,31487,1,8
240,336,31826,1,8
48,352,31996,1,8
432,320,32335,1,8
400,96,32674,5,0
208,112,32843,1,0
16,128,33013,1,0
416,208,33182,1,0
32,240,33352,1,0
48,352,33521,1,0
240,336,33691,1,0
432,320,33860,1,0
144,48,35555,2,0,B|160:112|224:128,1,111
288,112,35725,1,0
368,48,35894,1,0
32,48,35386,6,0,B|480:48,1,444
476,47,36233,2,0,B|460:111|396:127,1,111
288,208,36572,1,0
368,352,36911,2,0,B|352:288|288:272,1,111
256,352,37081,1,0
151,349,37250,2,0,B|127:291|72:275,1,111
144,192,37589,1,0
480,352,36742,2,0,B|32:352|16:352|0:336|0:320|0:304|16:288|32:288|32:128,1,666
31,137,37759,2,0,B|32:64|96:48,1,111
416,48,38098,5,0
448,160,38267,2,0,B|336:176,1,111
338,175,38437,2,0,B|448:160,1,111
480,336,38776,1,0
352,352,38945,2,0,B|240:320,1,111
245,321,39115,2,0,B|352:352,1,111
128,336,39454,1,0
80,256,39623,1,0
176,224,39793,1,0
32,176,39962,1,0
128,112,40132,1,0
224,48,40301,1,0
224,48,40470,1,0
320,112,40640,1,0
448,80,40809,5,6
400,224,40979,2,0,B|464:208|480:144,1,111,2|0
336,272,41318,1,2
272,320,41487,2,0,B|160:304|48:352,1,222,2|0
192,176,41911,1,0
144,224,41996,1,0
96,272,42081,1,0
32,304,42165,6,0,B|96:288|144:304,1,111,4|2
256,256,42504,1,8
480,304,42674,2,0,B|416:288|368:304,1,111,4|2
32,80,43013,2,0,B|96:96|144:80,2,111
256,32,43521,6,0,B|320:32|368:80,1,111,6|2
432,48,43776,1,0
512,32,43860,2,0,B|528:96|496:144,1,111,8|2
256,160,44199,2,0,B|192:256|240:384,1,222,2|4
464,352,44708,2,0,B|480:288|432:240,1,111,4|2
48,32,45047,2,0,B|32:96|80:144,1,111,4|2
432,176,45555,1,2
256,192,45724,1,2
80,208,45894,1,2
256,192,45725,2,0,B|128:192,1,111,0|2
