osu file format v14

[General]
AudioFilename: Evil Or Live Opening.mp3
AudioLeadIn: 0
PreviewTime: 55228
Countdown: 0
SampleSet: Soft
StackLeniency: 0.7
Mode: 0
LetterboxInBreaks: 0
WidescreenStoryboard: 1

[Editor]
DistanceSpacing: 1.1
BeatDivisor: 2
GridSize: 4
TimelineZoom: 2.1

[Metadata]
Title:Soredemo Boku wa Ikiteiru
TitleUnicode:それでも僕は生きている
Artist:NormCore
ArtistUnicode:NormCore
Creator:-_vicX_-
Version:Normal
Source:イーブル オア ライブ
Tags:Umi Kuun Fumi Tokyo Mx Short TV Size: lian2002 Juanilp4evr Mithia ARGENTINE DREAM Un-plugged Feinzer
BeatmapID:1505097
BeatmapSetID:711922

[Difficulty]
HPDrainRate:3
CircleSize:2.4
OverallDifficulty:3
ApproachRate:5
SliderMultiplier:0.900000005960464
SliderTickRate:1

[Events]
//Background and Video events
0,0,"BG STD.jpg",0,0
Video,0,"Evil Or Live Op.avi"
//Break Periods
2,12357,13287
2,40318,51151
//Storyboard Layer 0 (Background)
//Storyboard Layer 1 (Fail)
//Storyboard Layer 2 (Pass)
//Storyboard Layer 3 (Foreground)
//Storyboard Sound Samples

[TimingPoints]
507,291.26213592233,4,2,2,70,1,0
2837,-100,4,2,2,70,0,0
12157,-100,4,2,1,60,0,0
14051,-100,4,2,2,70,0,0
14488,-100,4,2,1,70,0,0
23517,-100,4,2,2,70,0,0
40118,291.26213592233,3,2,2,100,1,0
55846,291.26213592233,4,2,2,70,1,1
58176,-100,4,2,2,70,0,1
62836,-100,4,2,2,70,0,0
65166,-100,4,2,2,70,0,1
74486,-100,4,2,2,70,0,0
79146,-100,4,2,2,70,0,0
88321,-100,4,2,2,70,0,0

[Colours]
Combo1 : 205,205,205
Combo2 : 157,0,0

[HitObjects]
252,276,2837,6,0,L|432:268,2,180.000001192093,4|0|0,0:0|0:0|0:0,0:0:0:0:
168,232,4293,1,8,0:0:0:0:
100,160,4584,2,0,P|164:132|196:136,1,90.0000005960464,0|8,0:0|0:0,0:0:0:0:
276,168,5167,6,0,P|365:173|424:108,2,180.000001192093
328,84,6623,1,8,0:0:0:0:
408,24,6914,2,0,P|456:28|496:60,1,90.0000005960464,0|8,0:0|0:0,0:0:0:0:
508,148,7497,6,0,L|496:328,1,180.000001192093
400,352,8371,1,8,0:0:0:0:
308,312,8662,2,0,P|212:308|120:364,1,180.000001192093
60,284,9536,1,8,0:0:0:0:
64,184,9827,6,0,P|152:192|228:132,1,180.000001192093
280,60,10701,1,8,0:0:0:0:
332,144,10992,2,0,P|403:195|490:187,2,180.000001192093,0|0|8,0:0|0:0|0:0,0:0:0:0:
56,244,14487,6,0,L|236:232,1,180.000001192093,6|8,0:0|0:0,0:0:0:0:
392,352,15652,2,0,L|212:340,1,180.000001192093,8|8,0:0|0:0,0:0:0:0:
56,244,16817,5,8,0:0:0:0:
235,232,17400,1,8,0:0:0:0:
392,352,17982,2,0,L|212:340,1,180.000001192093,8|8,0:0|0:0,0:0:0:0:
124,296,18856,1,8,0:0:0:0:
44,236,19147,6,0,P|128:196|208:240,1,180.000001192093,10|8,0:0|0:0,0:0:0:0:
276,296,20021,2,0,L|328:288,1,45.0000002980232,8|8,0:0|0:0,0:0:0:0:
464,320,20604,1,0,0:0:0:0:
484,224,20895,1,8,0:0:0:0:
420,148,21186,1,8,0:0:0:0:
320,132,21477,6,0,L|184:136,2,135.00000089407,8|8|6,0:0|0:0|0:0,0:0:0:0:
336,144,22497,2,0,L|436:140,1,90.0000005960464
392,244,23079,1,0,0:0:0:0:
304,308,23371,1,0,0:0:0:0:
196,336,23662,1,0,0:0:0:0:
196,336,23807,6,0,P|148:336|104:308,1,90.0000005960464,4|8,0:0|0:0,0:0:0:0:
172,236,24390,2,0,L|160:184,2,45.0000002980232,0|0|8,0:0|0:0|0:0,0:0:0:0:
264,268,24973,2,0,P|336:276|416:244,2,135.00000089407,0|0|8,0:0|0:0|0:0,0:0:0:0:
172,236,26138,6,0,L|80:240,1,90.0000005960464,0|8,0:0|0:0,0:0:0:0:
100,144,26720,2,0,L|92:92,2,45.0000002980232,0|0|8,0:0|0:0|0:0,0:0:0:0:
200,152,27303,2,0,L|336:140,2,135.00000089407,0|0|8,0:0|0:0|0:0,0:0:0:0:
156,64,28468,6,0,L|340:48,1,180.000001192093,2|0,0:0|0:0,0:0:0:0:
376,76,29196,2,0,L|512:64,2,135.00000089407,8|0|8,0:0|0:0|0:0,0:0:0:0:
356,120,30215,2,0,P|392:172|424:200,1,90.0000005960464,0|8,0:0|0:0,0:0:0:0:
484,264,30798,6,0,L|392:276,1,90.0000005960464,2|8,0:0|0:0,0:0:0:0:
340,260,31235,2,0,L|288:264,1,45.0000002980232,0|8,0:0|0:0,0:0:0:0:
244,256,31526,2,0,L|136:268,1,90.0000005960464,0|4,0:0|0:0,0:0:0:0:
84,180,32108,2,0,L|184:168,1,90.0000005960464,4|4,0:0|0:0,0:0:0:0:
272,156,32691,2,0,L|372:144,1,90.0000005960464
412,140,33128,6,0,L|464:132,1,45.0000002980232,4|0,0:0|0:0,0:0:0:0:
336,44,33710,2,0,L|244:56,1,90.0000005960464,0|8,0:0|0:0,0:0:0:0:
172,120,34293,6,0,L|308:132,1,135.00000089407,4|0,0:0|0:0,0:0:0:0:
432,212,35167,1,8,0:0:0:0:
432,212,35458,6,0,L|296:224,1,135.00000089407,4|0,0:0|0:0,0:0:0:0:
152,256,36332,1,8,0:0:0:0:
84,184,36623,2,0,P|132:160|188:164,1,90.0000005960464,0|8,0:0|0:0,0:0:0:0:
264,188,37206,2,0,P|316:192|364:172,1,90.0000005960464,0|8,0:0|0:0,0:0:0:0:
416,256,37788,6,0,P|360:284|320:288,2,90.0000005960464,4|8|0,0:0|0:0|0:0,0:0:0:0:
428,156,38662,1,8,0:0:0:0:
356,84,38954,1,8,0:0:0:0:
264,52,39244,1,8,0:0:0:0:
168,72,39536,1,8,0:0:0:0:
104,148,39827,2,0,L|56:144,2,45.0000002980232,8|0|2,0:0|0:0|0:0,0:0:0:0:
256,192,52351,12,6,54972,0:0:0:0:
312,244,55846,6,0,L|492:232,2,180.000001192093,4|0|0,0:0|0:0|0:0,0:0:0:0:
268,156,57302,1,8,0:0:0:0:
180,200,57593,1,0,0:0:0:0:
224,288,57884,1,8,0:0:0:0:
312,244,58176,6,0,P|320:180|236:108,2,180.000001192093
220,212,59632,1,8,0:0:0:0:
128,244,59923,2,0,P|64:248|20:212,1,90.0000005960464,0|8,0:0|0:0,0:0:0:0:
92,152,60506,6,0,L|264:88,2,180.000001192093,2|0|0,0:0|0:0|0:0,0:0:0:0:
80,252,61962,1,8,0:0:0:0:
128,340,62253,1,0,0:0:0:0:
224,368,62545,1,8,0:0:0:0:
316,332,62836,6,0,B|344:348|344:348|404:344,1,90.0000005960464,4|8,0:0|0:0,0:0:0:0:
456,252,63418,2,0,L|364:256,1,90.0000005960464,4|8,0:0|0:0,0:0:0:0:
268,236,64001,2,0,L|176:240,1,90.0000005960464,4|8,0:0|0:0,0:0:0:0:
88,196,64583,2,0,P|120:156|156:143,1,90.0000005960464,4|8,0:0|0:0,0:0:0:0:
148,44,65166,6,0,P|72:68|-4:156,2,180.000001192093,4|0|0,0:0|0:0|0:0,0:0:0:0:
220,112,66622,1,8,0:0:0:0:
312,148,66913,1,0,0:0:0:0:
408,120,67205,1,8,0:0:0:0:
472,44,67496,6,0,L|292:32,2,180.000001192093,2|0|0,0:0|0:0|0:0,0:0:0:0:
424,132,68952,1,8,0:0:0:0:
324,148,69244,2,0,L|232:144,1,90.0000005960464,0|8,0:0|0:0,0:0:0:0:
152,88,69826,6,0,P|140:184|208:240,2,180.000001192093,2|0|0,0:0|0:0|0:0,0:0:0:0:
64,40,71282,1,8,0:0:0:0:
20,128,71574,1,0,0:0:0:0:
36,224,71865,1,8,0:0:0:0:
92,308,72156,6,0,P|128:344|176:364,1,90.0000005960464,4|0,0:0|0:0,0:0:0:0:
180,264,72739,2,0,P|236:284|280:280,1,90.0000005960464,4|8,0:0|0:0,0:0:0:0:
240,188,73321,2,0,P|288:184|336:160,1,90.0000005960464,4|8,0:0|0:0,0:0:0:0:
260,92,73904,2,0,P|304:64|328:24,1,90.0000005960464,4|8,0:0|0:0,0:0:0:0:
256,192,74486,12,14,78564,0:0:0:0:
312,244,79146,6,0,L|492:240,2,180.000001192093,4|0|0,0:0|0:0|0:0,0:0:0:0:
216,224,80603,1,8,0:0:0:0:
132,168,80894,2,0,P|168:132|232:124,1,90.0000005960464,0|8,0:0|0:0,0:0:0:0:
300,152,81477,6,0,P|356:160|460:92,2,180.000001192093,2|0|0,0:0|0:0|0:0,0:0:0:0:
204,121,82933,1,8,0:0:0:0:
300,152,83224,2,0,L|288:244,1,90.0000005960464,0|8,0:0|0:0,0:0:0:0:
388,228,83807,6,0,L|408:40,2,180.000001192093,2|0|0,0:0|0:0|0:0,0:0:0:0:
296,188,85263,1,8,0:0:0:0:
212,136,85554,2,0,P|192:92|208:36,1,90.0000005960464,0|8,0:0|0:0,0:0:0:0:
292,80,86137,6,0,L|472:68,2,180.000001192093,2|0|0,0:0|0:0|0:0,0:0:0:0:
196,100,87593,2,0,P|148:100|96:72,1,90.0000005960464,8|8,0:0|0:0,0:0:0:0:
108,184,88176,2,0,L|120:232,1,45.0000002980232,8|8,0:0|0:0,0:0:0:0:
