osu file format v14

[General]
AudioFilename: Evil Or Live Opening.mp3
AudioLeadIn: 0
PreviewTime: 55228
Countdown: 0
SampleSet: Normal
StackLeniency: 0.7
Mode: 1
LetterboxInBreaks: 0
WidescreenStoryboard: 1

[Editor]
DistanceSpacing: 1.3
BeatDivisor: 4
GridSize: 32
TimelineZoom: 2.3

[Metadata]
Title:Soredemo Boku wa Ikiteiru
TitleUnicode:それでも僕は生きている
Artist:NormCore
ArtistUnicode:NormCore
Creator:-_vicX_-
Version:Muzukashii
Source:イーブル オア ライブ
Tags:Umi Kuun Fumi Tokyo Mx Short TV Size: lian2002 Juanilp4evr Mithia ARGENTINE DREAM Un-plugged Feinzer
BeatmapID:1505091
BeatmapSetID:711922

[Difficulty]
HPDrainRate:5
CircleSize:3
OverallDifficulty:5
ApproachRate:6
SliderMultiplier:1.40000000596046
SliderTickRate:1

[Events]
//Background and Video events
0,0,"Bg Taiko.png",0,0
//Break Periods
2,12211,13000
//Storyboard Layer 0 (Background)
//Storyboard Layer 1 (Fail)
//Storyboard Layer 2 (Pass)
//Storyboard Layer 3 (Foreground)
//Storyboard Sound Samples

[TimingPoints]
507,291.26213592233,4,1,0,70,1,0
2851,-100,4,1,0,70,0,0
14647,-100,4,1,0,40,0,0
23676,-100,4,1,0,60,0,0
40118,291.26213592233,3,1,0,100,1,0
55846,291.26213592233,4,1,0,70,1,0
55864,-100,4,1,0,70,0,1
62836,-100,4,1,0,100,0,0
65166,-100,4,1,0,100,0,1
74486,-100,4,1,0,70,0,0
74501,-100,4,1,0,70,0,0

[Colours]
Combo1 : 241,35,40
Combo2 : 106,0,0
Combo3 : 41,41,41
Combo4 : 135,67,67

[HitObjects]
256,192,2545,5,4,0:0:0:0:
256,192,2837,1,8,0:0:0:0:
256,192,2982,1,0,0:0:0:0:
256,192,3128,1,8,0:0:0:0:
256,192,3273,1,0,0:0:0:0:
256,192,3419,1,8,0:0:0:0:
256,192,3565,1,0,0:0:0:0:
256,192,3710,1,8,0:0:0:0:
256,192,3856,1,8,0:0:0:0:
256,192,4147,1,0,0:0:0:0:
256,192,4293,1,8,0:0:0:0:
256,192,4439,1,8,0:0:0:0:
256,192,4584,1,0,0:0:0:0:
256,192,4730,1,0,0:0:0:0:
256,192,4875,1,8,0:0:0:0:
256,192,5167,1,8,0:0:0:0:
256,192,5312,1,8,0:0:0:0:
256,192,5458,1,0,0:0:0:0:
256,192,5604,1,0,0:0:0:0:
256,192,5749,1,8,0:0:0:0:
256,192,5895,1,0,0:0:0:0:
256,192,6040,1,8,0:0:0:0:
256,192,6186,1,8,0:0:0:0:
256,192,6477,1,0,0:0:0:0:
256,192,6623,1,8,0:0:0:0:
256,192,6769,1,8,0:0:0:0:
256,192,6914,1,0,0:0:0:0:
256,192,6987,1,0,0:0:0:0:
256,192,7060,1,0,0:0:0:0:
256,192,7206,1,8,0:0:0:0:
256,192,7497,1,0,0:0:0:0:
256,192,7642,1,0,0:0:0:0:
256,192,7788,1,8,0:0:0:0:
256,192,7934,1,0,0:0:0:0:
256,192,8079,1,8,0:0:0:0:
256,192,8225,1,0,0:0:0:0:
256,192,8371,1,8,0:0:0:0:
256,192,8516,1,8,0:0:0:0:
256,192,8807,1,0,0:0:0:0:
256,192,8953,1,8,0:0:0:0:
256,192,9244,1,8,0:0:0:0:
256,192,9390,1,0,0:0:0:0:
256,192,9536,1,0,0:0:0:0:
256,192,9827,1,0,0:0:0:0:
256,192,9973,1,0,0:0:0:0:
256,192,10118,1,8,0:0:0:0:
256,192,10264,1,0,0:0:0:0:
256,192,10409,1,8,0:0:0:0:
256,192,10555,1,0,0:0:0:0:
256,192,10701,1,8,0:0:0:0:
256,192,10846,1,8,0:0:0:0:
256,192,11138,1,0,0:0:0:0:
256,192,11283,1,8,0:0:0:0:
256,192,11574,1,8,0:0:0:0:
256,192,11720,1,8,0:0:0:0:
256,192,11866,1,8,0:0:0:0:
256,192,12011,1,0,0:0:0:0:
256,192,14050,5,8,0:0:0:0:
256,192,14196,1,8,0:0:0:0:
256,192,14341,1,8,0:0:0:0:
256,192,14487,1,0,0:0:0:0:
256,192,15070,1,0,0:0:0:0:
256,192,15652,1,0,0:0:0:0:
256,192,15943,1,0,0:0:0:0:
256,192,16235,1,8,0:0:0:0:
256,192,16817,1,0,0:0:0:0:
256,192,17108,1,0,0:0:0:0:
256,192,17400,1,8,0:0:0:0:
256,192,17982,1,0,0:0:0:0:
256,192,18565,1,8,0:0:0:0:
256,192,18710,1,0,0:0:0:0:
256,192,18856,1,0,0:0:0:0:
256,192,19147,1,0,0:0:0:0:
256,192,19730,1,0,0:0:0:0:
256,192,20021,1,0,0:0:0:0:
256,192,20167,1,8,0:0:0:0:
256,192,20604,1,0,0:0:0:0:
256,192,20895,1,8,0:0:0:0:
256,192,21040,1,0,0:0:0:0:
256,192,21186,1,8,0:0:0:0:
256,192,21477,1,0,0:0:0:0:
256,192,22060,1,0,0:0:0:0:
256,192,22497,1,0,0:0:0:0:
256,192,22788,1,8,0:0:0:0:
256,192,23079,1,8,0:0:0:0:
256,192,23371,1,8,0:0:0:0:
256,192,23516,1,4,0:0:0:0:
256,192,23807,1,0,0:0:0:0:
256,192,24099,1,8,0:0:0:0:
256,192,24244,1,0,0:0:0:0:
256,192,24536,1,8,0:0:0:0:
256,192,24681,1,0,0:0:0:0:
256,192,24973,1,0,0:0:0:0:
256,192,25263,1,0,0:0:0:0:
256,192,25409,1,8,0:0:0:0:
256,192,25846,1,8,0:0:0:0:
256,192,26138,1,0,0:0:0:0:
256,192,26429,1,8,0:0:0:0:
256,192,26574,1,0,0:0:0:0:
256,192,26866,1,8,0:0:0:0:
256,192,27011,1,0,0:0:0:0:
256,192,27303,1,0,0:0:0:0:
256,192,27448,1,8,0:0:0:0:
256,192,27740,1,0,0:0:0:0:
256,192,27885,1,8,0:0:0:0:
256,192,28031,1,0,0:0:0:0:
256,192,28176,1,0,0:0:0:0:
256,192,28322,1,8,0:0:0:0:
256,192,28468,1,0,0:0:0:0:
256,192,28759,1,8,0:0:0:0:
256,192,29050,1,8,0:0:0:0:
256,192,29196,1,8,0:0:0:0:
256,192,29341,1,0,0:0:0:0:
256,192,29487,1,8,0:0:0:0:
256,192,29924,1,0,0:0:0:0:
256,192,30070,1,8,0:0:0:0:
256,192,30506,1,8,0:0:0:0:
256,192,30798,1,0,0:0:0:0:
256,192,31089,1,8,0:0:0:0:
256,192,31380,1,8,0:0:0:0:
256,192,31526,1,0,0:0:0:0:
256,192,31817,1,0,0:0:0:0:
256,192,32108,1,8,0:0:0:0:
256,192,32400,1,0,0:0:0:0:
256,192,32691,1,8,0:0:0:0:
256,192,32837,1,8,0:0:0:0:
256,192,32982,1,0,0:0:0:0:
256,192,33055,1,0,0:0:0:0:
256,192,33128,1,0,0:0:0:0:
256,192,33419,1,0,0:0:0:0:
256,192,33565,1,8,0:0:0:0:
256,192,33856,1,0,0:0:0:0:
256,192,34002,1,8,0:0:0:0:
256,192,34293,1,8,0:0:0:0:
256,192,34438,1,8,0:0:0:0:
256,192,34584,1,0,0:0:0:0:
256,192,34729,1,8,0:0:0:0:
256,192,35021,1,8,0:0:0:0:
256,192,35167,1,0,0:0:0:0:
256,192,35312,1,8,0:0:0:0:
256,192,35458,1,0,0:0:0:0:
256,192,35749,1,0,0:0:0:0:
256,192,36040,1,0,0:0:0:0:
256,192,36332,1,8,0:0:0:0:
256,192,36477,1,0,0:0:0:0:
256,192,36623,1,8,0:0:0:0:
256,192,36769,1,8,0:0:0:0:
256,192,37060,1,8,0:0:0:0:
256,192,37206,1,0,0:0:0:0:
256,192,37351,1,8,0:0:0:0:
256,192,37497,1,0,0:0:0:0:
256,192,37788,1,8,0:0:0:0:
256,192,37934,1,8,0:0:0:0:
256,192,38079,1,0,0:0:0:0:
256,192,38225,1,8,0:0:0:0:
256,192,38516,1,8,0:0:0:0:
256,192,38661,1,8,0:0:0:0:
256,192,38807,1,0,0:0:0:0:
256,192,38953,1,8,0:0:0:0:
256,192,39244,1,0,0:0:0:0:
256,192,39536,1,0,0:0:0:0:
256,192,39827,1,8,0:0:0:0:
256,192,39973,1,0,0:0:0:0:
256,192,40045,1,0,0:0:0:0:
256,192,40118,1,0,0:0:0:0:
256,192,40991,1,0,0:0:0:0:
256,192,41865,1,0,0:0:0:0:
256,192,42739,1,8,0:0:0:0:
256,192,43613,1,0,0:0:0:0:
256,192,44486,1,8,0:0:0:0:
256,192,45360,1,8,0:0:0:0:
256,192,46234,1,8,0:0:0:0:
256,192,46525,1,0,0:0:0:0:
256,192,46817,1,8,0:0:0:0:
256,192,47108,1,0,0:0:0:0:
256,192,47399,1,0,0:0:0:0:
256,192,47545,1,8,0:0:0:0:
256,192,47690,1,0,0:0:0:0:
256,192,47982,1,0,0:0:0:0:
256,192,48127,1,0,0:0:0:0:
256,192,48273,1,8,0:0:0:0:
256,192,48418,1,0,0:0:0:0:
256,192,48564,1,8,0:0:0:0:
256,192,48710,1,0,0:0:0:0:
256,192,48855,1,0,0:0:0:0:
256,192,49147,1,0,0:0:0:0:
256,192,49438,1,0,0:0:0:0:
256,192,49729,1,8,0:0:0:0:
256,192,49875,1,0,0:0:0:0:
256,192,50020,1,8,0:0:0:0:
256,192,50312,1,0,0:0:0:0:
256,192,50603,1,0,0:0:0:0:
256,192,51185,1,0,0:0:0:0:
256,192,51477,1,8,0:0:0:0:
256,192,52059,1,8,0:0:0:0:
256,192,52351,5,4,0:0:0:0:
256,192,52642,1,0,0:0:0:0:
256,192,52933,1,0,0:0:0:0:
256,192,53224,1,4,0:0:0:0:
256,192,53516,1,0,0:0:0:0:
256,192,53807,1,0,0:0:0:0:
256,192,54098,1,4,0:0:0:0:
256,192,54244,1,4,0:0:0:0:
256,192,54389,1,4,0:0:0:0:
256,192,54535,1,4,0:0:0:0:
256,192,54681,1,4,0:0:0:0:
256,192,54826,1,4,0:0:0:0:
256,192,55409,1,0,0:0:0:0:
256,192,55554,1,8,0:0:0:0:
256,192,55700,1,8,0:0:0:0:
256,192,55846,1,4,0:0:0:0:
256,192,56137,1,0,0:0:0:0:
256,192,56282,1,8,0:0:0:0:
256,192,56574,1,8,0:0:0:0:
256,192,56646,1,8,0:0:0:0:
256,192,56719,1,8,0:0:0:0:
256,192,56865,1,8,0:0:0:0:
256,192,57011,1,0,0:0:0:0:
256,192,57302,1,8,0:0:0:0:
256,192,57447,1,0,0:0:0:0:
256,192,57739,1,8,0:0:0:0:
256,192,57884,1,0,0:0:0:0:
256,192,58030,1,8,0:0:0:0:
256,192,58176,1,0,0:0:0:0:
256,192,58467,1,0,0:0:0:0:
256,192,58612,1,8,0:0:0:0:
256,192,58904,1,8,0:0:0:0:
256,192,59195,1,0,0:0:0:0:
256,192,59341,1,8,0:0:0:0:
256,192,59486,1,0,0:0:0:0:
256,192,59632,1,8,0:0:0:0:
256,192,59778,1,8,0:0:0:0:
256,192,60069,1,0,0:0:0:0:
256,192,60214,1,8,0:0:0:0:
256,192,60360,1,0,0:0:0:0:
256,192,60506,1,0,0:0:0:0:
256,192,60797,1,8,0:0:0:0:
256,192,60943,1,0,0:0:0:0:
256,192,61234,1,0,0:0:0:0:
256,192,61379,1,8,0:0:0:0:
256,192,61525,1,0,0:0:0:0:
256,192,61671,1,8,0:0:0:0:
256,192,61962,1,0,0:0:0:0:
256,192,62108,1,8,0:0:0:0:
256,192,62399,1,0,0:0:0:0:
256,192,62545,1,8,0:0:0:0:
256,192,62690,1,0,0:0:0:0:
256,192,62836,1,0,0:0:0:0:
256,192,62909,1,0,0:0:0:0:
256,192,62981,1,0,0:0:0:0:
256,192,63127,1,8,0:0:0:0:
256,192,63418,1,0,0:0:0:0:
256,192,63491,1,0,0:0:0:0:
256,192,63564,1,0,0:0:0:0:
256,192,63710,1,8,0:0:0:0:
256,192,64001,1,0,0:0:0:0:
256,192,64074,1,0,0:0:0:0:
256,192,64146,1,0,0:0:0:0:
256,192,64292,1,0,0:0:0:0:
256,192,64365,1,0,0:0:0:0:
256,192,64438,1,8,0:0:0:0:
256,192,64583,1,8,0:0:0:0:
256,192,64729,1,0,0:0:0:0:
256,192,64875,1,8,0:0:0:0:
256,192,65166,1,0,0:0:0:0:
256,192,65312,1,0,0:0:0:0:
256,192,65457,1,8,0:0:0:0:
256,192,65603,1,8,0:0:0:0:
256,192,65894,1,8,0:0:0:0:
256,192,66040,1,8,0:0:0:0:
256,192,66185,1,0,0:0:0:0:
256,192,66331,1,0,0:0:0:0:
256,192,66622,1,0,0:0:0:0:
256,192,66768,1,8,0:0:0:0:
256,192,67059,1,8,0:0:0:0:
256,192,67132,1,8,0:0:0:0:
256,192,67205,1,8,0:0:0:0:
256,192,67350,1,0,0:0:0:0:
256,192,67496,1,0,0:0:0:0:
256,192,67787,1,8,0:0:0:0:
256,192,67933,1,0,0:0:0:0:
256,192,68224,1,8,0:0:0:0:
256,192,68515,1,8,0:0:0:0:
256,192,68661,1,0,0:0:0:0:
256,192,68807,1,0,0:0:0:0:
256,192,68952,1,8,0:0:0:0:
256,192,69098,1,0,0:0:0:0:
256,192,69389,1,8,0:0:0:0:
256,192,69535,1,8,0:0:0:0:
256,192,69680,1,0,0:0:0:0:
256,192,69826,1,0,0:0:0:0:
256,192,70117,1,0,0:0:0:0:
256,192,70263,1,8,0:0:0:0:
256,192,70700,1,8,0:0:0:0:
256,192,70846,1,0,0:0:0:0:
256,192,70991,1,8,0:0:0:0:
256,192,71137,1,0,0:0:0:0:
256,192,71282,1,0,0:0:0:0:
256,192,71428,1,8,0:0:0:0:
256,192,71574,1,8,0:0:0:0:
256,192,71865,1,8,0:0:0:0:
256,192,72156,1,0,0:0:0:0:
256,192,72447,1,4,0:0:0:0:
256,192,72739,1,8,0:0:0:0:
256,192,72884,1,0,0:0:0:0:
256,192,73030,1,0,0:0:0:0:
256,192,73176,1,8,0:0:0:0:
256,192,73467,1,0,0:0:0:0:
256,192,73612,1,8,0:0:0:0:
256,192,73904,1,8,0:0:0:0:
256,192,74049,1,0,0:0:0:0:
256,192,74195,1,0,0:0:0:0:
256,192,74341,1,8,0:0:0:0:
256,192,74486,1,4,0:0:0:0:
256,192,74923,1,8,0:0:0:0:
256,192,75360,1,0,0:0:0:0:
256,192,75797,1,8,0:0:0:0:
256,192,76234,1,0,0:0:0:0:
256,192,76379,1,0,0:0:0:0:
256,192,76525,1,8,0:0:0:0:
256,192,76671,1,0,0:0:0:0:
256,192,76744,1,0,0:0:0:0:
256,192,76816,1,8,0:0:0:0:
256,192,77399,1,0,0:0:0:0:
256,192,77981,1,8,0:0:0:0:
256,192,78273,1,0,0:0:0:0:
256,192,78564,1,8,0:0:0:0:
256,192,78710,1,0,0:0:0:0:
256,192,78855,1,8,0:0:0:0:
256,192,79001,1,0,0:0:0:0:
256,192,79074,1,0,0:0:0:0:
256,192,79146,1,8,0:0:0:0:
256,192,79291,1,0,0:0:0:0:
256,192,79437,1,8,0:0:0:0:
256,192,79582,1,0,0:0:0:0:
256,192,79728,1,8,0:0:0:0:
256,192,79874,1,0,0:0:0:0:
256,192,80019,1,8,0:0:0:0:
256,192,80165,1,8,0:0:0:0:
256,192,80456,1,0,0:0:0:0:
256,192,80602,1,8,0:0:0:0:
256,192,80748,1,8,0:0:0:0:
256,192,80893,1,0,0:0:0:0:
256,192,81039,1,0,0:0:0:0:
256,192,81184,1,8,0:0:0:0:
256,192,81476,1,8,0:0:0:0:
256,192,81621,1,8,0:0:0:0:
256,192,81767,1,0,0:0:0:0:
256,192,81913,1,0,0:0:0:0:
256,192,82058,1,8,0:0:0:0:
256,192,82204,1,0,0:0:0:0:
256,192,82349,1,8,0:0:0:0:
256,192,82495,1,8,0:0:0:0:
256,192,82786,1,0,0:0:0:0:
256,192,82932,1,8,0:0:0:0:
256,192,83078,1,8,0:0:0:0:
256,192,83223,1,0,0:0:0:0:
256,192,83296,1,0,0:0:0:0:
256,192,83369,1,0,0:0:0:0:
256,192,83515,1,8,0:0:0:0:
256,192,83806,1,0,0:0:0:0:
256,192,83951,1,0,0:0:0:0:
256,192,84097,1,8,0:0:0:0:
256,192,84243,1,0,0:0:0:0:
256,192,84388,1,8,0:0:0:0:
256,192,84534,1,0,0:0:0:0:
256,192,84680,1,8,0:0:0:0:
256,192,84825,1,8,0:0:0:0:
256,192,85116,1,0,0:0:0:0:
256,192,85262,1,8,0:0:0:0:
256,192,85553,1,8,0:0:0:0:
256,192,85699,1,0,0:0:0:0:
256,192,85845,1,0,0:0:0:0:
256,192,86136,1,0,0:0:0:0:
256,192,86282,1,0,0:0:0:0:
256,192,86427,1,8,0:0:0:0:
256,192,86573,1,0,0:0:0:0:
256,192,86718,1,8,0:0:0:0:
256,192,86864,1,0,0:0:0:0:
256,192,87010,1,8,0:0:0:0:
256,192,87155,1,8,0:0:0:0:
256,192,87447,1,0,0:0:0:0:
256,192,87592,1,8,0:0:0:0:
256,192,87883,1,4,0:0:0:0:
256,192,88029,1,4,0:0:0:0:
256,192,88175,1,4,0:0:0:0:
256,192,88320,1,6,0:0:0:0:
