osu file format v10

[General]
AudioFilename: 111 Confess the Truth 2009.mp3
AudioLeadIn: 0
PreviewTime: 9500
Countdown: 0
SampleSet: Normal
StackLeniency: 0.7
Mode: 0
LetterboxInBreaks: 1

[Editor]
DistanceSpacing: 1.1
BeatDivisor: 4
GridSize: 4

[Metadata]
Title:Confess the Truth 2009
TitleUnicode:
Artist:Noriyuki Iwadare, Yasuko Yamada
ArtistUnicode:
Creator:HikaruAikawa
Version:Average Detective
Source:Miles Edgeworth: Ace Attorney Investigations
Tags:capcom AAI OST
BeatmapID:124815
BeatmapSetID:35568

[Difficulty]
HPDrainRate:5
CircleSize:4
OverallDifficulty:4
ApproachRate:5
SliderMultiplier:1.4
SliderTickRate:2

[Events]
//Background and Video events
0,0,"miles-edgeworth-ace-attorney-investigations-wallpaper-2.jpg"
//Break Periods
2,36567,47168
//Storyboard Layer 0 (Background)
//Storyboard Layer 1 (Fail)
//Storyboard Layer 2 (Pass)
//Storyboard Layer 3 (Foreground)
//Storyboard Sound Samples
//Background Colour Transformations
3,100,163,162,255

[TimingPoints]
3035,666.666666666667,4,1,0,78,1,0
107666,666.666666666667,4,1,0,78,1,0

[Colours]
Combo1 : 255,128,0
Combo2 : 5,240,5
Combo3 : 5,5,240
Combo4 : 240,5,5

[HitObjects]
256,160,9701,1,0,0:0:0
180,164,10035,1,8,0:0:0
148,188,10201,1,8,0:0:0
116,164,10368,1,8,0:0:0
116,240,10701,2,0,B|148:272|180:240,4,70
116,164,12368,5,8,0:0:0
208,92,12868,1,8,0:0:0
300,164,13368,1,8,0:0:0
436,92,14034,2,0,B|468:60|436:28,4,70
360,96,15701,1,8,0:0:0
360,96,15868,1,8,0:0:0
296,96,16201,1,8,0:0:0
296,96,16368,1,8,0:0:0
220,96,16701,6,8,B|220:192,1,70
220,244,17368,2,0,B|188:276|156:244,4,70
220,320,19035,1,8,0:0:0
336,320,19535,1,8,0:0:0
452,320,20035,1,8,0:0:0
336,220,20701,6,0,B|368:188|336:156,4,70
336,296,22368,1,0,0:0:0
304,272,22535,1,0,0:0:0
276,300,22701,1,0,0:0:0
252,272,22868,1,0,0:0:0
228,300,23035,1,0,0:0:0
24,192,24035,6,0,B|-8:160|24:128,4,70
100,192,25701,1,8,0:0:0
100,76,26201,1,8,0:0:0
212,108,26701,1,8,0:0:0
364,128,27368,6,0,B|396:160|364:192,4,70
288,124,29035,6,8,B|288:252,1,105
288,268,29701,2,8,B|384:268,1,70
324,200,30368,1,0,0:0:0
292,128,30701,2,0,B|324:96|356:128,4,70
216,128,32368,5,8,0:0:0
216,244,32868,1,8,0:0:0
216,360,33368,1,8,0:0:0
72,308,34035,2,0,B|40:340|8:308,4,70
148,304,35701,6,4,B|188:304,1,35
184,228,36201,2,4,B|144:228,1,35
256,192,48368,12,0,49701,0:0:0
256,96,50701,5,8,0:0:0
256,96,50868,1,8,0:0:0
256,212,51368,2,0,B|216:252|168:252|128:212,1,140,0|4,0:0|0:0,0:0:0
348,296,53034,1,8,0:0:0
480,216,53701,1,8,0:0:0
480,60,54368,6,0,B|384:60,2,70
248,60,56034,1,8,0:0:0
248,60,56201,1,8,0:0:0
252,176,56701,1,2,0:0:0
152,60,57368,2,0,B|152:284|152:284|280:284,1,350,2|6,0:0|0:0,0:0:0
248,92,59868,5,4,0:0:0
248,92,60034,1,4,0:0:0
324,92,60368,1,8,0:0:0
324,92,60534,1,8,0:0:0
476,208,61368,1,8,0:0:0
476,208,61534,1,8,0:0:0
480,324,62034,1,2,0:0:0
324,320,62701,2,0,B|100:320|100:320|100:192,1,350,0|4,0:0|0:0,0:0:0
248,160,65034,5,8,0:0:0
272,128,65201,1,0,0:0:0
308,112,65368,1,0,0:0:0
340,132,65534,1,0,0:0:0
364,164,65701,2,0,B|364:208,1,35,0|4,0:0|0:0,0:0:0
268,264,66368,5,0,0:0:0
188,312,66701,2,0,B|140:312,1,35,8|8,0:0|0:0,0:0:0
48,312,67368,2,0,B|48:156,1,140
256,192,68368,12,0,71034,0:0:0
