osu file format v12

[General]
AudioFilename: Godot's Theme 'The Fragrance of Dark Coffee'.mp3
AudioLeadIn: 0
PreviewTime: 41964
Countdown: 0
SampleSet: Soft
StackLeniency: 0.7
Mode: 0
LetterboxInBreaks: 1
WidescreenStoryboard: 1

[Editor]
DistanceSpacing: 1
BeatDivisor: 6
GridSize: 8

[Metadata]
Title:The Fragrance Of Dark Coffee
TitleUnicode:The Fragrance Of Dark Coffee
Artist:Noriyuki Iwadare
ArtistUnicode:Noriyuki Iwadare
Creator:MasterKirin
Version:Godot
Source:Phoenix Wright Ace Attorney
Tags:godot trials and tribulations
BeatmapID:304553
BeatmapSetID:118466

[Difficulty]
HPDrainRate:6
CircleSize:4
OverallDifficulty:6
ApproachRate:9
SliderMultiplier:2
SliderTickRate:1

[Events]
//Background and Video events
0,0,"godot_wallpaper__3_by_darkmatter89-d5b9rkk.jpg",0,0
//Break Periods
//Storyboard Layer 0 (Background)
//Storyboard Layer 1 (Fail)
//Storyboard Layer 2 (Pass)
//Storyboard Layer 3 (Foreground)
//Storyboard Sound Samples
//Background Colour Transformations
3,100,163,162,255

[TimingPoints]
1769,837.404047452896,4,2,0,100,1,0

[Colours]
Combo1 : 128,0,0
Combo2 : 0,128,128
Combo3 : 255,255,255
Combo4 : 255,211,132

[HitObjects]
88,312,1769,2,2,P|112:224|152:120,1,200
368,136,3443,1,2,0:0:0:0:
456,256,4002,1,8,0:0:0:0:
176,336,5118,1,2,0:0:0:0:
320,328,5676,5,8,0:0:0:0:
360,264,5956,1,8,0:0:0:0:
368,192,6235,1,8,0:0:0:0:
360,120,6514,1,8,0:0:0:0:
344,48,6793,1,8,0:0:0:0:
200,40,7351,5,8,0:0:0:0:
192,112,7630,1,8,0:0:0:0:
192,184,7909,1,8,0:0:0:0:
200,256,8189,1,8,0:0:0:0:
224,328,8468,1,8,0:0:0:0:
256,32,9584,5,8,0:0:0:0:
256,168,9863,1,8,0:0:0:0:
208,40,10143,1,8,0:0:0:0:
288,144,10422,1,8,0:0:0:0:
176,72,10701,1,8,0:0:0:0:
304,112,10980,1,8,0:0:0:0:
168,112,11259,1,8,0:0:0:0:
296,72,11538,1,8,0:0:0:0:
256,192,11817,12,0,14330,0:0:0:0:
256,192,14609,5,2,0:0:0:0:
256,56,15167,1,2,0:0:0:0:
384,40,15725,1,8,0:0:0:0:
384,104,16004,1,8,0:0:0:0:
384,240,16563,5,8,0:0:0:0:
384,176,16842,1,8,0:0:0:0:
264,240,17400,1,8,0:0:0:0:
264,176,17679,1,8,0:0:0:0:
152,248,18237,1,8,0:0:0:0:
152,184,18517,1,8,0:0:0:0:
392,304,19075,5,8,0:0:0:0:
424,176,19354,1,10,0:0:0:0:
328,272,19633,1,8,0:0:0:0:
368,144,19912,1,10,0:0:0:0:
280,248,20191,1,8,0:0:0:0:
320,120,20471,1,10,0:0:0:0:
220,218,20750,2,8,L|280:248,1,66.6666666666667
144,40,21587,5,2,0:0:0:0:
208,40,21866,1,2,0:0:0:0:
257,278,22704,1,8,0:0:0:0:
181,236,22983,1,8,0:0:0:0:
180,149,23262,1,8,0:0:0:0:
254,105,23541,1,8,0:0:0:0:
330,147,23820,1,8,0:0:0:0:
331,234,24099,1,8,0:0:0:0:
456,280,24658,6,2,L|456:352,1,66.6666666666667
256,192,25216,12,0,27728,0:0:0:0:
256,192,28007,5,2,0:0:0:0:
256,192,28286,1,2,0:0:0:0:
320,192,28565,2,8,P|320:280|72:280,1,400
192,216,30799,5,8,0:0:0:0:
192,152,31078,1,8,0:0:0:0:
192,88,31357,1,8,0:0:0:0:
192,24,31636,1,8,0:0:0:0:
256,32,31915,2,8,P|304:40|368:328,2,400
136,192,36102,5,8,0:0:0:0:
240,104,36381,1,8,0:0:0:0:
344,192,36660,1,8,0:0:0:0:
240,272,36939,1,8,0:0:0:0:
240,184,37777,5,2,0:0:0:0:
256,192,38614,12,0,41126,0:0:0:0:
224,312,41964,5,8,0:0:0:0:
192,264,42243,2,0,L|152:208,1,66.6666666666667
120,152,42801,1,8,0:0:0:0:
176,112,43080,2,0,L|240:64,1,66.6666666666667
288,104,43639,1,8,0:0:0:0:
336,152,43918,6,0,L|400:208,1,66.6666666666667
440,232,44476,1,8,0:0:0:0:
408,360,45034,1,8,0:0:0:0:
344,360,45314,2,8,P|256:360|104:8,1,533.333333333333
168,24,47826,1,0,0:0:0:0:
304,32,48384,5,0,0:0:0:0:
368,32,48663,2,8,B|488:32|488:32|488:192|488:192|224:192,1,533.333333333333
144,352,51454,1,0,0:0:0:0:
144,184,51734,1,0,0:0:0:0:
144,352,52013,1,0,0:0:0:0:
144,184,52292,1,0,0:0:0:0:
232,272,52571,5,0,0:0:0:0:
64,272,52850,1,0,0:0:0:0:
144,64,53408,1,0,0:0:0:0:
144,64,53688,1,0,0:0:0:0:
256,192,54525,1,0,0:0:0:0:
328,112,55362,6,0,L|384:48,1,66.6666666666667
408,16,55921,1,0,0:0:0:0:
408,216,56758,2,0,L|408:264,2,33.3333333333333
224,336,57875,5,0,0:0:0:0:
256,208,58154,1,0,0:0:0:0:
256,344,58433,1,0,0:0:0:0:
224,216,58712,5,0,0:0:0:0:
288,336,58991,1,0,0:0:0:0:
192,248,59270,1,0,0:0:0:0:
312,312,59549,1,0,0:0:0:0:
184,280,59829,1,0,0:0:0:0:
320,272,60108,1,0,0:0:0:0:
192,312,60387,1,0,0:0:0:0:
120,80,60945,1,2,0:0:0:0:
256,80,61503,5,2,0:0:0:0:
256,216,62062,1,2,0:0:0:0:
392,160,63457,1,8,0:0:0:0:
392,96,63736,1,8,0:0:0:0:
256,192,65411,12,0,67086,0:0:0:0:
64,40,67644,5,8,0:0:0:0:
136,152,67923,1,8,0:0:0:0:
208,40,68203,1,8,0:0:0:0:
280,152,68482,1,8,0:0:0:0:
416,152,68761,2,8,P|408:224|336:336,1,200
144,328,70436,5,8,0:0:0:0:
48,232,70994,1,8,0:0:0:0:
224,32,72110,1,2,0:0:0:0:
176,296,72669,1,8,0:0:0:0:
176,160,72948,1,8,0:0:0:0:
288,232,73227,1,8,0:0:0:0:
152,224,73506,1,8,0:0:0:0:
288,232,73785,6,8,L|488:232,1,200
432,112,74902,1,8,0:0:0:0:
296,112,75181,1,8,0:0:0:0:
192,32,75460,1,8,0:0:0:0:
88,280,76577,5,8,0:0:0:0:
192,200,76856,1,8,0:0:0:0:
136,320,77135,1,8,0:0:0:0:
240,240,77414,1,8,0:0:0:0:
176,360,77693,1,8,0:0:0:0:
280,280,77972,1,8,0:0:0:0:
392,208,78251,1,8,0:0:0:0:
296,112,78531,1,8,0:0:0:0:
256,192,78810,12,0,81322,0:0:0:0:
256,192,81601,5,2,0:0:0:0:
320,80,82159,1,2,0:0:0:0:
440,144,82718,1,2,0:0:0:0:
440,208,82997,1,2,0:0:0:0:
320,264,83555,1,2,0:0:0:0:
320,200,83834,1,2,0:0:0:0:
208,272,84392,5,2,0:0:0:0:
208,208,84672,1,2,0:0:0:0:
80,232,85230,1,2,0:0:0:0:
80,168,85509,1,2,0:0:0:0:
256,88,86067,1,0,0:0:0:0:
256,240,86346,1,0,0:0:0:0:
216,104,86625,5,0,0:0:0:0:
296,224,86905,1,0,0:0:0:0:
192,136,87184,1,0,0:0:0:0:
312,192,87463,1,0,0:0:0:0:
184,176,87742,1,0,0:0:0:0:
320,152,88021,1,0,0:0:0:0:
256,72,88579,6,8,L|256:144,1,66.6666666666667
168,192,89696,1,0,0:0:0:0:
344,192,89975,1,0,0:0:0:0:
168,192,90254,1,0,0:0:0:0:
344,192,90533,1,0,0:0:0:0:
168,192,90812,1,0,0:0:0:0:
344,192,91092,1,0,0:0:0:0:
256,296,91650,2,8,L|256:224,1,66.6666666666667
256,192,92208,12,0,94720,0:0:0:0:
256,192,94999,5,0,0:0:0:0:
256,64,95279,1,0,0:0:0:0:
256,128,95558,2,8,P|352:128|240:264,1,400
72,64,97791,1,0,0:0:0:0:
40,192,98070,1,0,0:0:0:0:
64,320,98349,1,0,0:0:0:0:
192,296,98628,1,0,0:0:0:0:
272,192,98907,6,8,L|344:192,1,66.6666666666667
408,192,99466,1,0,0:0:0:0:
392,128,99745,2,8,L|472:128,1,66.6666666666667
448,64,100303,1,0,0:0:0:0:
384,64,100582,1,0,0:0:0:0:
248,64,101140,1,8,0:0:0:0:
256,264,101978,6,8,L|256:192,1,66.6666666666667
80,96,103094,1,0,0:0:0:0:
80,232,103374,1,0,0:0:0:0:
192,160,103653,1,0,0:0:0:0:
56,160,103932,1,0,0:0:0:0:
256,296,104769,1,0,0:0:0:0:
256,192,105607,12,0,108119,0:0:0:0:
272,40,108956,6,2,L|232:104,1,66.6666666666667
288,144,109514,1,2,0:0:0:0:
312,208,109794,2,2,L|248:248,1,66.6666666666667
248,312,110352,1,2,0:0:0:0:
192,336,110631,2,2,L|152:272,1,66.6666666666667
120,224,111189,6,0,L|120:128,1,66.6666666666667
344,200,112027,1,2,0:0:0:0:
376,144,112306,2,2,L|400:72,1,66.6666666666667
344,48,112864,1,2,0:0:0:0:
280,48,113143,2,2,L|200:48,1,66.6666666666667
120,40,113702,1,2,0:0:0:0:
48,40,113981,6,8,L|48:176,1,133.333333333333
72,240,114818,1,0,0:0:0:0:
136,128,115376,1,0,0:0:0:0:
160,192,115655,2,2,B|160:336|160:336|376:192,1,400
240,184,117889,1,0,0:0:0:0:
192,40,118447,5,0,0:0:0:0:
320,40,118726,1,0,0:0:0:0:
192,96,119005,1,0,0:0:0:0:
320,96,119284,1,0,0:0:0:0:
192,160,119563,1,0,0:0:0:0:
320,160,119842,1,0,0:0:0:0:
192,296,120401,1,0,0:0:0:0:
320,296,120680,1,0,0:0:0:0:
256,312,121517,5,2,0:0:0:0:
456,328,122355,2,8,P|456:248|248:24,1,400
56,40,124867,1,0,0:0:0:0:
56,104,125146,1,0,0:0:0:0:
56,168,125425,1,0,0:0:0:0:
120,192,125704,2,8,P|144:264|504:216,1,533.333333333333
408,128,128496,5,0,0:0:0:0:
296,56,129054,1,0,0:0:0:0:
184,72,130450,1,2,0:0:0:0:
184,136,130729,1,2,0:0:0:0:
256,192,132404,12,0,134078,0:0:0:0:
