osu file format v12

[General]
AudioFilename: Godot's Theme 'The Fragrance of Dark Coffee'.mp3
AudioLeadIn: 0
PreviewTime: 41964
Countdown: 0
SampleSet: Soft
StackLeniency: 0.7
Mode: 0
LetterboxInBreaks: 1
WidescreenStoryboard: 1

[Editor]
DistanceSpacing: 1
BeatDivisor: 6
GridSize: 8

[Metadata]
Title:The Fragrance Of Dark Coffee
TitleUnicode:The Fragrance Of Dark Coffee
Artist:Noriyuki Iwadare
ArtistUnicode:Noriyuki Iwadare
Creator:MasterKirin
Version:Dark Coffee
Source:Phoenix Wright Ace Attorney
Tags:godot trials and tribulations
BeatmapID:304552
BeatmapSetID:118466

[Difficulty]
HPDrainRate:4
CircleSize:3
OverallDifficulty:4
ApproachRate:5
SliderMultiplier:1.7
SliderTickRate:1

[Events]
//Background and Video events
0,0,"godot_wallpaper__3_by_darkmatter89-d5b9rkk.jpg",0,0
//Break Periods
//Storyboard Layer 0 (Background)
//Storyboard Layer 1 (Fail)
//Storyboard Layer 2 (Pass)
//Storyboard Layer 3 (Foreground)
//Storyboard Sound Samples
//Background Colour Transformations
3,100,163,162,255

[TimingPoints]
1769,837.404047452896,4,2,0,100,1,0

[Colours]
Combo1 : 128,0,0
Combo2 : 0,128,128
Combo3 : 255,255,255
Combo4 : 255,211,132

[HitObjects]
80,312,1769,2,8,P|128:336|240:296,1,170
400,312,3443,2,8,P|416:256|376:144,1,170
248,56,5118,1,2,0:0:0:0:
136,32,5676,1,8,0:0:0:0:
88,64,5956,1,8,0:0:0:0:
64,112,6235,5,8,0:0:0:0:
56,168,6514,1,8,0:0:0:0:
72,224,6793,2,2,L|256:224,3,170
296,224,9584,2,8,L|328:168,1,56.6666666666667
344,136,10143,2,2,P|344:64|168:48,1,283.333333333333
256,192,11817,12,0,14330,0:0:0:0:
184,120,15167,5,2,0:0:0:0:
264,40,15725,2,2,L|328:40,1,56.6666666666667
400,128,16563,1,2,0:0:0:0:
400,184,16842,1,2,0:0:0:0:
376,296,17400,5,2,0:0:0:0:
320,296,17679,1,2,0:0:0:0:
208,312,18237,2,2,L|152:312,1,56.6666666666667
80,224,19075,2,8,L|80:160,1,56.6666666666667
96,112,19633,2,8,L|128:64,1,56.6666666666667
184,56,20191,2,8,L|248:56,1,56.6666666666667
296,56,20750,5,8,0:0:0:0:
352,56,21029,1,8,0:0:0:0:
416,152,21587,2,2,L|360:152,1,56.6666666666667
352,320,22704,6,2,L|312:360,1,56.6666666666667
256,344,23262,2,2,L|200:296,1,56.6666666666667
168,272,23820,1,8,0:0:0:0:
128,232,24099,1,8,0:0:0:0:
80,128,24658,2,8,L|80:64,1,56.6666666666667
256,192,25216,12,0,27728,0:0:0:0:
344,80,28286,5,2,0:0:0:0:
384,40,28565,2,2,P|440:120|368:344,1,340
216,328,30799,1,8,0:0:0:0:
160,304,31078,1,8,0:0:0:0:
112,272,31357,1,8,0:0:0:0:
64,240,31636,1,8,0:0:0:0:
48,184,31915,6,8,P|64:112|296:128,2,340
168,304,36102,6,8,L|224:304,3,56.6666666666667
368,272,37777,1,2,0:0:0:0:
256,192,38614,12,0,41126,0:0:0:0:
176,320,41964,6,8,P|72:288|192:64,1,453.333333333333
392,72,45034,1,2,0:0:0:0:
392,72,45314,2,8,P|392:184|112:328,1,453.333333333333
72,312,47826,1,2,0:0:0:0:
32,208,48384,5,2,0:0:0:0:
88,192,48663,2,8,P|160:184|528:32,1,453.333333333333
496,160,51454,2,2,L|496:216,3,56.6666666666667
384,224,52850,1,8,0:0:0:0:
272,192,53408,2,2,L|272:256,1,56.6666666666667
184,176,54246,1,8,0:0:0:0:
160,224,54525,1,8,0:0:0:0:
320,272,55362,1,2,0:0:0:0:
344,328,55641,5,2,0:0:0:0:
288,328,55921,1,2,0:0:0:0:
152,328,56758,2,2,L|112:328,2,28.3333333333333
80,160,57875,1,8,0:0:0:0:
104,112,58154,1,8,0:0:0:0:
144,72,58433,1,8,0:0:0:0:
200,56,58712,6,8,L|384:56,2,170
256,152,60945,1,2,0:0:0:0:
256,264,61503,1,2,0:0:0:0:
360,312,62062,1,2,0:0:0:0:
496,64,63457,6,8,L|496:8,1,56.6666666666667
256,192,65411,12,0,67086,0:0:0:0:
184,184,67644,5,8,0:0:0:0:
128,200,67923,1,8,0:0:0:0:
88,240,68203,1,8,0:0:0:0:
80,296,68482,1,8,0:0:0:0:
80,344,68761,2,8,L|256:344,1,170
400,256,70436,6,8,L|528:136,1,170
384,48,72110,1,0,0:0:0:0:
272,40,72669,1,8,0:0:0:0:
216,40,72948,1,8,0:0:0:0:
160,56,73227,2,8,L|128:112,1,56.6666666666667
88,136,73785,6,8,L|88:320,3,170
144,320,76577,1,2,0:0:0:0:
200,328,76856,1,2,0:0:0:0:
256,328,77135,2,2,L|312:328,1,56.6666666666667
368,304,77693,5,2,0:0:0:0:
400,256,77972,1,2,0:0:0:0:
376,200,78251,2,2,L|312:200,1,56.6666666666667
256,192,78810,12,0,81322,0:0:0:0:
256,192,82159,5,8,0:0:0:0:
264,80,82718,2,2,L|328:80,1,56.6666666666667
432,104,83555,2,2,L|432:160,1,56.6666666666667
384,264,84392,5,2,0:0:0:0:
328,264,84672,1,2,0:0:0:0:
216,264,85230,1,2,0:0:0:0:
160,264,85509,1,2,0:0:0:0:
80,176,86067,6,8,L|80:112,1,56.6666666666667
104,64,86625,1,8,0:0:0:0:
160,48,86905,1,8,0:0:0:0:
216,48,87184,2,8,L|280:48,1,56.6666666666667
328,48,87742,5,8,0:0:0:0:
368,88,88021,1,8,0:0:0:0:
464,144,88579,2,2,L|408:144,1,56.6666666666667
328,296,89696,6,2,L|288:336,1,56.6666666666667
240,312,90254,1,8,0:0:0:0:
200,272,90533,1,8,0:0:0:0:
160,232,90812,2,2,L|120:184,1,56.6666666666667
216,128,91650,2,8,L|216:64,1,56.6666666666667
256,192,92208,12,0,94720,0:0:0:0:
280,104,95279,5,8,0:0:0:0:
208,40,95558,2,8,P|152:96|112:352,1,340
224,328,97791,2,8,L|280:328,3,56.6666666666667
336,328,98907,2,8,P|440:272|304:40,1,453.333333333333
144,40,101978,5,2,0:0:0:0:
144,96,102257,1,2,0:0:0:0:
112,264,103094,2,2,L|176:264,3,56.6666666666667
304,160,104769,1,2,0:0:0:0:
256,192,105607,12,0,108119,0:0:0:0:
240,176,108956,6,8,P|216:136|16:240,2,340
280,216,112585,1,8,0:0:0:0:
320,256,112864,1,8,0:0:0:0:
368,288,113143,2,8,P|400:248|264:40,1,340
256,152,115376,1,8,0:0:0:0:
216,112,115655,2,8,L|104:112|-40:304,1,340
80,272,117889,5,2,0:0:0:0:
144,360,118447,2,8,L|208:360,1,56.6666666666667
256,360,119005,1,8,0:0:0:0:
312,360,119284,1,8,0:0:0:0:
360,328,119563,6,8,L|360:272,1,56.6666666666667
296,176,120401,2,2,L|240:176,1,56.6666666666667
360,56,121517,1,8,0:0:0:0:
192,24,122355,2,8,P|96:40|40:248,1,340
176,152,124867,1,8,0:0:0:0:
200,200,125146,5,8,0:0:0:0:
224,248,125425,1,8,0:0:0:0:
240,304,125704,2,8,P|360:296|520:32,1,453.333333333333
408,40,128496,1,0,0:0:0:0:
296,48,129054,1,0,0:0:0:0:
424,160,129891,5,0,0:0:0:0:
312,144,130450,2,8,P|272:136|264:152,1,56.6666666666667
96,152,131566,1,0,0:0:0:0:
256,192,132404,12,8,134078,0:0:0:0:
