osu file format v5

[General]
AudioFilename: The Fragrance of Dark Coffee.mp3
AudioLeadIn: 0
PreviewTime: 5471
Countdown: 0
SampleSet: Soft
StackLeniency: 0.9
Mode: 0
LetterboxInBreaks: 1
EditorDistanceSpacing: 1

[Metadata]
Title:Godot - The Fragrance of Dark Coffee
Artist:Noriyuki Iwadare
Creator:Agent Spin Here
Version:Not Guilty
Source:
Tags:

[Difficulty]
HPDrainRate:2
CircleSize:3
OverallDifficulty:2
SliderMultiplier:1.4
SliderTickRate:1

[Events]
//Background and Video events
0,0,"Phoenix_Wr_2m.jpg"
//Break Periods
2,12009,14193
2,25530,26587
2,28911,29404
2,39051,41517
//Storyboard Layer 0 (Background)
//Storyboard Layer 1 (Failing)
//Storyboard Layer 2 (Passing)
//Storyboard Layer 3 (Foreground)
//Storyboard Sound Samples
//Background Colour Transformations
3,100,64,0,0

[TimingPoints]
1668.83571742958,845.070422535211,4,2,0,89,1,0
37584,-200,4,1,0,60,0,0
39072,-100,4,2,0,79,0,0
68429,-100,4,1,0,100,0,1

[Colours]
Combo1 : 32,0,0
Combo2 : 128,64,0
Combo3 : 64,0,0

[HitObjects]
256,192,1668,1,4
392,192,2513,1,8
392,48,3358,2,0,B|320:80|240:40,2,140,0|8|4
328,120,5612,6,0,B|328:192,3,46.6666666666666,0|8|0|8
328,216,6739,2,0,B|328:288|256:288,1,93.3333333333333
224,288,7584,2,0,B|176:288|176:219,1,93.3333333333333,8|0
176,168,8429,2,0,B|176:104|240:88,1,93.3333333333333,2|0
280,176,9556,6,0,B|280:240,8,46.6666666666666,0|0|2|0|0|2|0|0|4
248,56,15753,6,4,B|168:56,1,46.6666666666666,8|4
248,136,16598,2,0,B|328:136,1,46.6666666666666,8|4
248,216,17443,2,0,B|168:216,1,46.6666666666666,8|4
248,296,18288,2,0,B|336:296,1,46.6666666666666,8|4
384,296,19133,5,0
384,296,19415,2,0,B|384:216,1,46.6666666666667,0|2
336,248,19978,1,0
336,248,20260,2,0,B|336:159,1,46.6666666666667,0|2
384,200,20823,1,0
384,200,21105,2,0,B|384:94,1,93.3333333333333
384,64,21950,1,4
240,64,22795,6,0,B|168:8|80:80,1,140,8|4
176,128,24204,1,0
176,224,24767,1,0
176,320,25330,1,4
352,192,28147,6,0,B|296:192,1,46.6666666666667,0|2
256,192,28711,1,4
96,112,30964,5,0
96,112,31246,2,0,B|128:80|160:120,2,46.6666666666667
96,160,32091,2,0,B|104:232|216:232,2,140,0|8|4
184,152,34344,1,0
352,256,35471,5,2
464,336,36316,6,0,B|400:280,2,46.6666666666667,8|0|0
464,288,37161,1,0
464,144,38006,6,4,B|416:96|392:96,1,70,4|4
256,192,43077,6,0,B|328:192,2,46.6666666666667
200,192,43922,2,0,B|144:192,1,46.6666666666667
152,240,44485,1,2
384,240,45894,6,0,B|320:240,1,46.6666666666667
288,240,46457,2,0,B|288:176|232:176,1,93.3333333333333,2|0
192,176,47302,2,0,B|136:176|136:104,1,93.3333333333333,0|2
192,240,48711,6,0,B|192:312,1,46.6666666666667,0|4
328,256,49837,6,0,B|360:192,1,46.6666666666667,0|2
376,256,50401,2,0,B|400:208,1,46.6666666666667,0|2
416,120,51246,1,0
320,120,51809,5,0
320,120,52091,1,0
264,120,52373,2,2,B|224:120|224:184,1,46.6666666666667
232,200,52936,1,2
232,248,53218,2,0,B|232:280|264:280,1,46.6666666666667
312,280,53781,1,0
360,280,54063,1,4
360,176,54626,6,0,B|360:240,1,46.6666666666667,0|2
448,176,55471,2,0,B|448:248,1,46.6666666666667,2|8
448,272,56035,1,0
448,320,56316,1,6
296,320,57161,6,0,B|264:320,2,23.3333333333333,0|2|0
448,320,58288,6,0,B|400:320|400:272,2,46.6666666666667,0|0|2
448,264,59133,1,2
448,208,59415,2,0,B|448:176|416:176,1,46.6666666666667
368,176,59978,2,0,B|336:176|336:216,1,46.6666666666667
336,256,60542,2,0,B|408:256,1,46.6666666666667,0|4
280,256,61387,5,4
176,256,61950,1,4
280,256,62513,1,4
96,80,63922,5,0
96,80,64204,1,0
296,240,65612,5,2
296,240,65894,1,4
256,192,68429,12,4,69274
