osu file format v9

[General]
AudioFilename: (APH)Pub and GO!.mp3
AudioLeadIn: 1511
PreviewTime: 41972
Countdown: 0
SampleSet: Soft
StackLeniency: 0.7
Mode: 0
LetterboxInBreaks: 1

[Editor]
Bookmarks: 68295,75069,120069,127579,162418
DistanceSpacing: 0.8
BeatDivisor: 4
GridSize: 8

[Metadata]
Title:Pub and GO!
Artist:Noriaki Sugiyama
Creator:wili10
Version:Normal
Source:Hetalia: Axis Powers
Tags:England Igirisu Iggy UK APH crystalsuicune Mint_Bunny

[Difficulty]
HPDrainRate:5
CircleSize:4
OverallDifficulty:5
ApproachRate:5
SliderMultiplier:1.4
SliderTickRate:1

[Events]
//Background and Video events
0,0,"Untitled-2 copy.png"
//Break Periods
2,99462,100966
2,119785,124191
2,154624,160966
//Storyboard Layer 0 (Background)
//Storyboard Layer 1 (Fail)
//Storyboard Layer 2 (Pass)
//Storyboard Layer 3 (Foreground)
//Storyboard Sound Samples
//Background Colour Transformations
3,100,163,162,255

[TimingPoints]
1521,483.870967741935,4,2,0,70,1,0
41682,-100,4,1,0,60,0,0
42166,-100,4,1,0,90,0,1
42408,-100,4,2,0,90,0,1
55714,-100,4,2,0,70,0,0
102166,-100,4,1,0,90,0,1
102650,-100,4,2,0,90,0,1
115714,-100,4,2,0,70,0,0
136520,-100,4,1,0,60,0,0
137004,-100,4,2,0,90,0,1
154424,-100,4,2,0,70,0,0
176682,-100,4,2,0,60,0,0
177166,-100,4,2,0,50,0,0
177650,-100,4,2,0,40,0,0
178133,-100,4,2,0,30,0,0
178617,-100,4,2,0,20,0,0
179101,-100,4,2,0,10,0,0

[Colours]
Combo1 : 64,128,128
Combo2 : 230,115,0
Combo3 : 221,221,0
Combo4 : 181,74,104

[HitObjects]
128,80,1521,2,0,B|296:80,1,140,8|0
272,136,2246,1,0
272,192,2488,2,0,B|128:192,1,140,8|0
136,304,3456,2,0,B|280:304,3,140,8|0|8|0
392,304,5391,6,0,B|392:152,1,140,8|0
288,120,6359,2,0,B|296:20|200:-4,2,140,8|0|4
288,176,7569,2,0,B|288:272,1,70,0|8
328,288,8053,2,0,B|400:288,5,70,0|8|0|8|8|4
400,232,9504,6,2,B|400:144|360:80,1,140
312,96,10230,2,2,B|281:143|281:231,1,140,2|8
224,328,11198,1,0
112,328,11682,2,0,B|112:188,2,140,8|0|8
160,296,12891,1,0
200,256,13133,6,0,B|232:168|312:160,1,140,6|8
352,160,13859,1,0
368,216,14101,2,0,B|336:304|256:312,1,140,2|8
216,328,14827,1,0
168,352,15069,1,0
128,248,15553,1,8
96,144,16037,1,0
176,64,16520,1,8
256,144,17004,6,0,B|408:144,1,140,4|8
392,256,17972,2,0,B|232:256,1,140,0|8
168,328,18940,1,0
88,256,19424,1,8
168,176,19908,1,0
264,112,20391,1,8
360,176,20875,5,4
360,176,21117,1,0
360,176,21359,1,8
360,288,21843,1,0
360,288,22085,1,0
360,288,22327,1,8
256,192,22811,12,4,24746
104,176,25230,5,8
216,176,25714,1,2
328,176,26198,1,8
272,80,26682,2,0,B|376:80|448:176|432:272,1,280,2|2
432,268,28133,1,8
320,268,28617,5,2
280,232,28859,1,0
240,192,29101,1,8
184,288,29585,1,2
112,200,30069,1,8
152,96,30553,5,2
264,96,31037,1,8
376,96,31521,2,8,B|448:96,2,70,8|0|4
320,192,32488,5,8
432,192,32972,1,2
432,304,33456,1,8
320,304,33940,1,2
224,248,34424,6,0,B|152:208|80:256,2,140,8|2|8
336,256,35875,1,2
400,160,36359,5,8
336,72,36843,1,2
336,72,37327,1,8
224,72,37811,1,2
224,72,38295,5,8
224,184,38779,1,2
224,184,39262,1,8
224,184,39746,1,4
256,192,40230,12,4,41682
104,112,42166,6,0,B|138:88|170:112,3,70,4|0|2|0
176,168,43133,1,8
184,224,43375,2,0,B|218:240|272:208,1,70,0|2
251,218,43859,1,0
251,218,44101,1,4
252,104,44585,5,8
252,104,44827,1,0
252,104,45069,1,4
152,48,45553,1,2
160,160,46037,5,8
256,216,46521,1,2
160,272,47004,1,8
256,328,47488,1,2
352,272,47972,6,0,B|440:280|440:368,2,140,8|2|8
352,216,49182,1,8
352,160,49424,1,4
240,160,49908,5,8
240,160,50150,1,0
240,160,50391,1,2
128,160,50875,1,8
128,160,51117,1,0
128,160,51359,1,2
128,272,51843,6,0,B|192:320|264:272,1,140,8|2
264,216,52569,1,0
264,160,52811,2,0,B|328:208|400:160,1,140,8|4
448,264,53779,6,0,B|384:344|248:336|152:240|168:104|240:24|384:40,1,560,8|4
256,192,55956,12,4,59585
172,80,60069,6,0,B|332:80,1,140,8|2
312,136,60795,1,0
312,192,61037,2,0,B|160:192,1,140,8|2
176,304,62004,6,0,B|344:304,1,140,8|2
376,304,62730,1,8
408,256,62972,1,8
376,208,63214,1,2
376,208,63456,6,0,B|376:48,1,140,8|2
264,72,64424,2,0,B|264:224,1,140,8|2
320,304,65391,2,0,B|384:368|472:312,4,140,8|2|8|2|4
288,256,67569,1,2
288,256,67811,1,8
320,152,68295,5,2
224,88,68779,1,8
224,88,69262,1,2
112,88,69746,1,8
168,184,70230,1,2
120,216,70472,1,0
72,248,70714,1,8
184,272,71198,5,2
232,304,71440,1,0
280,336,71682,1,8
336,240,72166,1,2
384,272,72408,1,0
432,296,72650,1,8
496,208,73133,5,2
496,96,73617,1,8
392,144,74101,2,0,B|304:120|248:168,1,140,2|8
256,48,75069,5,4
256,48,75553,2,0,B|116:48,1,140,8|2
112,160,76521,2,0,B|252:160,1,140,8|2
248,272,77488,2,0,B|108:272,3,140,8|2|8|2
104,216,79182,5,0
104,160,79424,2,0,B|264:160,2,140,8|2|8
104,104,80633,1,0
104,104,80875,1,4
216,88,81359,5,8
216,200,81843,1,4
216,200,82327,2,0,B|272:272|368:208,1,140,8|4
424,144,83295,5,2
424,256,83779,1,8
360,344,84262,1,2
288,256,84746,2,8,B|148:256,2,140,8|2|8
288,256,85956,1,0
288,256,86198,1,2
288,256,86440,1,0
288,256,86682,5,8
288,144,87166,1,2
288,32,87650,1,8
192,96,88133,1,2
192,208,88617,6,0,B|148:183|108:255|60:199,1,140,8|2
56,88,89585,2,0,B|103:35|143:107|187:83,1,140,8|4
184,192,90553,5,8
184,248,90795,1,0
184,304,91037,1,2
296,304,91521,1,8
408,304,92004,1,2
408,192,92488,6,0,B|440:120|392:32,3,140,8|2|8|2
403,56,94182,1,8
403,56,94424,5,4
312,120,94908,1,8
224,56,95391,1,2
136,120,95875,1,8
136,232,96359,2,8,B|66:232,2,70,2|0|8
184,264,97085,1,0
232,232,97327,2,0,B|320:232|368:152,1,140,2|8
352,64,98295,5,0
352,64,98537,1,8
352,64,98779,1,8
352,64,99020,1,2
352,64,99262,1,2
368,280,102166,5,4
448,200,102650,1,8
368,120,103133,1,2
280,56,103617,1,8
192,120,104101,5,2
216,232,104585,1,8
272,232,104827,1,0
328,232,105069,1,2
272,328,105553,1,8
272,328,105795,1,0
272,328,106037,6,0,B|336:264|288:168,3,140,2|8|2|8
360,192,107730,1,0
416,192,107972,2,0,B|416:332,3,140,2|8|2|4
304,336,109908,5,8
304,336,110150,1,0
304,336,110391,2,0,B|152:336,1,140,2|8
164,336,111117,1,0
164,336,111359,1,2
72,272,111843,5,8
160,200,112327,1,2
160,96,112811,1,8
160,96,113295,1,4
272,96,113779,6,0,B|344:72|424:96,3,140,8|2|8|2
256,192,115714,12,4,119585
168,96,125391,5,2
264,32,125875,1,8
352,104,126359,2,0,B|416:160|360:232,1,140,2|8
264,176,127327,1,4
176,104,127811,6,8,B|96:72|32:128,1,140,8|2
48,232,128779,1,8
120,320,129262,1,2
176,224,129746,2,0,B|176:84,1,140,8|2
176,24,130472,1,0
176,24,130714,2,0,B|96:24,2,70,8|0|4
288,48,131682,2,0,B|368:72|408:136,1,140,8|2
400,184,132408,1,0
400,240,132650,2,0,B|366:293|286:317,1,140,8|2
248,328,133375,1,0
216,280,133617,1,8
248,232,133859,1,0
216,184,134101,1,4
256,192,134343,12,4,136521
376,72,137004,5,8
264,72,137488,1,2
264,184,137972,1,8
152,184,138456,1,2
64,248,138940,5,8
64,248,139424,1,2
96,288,139666,1,0
136,328,139908,1,8
208,240,140391,1,4
272,328,140875,5,8
336,240,141359,1,2
336,128,141843,1,8
256,48,142327,1,2
176,128,142811,6,0,B|80:136|64:240,2,140,8|2|8
232,128,144021,1,8
232,128,144262,1,4
232,240,144746,5,2
232,240,144988,1,0
232,240,145230,1,8
344,240,145714,1,2
344,240,145956,1,0
344,240,146198,1,8
344,128,146682,5,2
232,128,147166,1,8
232,240,147650,1,2
344,240,148133,1,4
288,336,148617,6,0,B|128:336,4,140,4|0|4|0|4
256,192,150795,12,4,154424
312,232,162166,6,0,B|242:232,7,70,8|0|2|0|8|0|2|0
240,176,164101,2,0,B|160:176,7,70,8|0|2|0|8|0|2|0
168,120,166037,6,0,B|98:120,7,70,8|0|2|0|8|0|2|0
96,64,167972,2,0,B|26:64,6,70,8|0|2|0|8|0|4
184,136,169908,5,8
216,184,170150,1,2
256,224,170391,2,0,B|280:312|368:304,1,140,2|4
256,192,171117,12,4,173779
176,168,174504,5,4
336,168,175230,1,4
256,248,175714,1,4
256,192,176198,12,0,179101
