osu file format v9

[General]
AudioFilename: (APH)Pub and GO!.mp3
AudioLeadIn: 1015
PreviewTime: 41972
Countdown: 0
SampleSet: Soft
StackLeniency: 0.7
Mode: 0
LetterboxInBreaks: 1

[Editor]
Bookmarks: 33587,62861,68668,86087,145119,169313
DistanceSpacing: 0.9
BeatDivisor: 2
GridSize: 8

[Metadata]
Title:Pub and GO!
Artist:Noriaki Sugiyama
Creator:Mint Bunny
Version:Hard
Source:Hetalia: Axis Powers
Tags:England Igirisu Iggy UK APH crystalsuicune animelover1432

[Difficulty]
HPDrainRate:7
CircleSize:5
OverallDifficulty:7
ApproachRate:7
SliderMultiplier:1.7
SliderTickRate:1

[Events]
//Background and Video events
0,0,"BG.jpg"
//Break Periods
2,55914,58685
2,119795,124491
//Storyboard Layer 0 (Background)
//Storyboard Layer 1 (Fail)
//Storyboard Layer 2 (Pass)
//Storyboard Layer 3 (Foreground)
//Storyboard Sound Samples
//Background Colour Transformations
3,100,163,162,255

[TimingPoints]
1521,483.870967741935,4,2,0,70,1,0
41682,-100,4,1,0,60,0,0
42166,-100,4,1,0,90,0,1
42529,-100,4,2,0,90,0,1
55714,-100,4,2,0,70,0,0
102166,-100,4,1,0,75,0,1
102408,-100,4,2,0,90,0,1
115714,-100,4,2,0,70,0,0
136520,-100,4,1,0,60,0,0
137004,-100,4,1,0,90,0,1
137125,-100,4,2,0,90,0,1
153940,-100,4,1,0,60,0,0
154424,-100,4,2,0,70,0,0
176682,-100,4,2,0,60,0,0
177166,-100,4,2,0,50,0,0
177650,-100,4,2,0,40,0,0
178133,-100,4,2,0,30,0,0
178617,-100,4,2,0,20,0,0
179101,-100,4,2,0,10,0,0

[Colours]
Combo1 : 64,128,128
Combo2 : 230,115,0
Combo3 : 221,221,0
Combo4 : 181,74,104

[HitObjects]
56,192,1521,2,0,B|72:128|112:96|192:72,1,170,8|0
208,80,2125,1,0
248,80,2246,1,0
248,160,2488,1,8
248,160,2972,1,2
168,296,3456,5,8
280,192,3940,1,2
240,192,4061,1,0
200,192,4182,1,0
160,192,4303,1,0
120,192,4424,1,8
120,192,4908,1,2
232,88,5391,5,8
120,192,5875,1,2
232,296,6359,1,8
80,264,6843,2,0,C|8:264,2,42.5,2|0|0
160,264,7327,5,8
240,264,7569,1,8
320,264,7811,1,8
320,112,8295,2,8,C|320:40,1,42.5
256,112,8658,1,8
256,112,8779,1,8
176,112,9020,5,8
144,112,9141,1,2
160,144,9262,1,4
104,192,9504,6,2,B|80:280|136:312|176:320,1,170
256,320,10230,2,2,B|297:311|353:279|329:191,1,170
288,128,10956,1,0
248,192,11198,2,0,B|160:192,1,85,8|0
160,112,11682,2,0,B|72:112,1,85
72,152,12045,1,0
72,192,12166,1,8
72,272,12408,1,0
96,344,12650,1,0
120,272,12891,1,0
176,216,13133,6,0,B|264:152,1,85,4|0
320,176,13617,1,8
352,248,13859,2,0,B|272:320,1,85
232,360,14343,1,0
200,288,14585,1,8
176,216,14827,1,0
200,136,15069,6,0,B|264:80|360:104,1,170,0|8
384,136,15674,1,0
400,168,15795,1,0
416,200,15916,1,0
432,232,16037,1,0
424,312,16279,1,0
360,272,16520,1,8
304,224,16762,1,8
248,168,17004,6,0,B|152:168,1,85,4|0
88,168,17488,1,8
88,248,17730,1,0
168,256,17972,2,0,B|192:296|200:344|264:328|328:304,2,170,0|8|0
200,184,19182,5,0
248,120,19424,1,8
288,184,19666,1,0
368,184,19908,2,0,B|440:176|472:120|432:40,1,170,0|8
376,24,20633,5,0
336,24,20754,1,0
296,24,20875,1,4
248,88,21117,1,0
248,168,21359,1,8
184,128,21601,1,0
120,176,21843,2,0,B|144:216|216:224,1,85
232,224,22206,1,0
272,224,22327,1,8
336,176,22569,5,0
336,176,22811,2,0,B|376:224|448:176,1,85,0|0
424,120,23295,2,0,B|376:88|320:120,1,85,8|0
280,64,23779,2,0,B|256:32|160:8|264:8|136:32|128:80,1,170,0|8
96,208,24746,6,0,B|48:168|104:136,1,85,4|0
96,64,25230,1,2
176,64,25472,1,0
256,64,25714,1,8
256,144,25956,2,0,B|304:120|352:136,1,85,0|2
368,200,26440,5,0
320,264,26682,1,8
320,264,26924,1,0
256,304,27166,1,2
176,304,27408,1,0
120,256,27650,1,8
80,192,27891,2,8,B|120:104,1,85,0|2
144,48,28375,5,0
216,24,28617,2,0,C|312:24,1,85,8|0
376,48,29101,1,2
376,128,29343,1,0
376,208,29585,1,8
296,208,29827,1,0
256,144,30069,2,0,B|168:136,1,85,2|0
104,112,30553,5,8
104,152,30674,1,0
104,192,30795,1,0
160,248,31037,1,2
216,200,31279,2,0,C|216:264,2,42.5,0|0|8
216,120,31762,1,8
160,64,32004,1,4
104,120,32246,5,0
104,120,32367,1,0
104,120,32488,1,8
48,176,32730,1,0
16,248,32972,1,2
48,176,33214,1,0
104,120,33456,1,8
152,176,33698,2,8,B|152:224,2,42.5,0|0|2
232,168,34182,6,0,C|232:64,1,85,0|8
312,80,34666,2,0,B|368:80|400:144,2,85,0|2|0
248,32,35391,1,8
168,32,35633,1,0
168,32,35754,1,0
168,32,35875,1,2
168,112,36117,5,0
88,112,36359,1,8
8,112,36601,1,0
8,192,36843,2,0,C|96:200,1,85,2|0
168,208,37327,1,8
168,288,37569,1,0
232,248,37811,2,0,C|316:255,1,85,2|0
376,312,38295,5,8
376,232,38537,1,0
376,152,38779,2,0,C|376:64,1,85,2|0
376,67,39262,1,8
376,67,39504,1,8
376,67,39746,1,4
256,192,40230,12,4,41682
104,112,42166,6,0,C|184:112,1,42.5,4|0
128,184,42529,2,0,C|184:184,1,42.5,0|2
152,256,42891,2,8,C|208:256,1,42.5,0|0
232,240,43133,1,8
264,224,43254,1,0
296,208,43375,1,2
328,192,43496,1,0
360,168,43617,1,8
416,120,43859,1,0
472,72,44101,6,0,B|456:8|360:-16|312:64,1,170,8|0
272,88,44827,1,0
272,88,45069,1,8
232,152,45311,2,2,C|320:192,2,85
80,128,46037,5,8
104,160,46158,1,0
128,192,46279,1,0
152,224,46400,1,0
176,256,46521,2,8,C|112:328,2,85,2|0|8
256,256,47246,1,8
280,184,47488,1,8
312,112,47730,1,4
392,112,47972,5,8
392,152,48093,1,0
392,192,48214,1,0
392,232,48335,1,0
392,272,48456,2,8,C|392:368,2,85,2|0|8
312,272,49182,1,8
240,248,49424,1,8
168,216,49666,1,4
168,136,49908,6,2,B|256:96|336:152,1,170,8|2
328,304,50875,2,2,B|408:368|488:304,1,170,8|2
128,104,51843,6,0,C|200:104,1,42.5,8|0
128,168,52206,2,0,C|184:168,1,42.5,0|2
128,232,52569,2,0,C|168:248|216:256,1,85,0|8
488,184,53779,5,8
488,264,54021,2,2,C|400:264,1,85,0|2
400,344,54504,1,0
320,344,54746,1,8
320,264,54988,1,0
320,184,55230,2,0,C|232:184,1,85,8|0
232,264,55714,1,4
96,96,59585,5,4
96,96,59827,1,0
96,96,60069,1,2
96,176,60311,2,0,B|48:208|48:208|72:256,1,85,0|8
72,312,60795,1,0
152,312,61037,1,2
168,240,61279,2,0,B|256:152,1,85,0|8
288,128,61762,5,0
344,80,62004,1,2
344,80,62246,2,8,C|448:80,2,85,0|8|0
344,160,62972,1,2
280,120,63214,1,0
216,160,63456,5,8
152,120,63698,1,0
152,120,63940,2,8,B|32:120,2,85,2|0|8
152,200,64666,1,0
152,200,64908,1,2
152,280,65150,1,0
152,280,65391,6,10,B|208:360,1,85,8|0
272,368,65875,2,0,B|376:368,1,85,2|2
432,352,66359,2,8,B|480:282,1,85,8|8
480,208,66843,1,4
424,160,67085,1,0
360,208,67327,5,8
312,264,67569,1,0
312,264,67811,1,2
264,208,68053,2,8,B|192:144,1,85,0|8
136,104,68537,1,0
56,104,68779,1,2
0,160,69021,2,8,B|64:240,1,85,0|8
88,296,69504,5,0
136,232,69746,1,2
136,232,69988,2,8,C|136:136,2,85,0|8|0
176,296,70714,1,2
176,296,70956,1,8
176,296,71198,5,4
216,232,71440,2,0,C|328:176,1,85,2|8
288,272,71924,2,0,C|384:296,1,85,0|2
376,216,72408,2,0,C|472:184,1,85,2|8
456,112,72891,1,2
432,80,73012,1,0
408,112,73133,1,0
344,80,73375,6,0,C|272:168,1,85,0|8
264,216,73859,1,0
208,160,74101,1,2
160,216,74343,1,0
104,160,74585,1,8
56,216,74827,1,8
8,160,75069,5,4
8,240,75311,2,0,C|8:328,2,85,0|8|0
8,160,76037,1,2
64,104,76279,1,0
144,104,76521,1,8
200,160,76762,1,0
280,160,77004,6,0,C|376:160,2,85,2|0|8
280,240,77730,1,0
280,240,77972,2,0,C|176:240,1,85,2|0
128,200,78456,1,8
72,144,78698,1,8
72,144,78940,5,4
72,64,79182,2,0,C|16:64,2,42.5,0|0|8
152,64,79666,1,0
232,64,79908,1,2
312,64,80150,2,0,C|312:152,1,85,0|8
312,224,80633,1,0
256,168,80875,5,4
184,200,81117,1,0
184,280,81359,1,8
256,312,81601,1,0
328,280,81843,1,0
328,200,82085,1,0
328,200,82327,1,4
384,56,82811,5,12
352,80,82932,1,0
320,104,83053,1,0
288,128,83174,1,0
256,152,83295,1,2
192,192,83537,2,0,C|88:248,1,85,0|8
117,232,84020,1,0
117,232,84262,1,2
117,232,84504,1,0
40,248,84746,6,8,B|32:336|64:360|144:384,2,170,8|2|8
104,200,85956,1,0
184,216,86198,2,2,B|208:168|208:168|184:104,1,85,2|0
152,72,86682,5,8
232,72,86924,1,0
312,72,87166,1,2
376,120,87408,1,0
376,200,87650,1,8
304,168,87891,2,2,B|216:216,1,85,0|2
232,288,88375,1,0
232,288,88617,6,0,C|352:288,2,85,8|0|2
176,240,89343,1,0
144,240,89464,1,0
112,240,89585,1,8
64,304,89827,1,8
16,240,90069,1,4
64,176,90311,1,0
112,112,90553,6,8,C|48:112,4,42.5,8|0|0|0|2
152,176,91279,1,0
152,176,91521,1,8
208,224,91762,2,0,B|256:192|304:240,1,85,0|4
336,288,92246,1,0
288,352,92488,5,8
256,328,92609,1,0
224,304,92730,1,0
192,280,92851,1,0
168,256,92972,1,2
168,176,93214,1,0
168,96,93456,1,8
216,32,93698,1,8
296,32,93940,1,4
376,32,94182,1,0
424,96,94424,5,8
424,176,94666,1,0
424,256,94908,1,2
384,256,95029,1,0
344,256,95150,1,0
304,256,95271,1,0
264,256,95391,1,8
192,224,95633,2,0,B|120:272,2,85,0|2|0
208,152,96359,6,0,B|256:120|328:152,1,85,8|0
344,192,96843,1,2
424,192,97085,1,0
400,120,97327,1,8
376,96,97448,1,0
352,120,97569,1,0
272,120,97811,2,0,B|272:32,2,85,2|0|8
200,152,98537,5,2
200,152,98779,1,2
200,232,99021,1,8
200,232,99262,1,8
64,88,100230,5,8
408,88,100714,1,2
64,328,101198,1,8
408,328,101682,1,4
80,136,102166,5,4
128,72,102408,1,0
168,136,102650,1,2
216,72,102891,1,0
264,136,103133,1,8
312,72,103375,1,0
360,136,103617,1,2
312,200,103859,1,0
312,280,104101,5,8
160,280,104585,1,2
64,160,105069,1,8
168,48,105553,1,4
264,168,106037,5,8
248,200,106158,1,0
232,232,106279,1,0
216,264,106400,1,0
200,296,106521,1,2
160,360,106762,2,8,C|56:360,1,85,0|8
80,280,107246,1,8
80,200,107488,1,4
80,120,107730,1,0
160,120,107972,5,8
176,152,108093,1,0
192,184,108214,1,0
208,216,108335,1,0
224,248,108456,1,2
256,320,108698,2,0,C|360:320,1,85,0|8
392,264,109182,2,2,C|480:288,2,85
392,184,109908,5,4
272,88,110391,1,8
160,192,110875,1,4
160,272,111117,1,0
160,352,111359,1,8
296,288,111843,6,0,C|352:288,1,42.5,8|0
296,224,112206,2,0,C|368:224,5,42.5,0|2|0|0|0|8
304,152,113053,1,0
240,104,113295,1,2
184,152,113537,1,0
128,208,113779,5,8
168,272,114020,1,0
200,288,114141,1,0
232,272,114262,1,2
272,208,114504,2,0,B|328:168|400:184|416:264,1,170,0|0
408,288,115109,1,0
408,328,115230,1,2
352,376,115472,1,0
256,192,115714,12,4,119585
256,80,125391,5,4
128,272,125875,1,4
376,272,126359,1,4
136,56,127811,5,8
136,136,128053,2,8,C|88:136,2,42.5,0|0|2
136,288,128779,5,8
216,288,129021,2,0,C|216:240,2,42.5,0|0|2
328,184,129746,5,8
408,184,129988,2,10,C|464:184,2,42.5,0|0|2
328,184,130472,1,0
248,184,130714,1,8
168,184,130956,1,8
112,128,131198,5,4
168,72,131440,1,0
248,80,131682,2,0,B|304:40|360:88,2,85,8|0|2
248,160,132408,2,0,B|192:120|136:168,2,85,0|8|0
248,240,133133,5,4
184,288,133375,1,0
192,328,133496,1,0
208,360,133617,1,8
288,360,133859,1,0
304,328,133980,1,0
312,288,134101,1,2
312,208,134343,2,0,B|352:168|416:216,2,85,0|8|0
256,192,135069,12,4,136520
104,112,137004,6,0,C|184:112,1,42.5,4|0
128,184,137367,2,0,C|184:184,1,42.5,0|2
152,256,137729,2,8,C|208:256,1,42.5,0|0
232,240,137972,1,8
264,224,138092,1,0
296,208,138213,1,2
328,192,138334,1,0
360,176,138455,1,8
360,256,138697,5,0
360,256,138940,2,0,B|400:320|480:312|504:224,3,170,4|2|4|2
384,80,140875,5,8
384,120,140996,1,0
384,160,141117,1,0
384,200,141238,1,0
384,240,141359,2,8,C|448:312,2,85,2|0|8
304,240,142085,2,2,C|240:328,2,85,0|2|0
128,80,142811,5,4
128,120,142932,1,0
128,160,143053,1,0
128,200,143174,1,0
128,240,143295,2,8,C|64:312,2,85,8|0|2
208,240,144021,2,2,C|264:304,2,85,0|8|2
144,64,144746,5,4
80,168,144988,1,0
208,168,145230,1,8
368,320,145714,5,4
304,216,145956,1,0
432,216,146198,1,8
120,96,146682,6,2,B|200:96,1,42.5,2|2
192,160,147045,1,2
192,160,147166,1,2
216,232,147408,2,0,B|328:232,3,85,0|8|8|4
376,96,148617,6,0,B|440:64|488:96,2,85,8|0|2
296,96,149343,2,0,B|232:64|184:96,2,85,0|8|0
336,160,150069,1,2
336,200,150190,1,0
336,240,150311,1,0
336,280,150432,1,0
336,320,150553,1,4
256,192,150795,12,4,153940
88,232,154424,5,4
88,152,154666,1,0
88,80,154908,5,8
168,80,155150,1,2
248,80,155391,1,8
248,160,155633,1,0
248,232,155875,5,8
328,232,156117,1,2
408,232,156359,1,8
408,152,156601,1,0
408,72,156843,5,8
328,72,157085,1,2
248,72,157327,1,8
248,152,157569,1,0
248,232,157811,5,8
168,232,158053,1,0
88,232,158295,1,8
88,80,158779,5,8
168,80,159021,1,2
248,80,159262,1,8
280,232,159746,5,8
360,232,159988,1,2
440,232,160230,1,8
440,80,160714,5,8
360,80,160956,1,0
280,80,161198,2,0,B|192:96|192:184|256:224,1,170,8|4
304,240,161924,1,0
400,208,162166,6,8,B|442:185|442:97|352:80,1,170,8|8
296,40,162891,1,0
232,80,163133,2,0,B|144:96|144:184|208:224,1,170,8|8
152,272,163859,1,0
208,336,164101,6,0,B|248:368|288:336,1,85,8|0
288,264,164585,2,0,B|336:240|368:272,1,85,8|0
392,200,165069,1,8
368,128,165311,1,0
344,96,165432,1,0
320,64,165553,1,8
224,48,165795,1,0
128,88,166037,5,4
168,152,166279,1,0
208,216,166521,2,0,B|248:240|296:208,2,85,8|0|2
248,152,167246,1,0
288,88,167488,2,0,B|328:128|400:88,2,85,8|0|2
288,168,168214,5,0
248,232,168456,2,0,B|232:280|152:288,2,85,8|0|2
288,168,169182,1,0
336,224,169424,1,8
384,280,169666,1,0
440,224,169908,6,0,B|480:120|480:112,1,85,2|0
440,72,170391,2,0,B|336:48,1,85,8|0
288,88,170875,2,0,B|240:184,1,85,4|4
256,192,171359,12,4,173779
56,80,174504,5,4
456,80,175230,5,4
256,288,175714,5,4
256,192,176198,12,0,179101
