osu file format v9

[General]
AudioFilename: (APH)Pub and GO!.mp3
AudioLeadIn: 1004
PreviewTime: 41972
Countdown: 0
SampleSet: Soft
StackLeniency: 0.7
Mode: 0
LetterboxInBreaks: 1

[Editor]
Bookmarks: 23358,45961,47246,59498,82811,83779,86682,87650,90553,91520,99869,106037,107004,136976,173600
DistanceSpacing: 1
BeatDivisor: 4
GridSize: 8

[Metadata]
Title:Pub and GO!
Artist:Noriaki Sugiyama
Creator:Mint Bunny
Version:Easy
Source:Hetalia: Axis Powers
Tags:England Igirisu Iggy UK APH crystalsuicune Mint_Bunny

[Difficulty]
HPDrainRate:3
CircleSize:3
OverallDifficulty:3
ApproachRate:3
SliderMultiplier:1
SliderTickRate:1

[Events]
//Background and Video events
0,0,"BG.jpg"
//Break Periods
2,59785,65887
2,119301,123951
//Storyboard Layer 0 (Background)
//Storyboard Layer 1 (Fail)
//Storyboard Layer 2 (Pass)
//Storyboard Layer 3 (Foreground)
//Storyboard Sound Samples
//Background Colour Transformations
3,100,163,162,255

[TimingPoints]
1521,483.870967741935,4,2,0,70,1,0
42166,-100,4,1,0,90,0,1
42650,-100,4,2,0,90,0,1
55714,-100,4,2,0,70,0,0
102166,-100,4,1,0,90,0,1
102650,-100,4,2,0,90,0,1
115714,-100,4,2,0,70,0,0
136520,-100,4,1,0,60,0,0
137004,-100,4,1,0,90,0,1
137104,-100,4,2,0,90,0,1
153940,-100,4,2,0,90,0,0
154908,-100,4,2,0,70,0,0
176682,-100,4,2,0,60,0,0
177166,-100,4,2,0,50,0,0
177650,-100,4,2,0,40,0,0
178133,-100,4,2,0,30,0,0
178617,-100,4,2,0,20,0,0
179101,-100,4,2,0,10,0,0

[Colours]
Combo1 : 64,128,128
Combo2 : 230,115,0
Combo3 : 221,221,0
Combo4 : 181,74,104

[HitObjects]
96,64,1521,2,0,B|216:64,1,100,8|0
192,160,2488,2,0,B|88:160,1,100,8|0
88,264,3456,5,8
192,264,3940,1,0
296,264,4424,1,8
400,264,4908,1,0
400,168,5391,6,0,B|296:168,1,100,8|0
200,168,6359,2,0,B|88:168,1,100,8|0
96,272,7327,5,8
200,272,7811,1,8
304,272,8295,2,0,B|392:312|440:240|416:168|376:160,1,200,8|4
320,96,9746,5,8
224,64,10230,2,0,B|160:80|144:136,1,100,0|8
144,224,11198,5,0
248,224,11682,1,8
352,224,12166,2,0,B|384:168|336:112,1,100,0|8
280,56,13133,6,0,B|176:56,3,100,4|8|0|8
176,160,15069,6,0,B|276:160,3,100,0|8|0|8
280,256,17004,5,4
344,336,17488,1,8
400,248,17972,2,0,B|384:184|320:184,2,100,0|8|0
472,176,19424,2,0,B|456:112|392:112,2,100,8|0|8
256,192,20875,12,2,22811
104,96,24746,5,2
208,96,25230,1,8
312,96,25714,1,2
320,296,26682,6,0,B|416:328|464:280|456:184,1,200,2|4
304,80,28617,6,0,B|248:48|200:88,1,100,0|8
112,80,29585,1,8
112,184,30069,1,2
112,280,30553,1,8
232,184,31279,6,8,B|304:184,1,50,8|4
400,80,32488,5,8
400,184,32972,1,2
400,288,33456,1,8
200,304,34424,6,0,B|152:264|96:312,2,100,8|2|8
320,144,36359,5,8
216,144,36843,1,2
112,144,37327,1,8
112,248,37811,6,0,B|232:248,1,100,2|8
216,352,38779,2,0,B|96:352,1,100,2|8
360,240,42166,6,0,B|408:216|480:240,3,100,4|2|8|2
408,320,44101,6,0,B|368:360|304:344,3,100,8|2|8|4
248,272,46037,6,0,B|136:272,2,100,8|2|8
304,184,47488,1,4
368,104,47972,6,0,B|432:88|464:152,2,100,8|2|8
264,104,49424,1,4
160,104,49908,6,0,B|48:104,1,100,8|2
64,208,50875,2,0,B|184:208,1,100,8|2
168,312,51843,2,4,B|288:312,3,100,8|2|8|4
224,224,53779,6,0,B|232:104|368:44|480:104|480:248,1,400,8|2
256,192,55956,12,4,59585
56,200,67327,6,0,B|152:232|272:200,1,200,8|8
256,104,68779,1,2
176,40,69262,5,8
72,40,69746,2,0,B|72:160,1,100,2|8
72,240,70714,1,2
176,240,71198,6,0,B|176:120,3,100,8|2|8|2
112,64,73133,2,0,B|0:64,3,100,8|2|8|2
32,160,75069,6,0,B|128:120|240:168,2,200,8|8|8
80,72,77488,1,2
176,48,77972,1,8
272,72,78456,2,0,B|336:80|352:144,1,100,2|8
280,208,79424,5,2
192,160,79908,1,8
104,200,80391,1,2
192,256,80875,2,0,B|212:295|232:304|284:279,1,100,8|2
376,280,81843,2,0,B|415:259|424:240|399:187,1,100,8|2
400,96,82811,6,0,B|448:72|504:104,2,100,4|2|0
296,96,84262,1,4
208,48,84746,5,8
120,88,85230,1,2
128,184,85714,1,8
216,224,86198,1,4
264,136,86682,6,0,B|160:136,2,100,8|2|8
328,56,88133,1,4
376,144,88617,6,0,B|336:200|368:248,1,100,8|2
320,328,89585,2,8,B|336:368|400:360|400:320,1,100,8|4
440,240,90553,6,0,B|472:224|504:248,4,50,8|0|2|0|8
368,168,92004,1,4
296,88,92488,5,8
208,32,92972,1,2
128,88,93456,1,8
160,184,93940,1,4
264,184,94424,5,8
312,96,94908,1,2
408,96,95391,1,8
464,176,95875,1,4
408,264,96359,5,8
304,264,96843,2,0,B|256:224|216:264,1,100,2|8
112,264,97811,1,4
256,192,98295,12,4,99746
88,176,100230,6,2,B|200:216,1,100,2|8
104,272,101198,2,2,B|216:312,1,100,2|8
216,208,102166,6,0,B|264:168|312:216,3,100,4|2|8|2
368,136,104101,1,8
272,104,104585,1,2
176,136,105069,1,4
80,312,106037,6,8,B|24:312,4,50,2|0|8|0|2
168,256,107488,1,8
256,200,107972,6,0,B|320:176|352:240,2,100,2|8|2
160,176,109424,1,4
88,248,109908,6,0,B|108:287|128:296|180:271,1,100,8|2
272,256,110876,2,0,B|311:235|320:216|295:163,1,100,8|2
272,88,111843,6,8,B|216:56|216:128|160:96,1,100,2|8
184,200,112811,2,12,B|232:232|288:192,1,100,4|8
368,160,113779,6,8,B|399:128|432:128|472:160,3,100,2|8|2|8
256,192,115714,12,4,119101
144,168,125391,5,8
248,184,125875,1,0
344,168,126359,1,4
56,88,127811,6,8,B|104:48|160:96,1,100,2|8
208,168,128779,2,8,B|272:168,2,50,2|0|8
184,264,129746,2,8,B|128:256|112:200,2,100,2|8|2
272,312,131198,5,4
360,264,131682,1,2
336,168,132166,1,8
240,168,132650,1,2
224,264,133133,1,4
256,192,134101,12,4,136521
288,272,137004,6,0,B|176:272,3,100,4|2|8|2
120,200,138940,5,8
184,120,139424,1,2
288,120,139908,1,4
176,288,140875,6,0,B|64:288,2,100,8|2|8
256,224,142327,1,2
336,168,142811,2,0,B|408:152|424:224,2,100,8|2|8
240,184,144262,1,4
160,248,144746,6,0,B|56:248,1,100,8|2
64,144,145714,2,0,B|168:144,1,100,8|2
248,88,146682,5,2
328,144,147166,1,8
248,200,147650,1,4
120,344,148617,6,0,B|0:344,2,100,8|2|8
216,344,150069,1,2
320,344,150553,1,4
256,192,150795,12,4,153940
416,64,154908,6,0,B|416:184,2,100,8|2|8
312,64,156359,1,2
208,64,156843,2,0,B|208:184,2,100,8|2|8
120,104,158295,5,2
120,208,158779,1,8
176,288,159262,2,0,C|296:288,1,100,2|8
376,288,160230,6,0,C|376:184,1,100,2|8
304,112,161198,1,2
200,112,161682,1,4
96,112,162166,6,0,B|40:88|-16:128,1,100,2|8
0,216,163133,2,0,B|40:256|96:232,1,100,2|8
176,184,164101,6,0,B|240:168|272:224,1,100,2|8
264,312,165069,2,0,B|232:368|160:352,1,100,2|8
176,272,166037,5,4
248,200,166521,1,8
320,128,167004,1,2
424,128,167488,1,8
480,208,167972,6,0,B|496:280|424:280,1,100,2|8
336,280,168940,2,0,B|275:280|291:208,1,100,2|8
368,144,169908,2,0,B|440:120|440:200,1,100,2|8
256,192,170875,12,4,173779
176,176,174504,5,4
336,176,175230,1,4
256,248,175714,1,4
256,192,176198,12,0,179101
