osu file format v13

[General]
AudioFilename: 07-Ghost ED - Hitomi no Kotae[TV-].mp3
AudioLeadIn: 0
PreviewTime: 44866
Countdown: 0
SampleSet: Soft
StackLeniency: 0.7
Mode: 0
LetterboxInBreaks: 1
WidescreenStoryboard: 1

[Editor]
Bookmarks: 46366
DistanceSpacing: 0.9
BeatDivisor: 4
GridSize: 4
TimelineZoom: 1

[Metadata]
Title:Hitomi no Kotae
TitleUnicode:Hitomi no Kotae
Artist:Noria
ArtistUnicode:Noria
Creator:Mistico315
Version:Insane
Source:07-Ghost
Tags:07 Ghost -Hanashi- Noria Hitomi no Kotae Mistico315
BeatmapID:449355
BeatmapSetID:188292

[Difficulty]
HPDrainRate:7
CircleSize:4
OverallDifficulty:8
ApproachRate:8
SliderMultiplier:1.8
SliderTickRate:1

[Events]
//Background and Video events
0,0,"5be170b7.jpg",0,0
//Break Periods
//Storyboard Layer 0 (Background)
//Storyboard Layer 1 (Fail)
//Storyboard Layer 2 (Pass)
//Storyboard Layer 3 (Foreground)
//Storyboard Sound Samples
//Background Colour Transformations
3,100,163,162,255

[TimingPoints]
3.33334487659437,545.454545454546,4,2,1,29,1,0
46400,-100,4,2,1,29,0,1
46503,-66.6666666666667,4,2,1,29,0,1
49230,-80,4,2,1,29,0,1
52776,-100,4,2,1,29,0,1
54957,-133.333333333333,4,2,1,29,0,1
56866,-100,4,2,1,29,0,1
63412,-80,4,2,1,29,0,1
72412,-133.333333333333,4,2,1,29,0,1
72512,-133.333333333333,4,2,1,29,0,1
81855,-100,4,2,1,29,0,0
81955,-200,4,2,1,29,0,0

[Colours]
Combo1 : 255,128,255
Combo2 : 192,192,192
Combo3 : 128,255,255
Combo4 : 255,255,128

[HitObjects]
140,248,7094,6,0,L|176:164,1,90
240,132,7639,2,0,L|328:168,1,90
360,228,8185,2,0,L|308:344,1,90
224,288,8730,1,0,0:0:0:0:
128,224,9003,6,0,P|80:196|64:144,1,90
144,136,9548,1,0,0:0:0:0:
168,52,9821,2,0,P|216:80|232:132,2,90,0|0|0,0:0|0:0|0:0,0:0:0:0:
144,136,10639,1,0,0:0:0:0:
220,200,10912,1,0,0:0:0:0:
144,256,11185,1,0,0:0:0:0:
240,280,11457,2,0,P|296:308|316:332,1,90
408,200,12003,2,0,P|352:228|332:252,1,90
248,112,12548,2,0,P|304:140|324:164,1,90
392,72,13094,1,0,0:0:0:0:
256,188,13366,6,0,L|256:284,2,90,0|0|0,0:0|0:0|0:0,0:0:0:0:
152,192,14185,1,0,0:0:0:0:
212,96,14457,2,0,L|312:96,1,90
356,192,15003,1,0,0:0:0:0:
204,336,15276,2,0,B|172:328|168:312|168:312|116:312,1,90
308,336,15821,2,0,B|340:328|344:312|344:312|396:312,1,90
200,232,16366,5,0,0:0:0:0:
244,176,16639,1,0,0:0:0:0:
304,216,16912,1,0,0:0:0:0:
264,276,17185,1,0,0:0:0:0:
384,264,17457,6,0,B|432:264|432:264|480:232,1,90
466,240,17866,1,0,0:0:0:0:
466,240,18003,1,0,0:0:0:0:
396,180,18276,1,0,0:0:0:0:
440,324,18548,2,0,B|400:348|400:348|356:344,1,90
356,344,18957,1,0,0:0:0:0:
300,276,19366,2,0,B|348:236|348:236|324:192,1,90
212,276,19912,2,0,B|164:236|164:236|188:192,2,90,0|0|0,0:0|0:0|0:0,0:0:0:0:
256,168,20730,5,0,0:0:0:0:
164,112,21003,1,0,0:0:0:0:
256,168,21276,1,0,0:0:0:0:
256,60,21548,1,0,0:0:0:0:
256,168,21821,1,0,0:0:0:0:
340,112,22094,6,0,B|376:80|376:80|444:124,2,90,0|0|0,0:0|0:0|0:0,0:0:0:0:
256,168,22912,1,0,0:0:0:0:
304,252,23185,1,0,0:0:0:0:
304,252,23321,2,0,P|224:304|160:292,1,135
192,232,24003,2,0,B|120:232|120:232|84:276,1,90
256,192,24548,12,0,26185,0:0:0:0:
316,64,26730,6,0,B|352:80|352:80|384:144,1,90
196,64,27276,2,0,B|160:80|160:80|128:144,1,90
296,160,27821,2,0,L|348:240,1,90,0|0,0:0|0:0,0:0:0:0:
216,160,28366,1,0,0:0:0:0:
216,160,28639,2,0,B|200:232|144:276|144:276|144:320,2,180,0|0|0,0:0|0:0|0:0,0:0:0:0:
264,260,30003,2,0,L|360:260,1,90
284,336,30548,2,0,L|188:336,1,90
176,264,31094,6,0,B|196:208|192:160|180:132|180:132|228:132,1,180
240,60,31912,2,0,B|296:60|332:100|356:144|404:144,1,180
400,148,32730,1,0,0:0:0:0:
400,148,33003,1,0,0:0:0:0:
312,152,33276,2,0,P|260:128|192:152,1,90
200,232,33821,2,0,P|252:256|320:232,1,90
144,92,34366,1,0,0:0:0:0:
60,152,34639,2,0,L|120:232,1,90
248,308,35457,6,0,P|304:272|320:248,1,90
380,312,36003,1,0,0:0:0:0:
380,312,36276,2,0,P|420:264|432:240,1,90
364,176,36821,1,0,0:0:0:0:
312,88,37094,1,0,0:0:0:0:
204,88,37366,1,0,0:0:0:0:
160,176,37639,2,0,B|140:252|100:304|100:304|144:308,1,180
144,308,38457,1,0,0:0:0:0:
368,156,39548,5,0,0:0:0:0:
368,156,39685,1,0,0:0:0:0:
368,156,39821,2,0,P|392:216|372:248,1,90
256,192,40366,1,0,0:0:0:0:
144,156,40639,1,0,0:0:0:0:
144,156,40776,1,0,0:0:0:0:
144,156,40912,2,0,P|120:216|140:248,1,90
256,288,41457,1,0,0:0:0:0:
256,128,41730,1,0,0:0:0:0:
360,184,42003,5,0,0:0:0:0:
432,148,42276,1,0,0:0:0:0:
472,220,42548,1,8,0:0:0:0:
400,256,42821,1,0,0:0:0:0:
212,60,43094,2,0,L|140:120,1,90
292,184,43639,1,8,0:0:0:0:
184,188,43912,1,0,0:0:0:0:
88,200,44185,1,0,0:0:0:0:
344,144,45003,6,0,P|388:116|400:72,1,90
168,144,45548,2,0,P|124:116|112:72,1,90,0|0,0:0|0:0,0:0:0:0:
256,200,46094,1,0,0:0:0:0:
256,208,46230,1,0,0:0:0:0:
256,216,46366,2,0,L|256:316,2,90,0|0|0,0:0|0:0|0:0,0:0:0:0:
312,136,47185,6,0,B|372:168|372:168|372:240,1,135.000005149842
200,136,47730,2,0,B|140:168|140:168|140:240,1,135.000005149842,0|0,0:0|0:0,0:0:0:0:
256,300,48276,1,0,0:0:0:0:
256,196,48548,2,0,L|256:60,2,135.000005149842,0|0|0,0:0|0:0|0:0,0:0:0:0:
408,148,49366,5,0,0:0:0:0:
404,156,49639,2,0,B|344:212|344:212|340:244,1,112.5
428,276,50185,2,0,P|380:332|324:332,1,112.5
324,264,50730,1,0,0:0:0:0:
232,236,51003,1,0,0:0:0:0:
232,236,51139,2,0,B|240:176|292:144|348:128,1,168.75
280,72,51821,2,0,P|224:56|160:68,3,112.5,0|0|0|0,0:0|0:0|0:0|0:0,0:0:0:0:
280,152,52912,6,0,P|340:188|356:220,1,90
256,224,53457,2,0,P|196:260|180:292,1,90,0|0,0:0|0:0,0:0:0:0:
280,296,54003,2,0,P|340:332|356:364,3,90,0|0|0|0,0:0|0:0|0:0|0:0,0:0:0:0:
384,268,55094,6,0,B|432:224|432:200|436:160|432:140,1,135.000005149842
312,208,55912,1,0,0:0:0:0:
312,208,56185,2,0,B|360:164|360:140|364:100|360:80,1,135.000005149842
176,132,57003,6,0,P|120:136|88:168,2,90,0|0|0,0:0|0:0|0:0,0:0:0:0:
252,168,57821,1,0,0:0:0:0:
312,112,58094,2,0,P|340:84|404:76,2,90,0|0|0,0:0|0:0|0:0,0:0:0:0:
340,208,58912,1,0,0:0:0:0:
284,276,59185,2,0,P|220:300|188:296,1,90
196,224,59730,2,0,P|128:224|80:212,1,90
168,144,60276,2,0,P|104:120|72:96,1,90
204,68,60821,2,0,P|144:12|140:-16,2,90,0|0|0,0:0|0:0|0:0,0:0:0:0:
272,152,61639,1,0,0:0:0:0:
372,304,62457,5,0,0:0:0:0:
280,280,62730,1,0,0:0:0:0:
372,304,63003,1,0,0:0:0:0:
348,220,63276,1,0,0:0:0:0:
372,304,63548,1,0,0:0:0:0:
372,304,63685,1,0,0:0:0:0:
372,304,63821,2,0,P|300:336|236:336,2,112.5,0|0|0,0:0|0:0|0:0,0:0:0:0:
196,256,64639,5,0,0:0:0:0:
256,136,64912,1,0,0:0:0:0:
316,256,65185,1,0,0:0:0:0:
192,184,65457,1,0,0:0:0:0:
316,184,65730,1,0,0:0:0:0:
256,256,66003,2,0,B|232:316|176:328|88:320|88:320|88:276,1,225
152,140,66821,5,0,0:0:0:0:
240,160,67094,2,0,P|304:136|348:144,3,112.5,0|0|0|0,0:0|0:0|0:0|0:0,0:0:0:0:
312,224,68185,1,0,0:0:0:0:
396,256,68457,1,0,0:0:0:0:
396,256,68594,2,0,P|332:304|240:292,1,168.75
120,264,69276,1,0,0:0:0:0:
120,264,69548,1,0,0:0:0:0:
184,184,69821,1,0,0:0:0:0:
184,184,70094,1,0,0:0:0:0:
400,72,70366,6,0,L|264:128,1,112.5
412,192,70912,2,0,L|296:192,1,112.5
404,316,71457,1,0,0:0:0:0:
304,328,71730,2,0,P|240:296|236:260,2,112.5,0|0|0,0:0|0:0|0:0,0:0:0:0:
320,248,72548,6,0,P|328:176|316:112,1,135.000005149842
416,208,73366,1,0,0:0:0:0:
416,208,73639,2,0,P|424:136|412:72,1,135.000005149842
300,236,74457,5,0,0:0:0:0:
212,148,74730,1,0,0:0:0:0:
256,256,75003,1,0,0:0:0:0:
256,128,75276,1,0,0:0:0:0:
212,232,75548,1,0,0:0:0:0:
300,152,75821,1,0,0:0:0:0:
180,192,76094,1,0,0:0:0:0:
332,192,76366,1,0,0:0:0:0:
412,192,76639,1,0,0:0:0:0:
412,192,76912,6,0,B|424:268|376:300|376:300|400:336,1,135.000005149842
268,276,77730,2,0,P|224:308|188:312,2,67.5000025749208,0|0|0,0:0|0:0|0:0,0:0:0:0:
200,236,78548,1,0,0:0:0:0:
132,192,78821,2,0,P|176:160|212:156,1,67.5000025749208,0|0,0:0|0:0,0:0:0:0:
256,192,79639,1,0,0:0:0:0:
184,120,80185,2,0,B|272:84|332:112|360:160|368:216,1,236.250009012223
256,192,81276,12,0,85639,0:0:0:0:
