osu file format v13

[General]
AudioFilename: 07-Ghost ED - Hitomi no Kotae[TV-].mp3
AudioLeadIn: 0
PreviewTime: 44900
Countdown: 3
SampleSet: Soft
StackLeniency: 0.7
Mode: 0
LetterboxInBreaks: 1
WidescreenStoryboard: 0

[Editor]
DistanceSpacing: 0.8
BeatDivisor: 4
GridSize: 4
TimelineZoom: 1

[Metadata]
Title:Hitomi no Kotae
TitleUnicode:Hitomi no Kotae
Artist:Noria
ArtistUnicode:Noria
Creator:Mistico315
Version:Hard
Source:07-Ghost
Tags:07 Ghost -Hanashi- Noria Hitomi no Kotae Mistico315
BeatmapID:448822
BeatmapSetID:188292

[Difficulty]
HPDrainRate:6
CircleSize:4
OverallDifficulty:6
ApproachRate:6
SliderMultiplier:1.4
SliderTickRate:1

[Events]
//Background and Video events
0,0,"5be170b7.jpg",0,0
//Break Periods
//Storyboard Layer 0 (Background)
//Storyboard Layer 1 (Fail)
//Storyboard Layer 2 (Pass)
//Storyboard Layer 3 (Foreground)
//Storyboard Sound Samples
//Background Colour Transformations
3,100,163,162,255

[TimingPoints]
31,545.454545454546,4,2,1,29,1,0
45031,-66.6666666666667,4,2,1,29,0,0
46400,-100,4,2,1,29,0,1
81855,-100,4,2,1,29,0,0

[Colours]
Combo1 : 255,128,255
Combo2 : 192,192,192
Combo3 : 128,255,255
Combo4 : 255,255,0

[HitObjects]
188,328,576,6,0,P|100:300|80:280,1,105
108,208,1258,1,0,0:0:0:0:
108,208,1394,1,0,0:0:0:0:
192,244,1667,2,0,L|192:132,1,105
112,120,2349,1,0,0:0:0:0:
112,120,2485,1,0,0:0:0:0:
196,60,2758,2,0,L|312:60,1,105
292,136,3440,1,0,0:0:0:0:
292,136,3576,1,0,0:0:0:0:
288,232,3849,6,0,P|200:192|188:160,2,105,0|0|0,0:0|0:0|0:0,0:0:0:0:
416,232,4940,5,0,0:0:0:0:
416,232,5212,1,0,0:0:0:0:
360,296,5485,1,0,0:0:0:0:
360,296,5758,1,0,0:0:0:0:
284,324,6031,2,0,B|232:284|168:312|168:232|88:220,1,210
160,152,7121,2,0,L|264:44,3,140,0|0|0|0,0:0|0:0|0:0|0:0,0:0:0:0:
264,200,9031,5,0,0:0:0:0:
344,148,9303,2,0,L|424:96,1,70
340,248,9849,2,0,L|420:300,1,70
264,320,10394,2,0,L|264:232,1,70
264,144,10940,2,0,L|264:68,1,70
196,40,11485,6,0,L|100:40,1,70
132,116,12031,1,0,0:0:0:0:
92,192,12303,1,0,0:0:0:0:
80,268,12576,2,0,P|100:312|128:320,1,70
116,316,13121,1,0,0:0:0:0:
228,268,13394,5,0,0:0:0:0:
312,236,13667,2,0,P|292:192|268:172,1,70
312,312,14212,2,0,P|292:356|268:376,1,70
392,236,14758,2,0,P|412:192|436:172,1,70
392,316,15303,2,0,P|412:360|436:380,1,70
264,320,15849,5,0,0:0:0:0:
264,320,16121,1,0,0:0:0:0:
264,320,16394,2,0,L|188:280,1,70
132,332,16940,1,0,0:0:0:0:
132,332,17212,1,0,0:0:0:0:
132,332,17485,1,0,0:0:0:0:
92,244,17758,6,0,L|72:200,2,35,0|0|0,0:0|0:0|0:0,0:0:0:0:
168,192,18303,1,0,0:0:0:0:
152,104,18576,2,0,P|188:56|208:40,2,70,0|0|0,0:0|0:0|0:0,0:0:0:0:
240,156,19394,2,0,P|280:200|308:208,1,70
312,104,19940,2,0,L|356:104,2,35,0|0|0,0:0|0:0|0:0,0:0:0:0:
384,184,20485,5,0,0:0:0:0:
296,256,20758,1,0,0:0:0:0:
416,288,21031,1,0,0:0:0:0:
296,256,21303,2,0,L|232:224,2,70,0|0|0,0:0|0:0|0:0,0:0:0:0:
316,340,22121,5,0,0:0:0:0:
316,340,22394,2,0,L|240:340,1,70
192,268,22940,1,0,0:0:0:0:
128,320,23212,1,0,0:0:0:0:
120,312,23349,1,0,0:0:0:0:
112,304,23485,2,0,P|72:248|68:168,1,140
140,184,24303,1,0,0:0:0:0:
256,192,24576,12,0,26212,0:0:0:0:
428,192,26758,5,0,0:0:0:0:
384,256,27031,1,0,0:0:0:0:
320,304,27303,1,0,0:0:0:0:
320,304,27576,2,0,P|232:280|200:228,1,140
288,216,28394,1,0,0:0:0:0:
288,216,28667,2,0,P|308:148|296:72,2,140,0|0|0,0:0|0:0|0:0,0:0:0:0:
212,260,30031,1,0,0:0:0:0:
276,288,30303,1,0,0:0:0:0:
248,352,30576,1,0,0:0:0:0:
180,328,30849,1,0,0:0:0:0:
180,328,31121,6,0,P|92:280|68:224,1,140
80,192,31940,2,0,L|224:192,1,140
240,124,32758,2,0,L|292:68,1,70
360,80,33303,6,0,P|408:92|432:112,1,70
376,212,33849,2,0,P|328:200|304:180,1,70,0|0,0:0|0:0,0:0:0:0:
200,236,34394,1,0,0:0:0:0:
212,320,34667,1,0,0:0:0:0:
132,328,34940,1,0,0:0:0:0:
288,320,35485,6,0,P|352:332|376:328,1,70
408,276,36031,1,0,0:0:0:0:
408,276,36303,2,0,B|360:240|348:176|348:176|328:176,1,140
328,176,37121,1,0,0:0:0:0:
328,176,37394,1,0,0:0:0:0:
252,240,37667,1,0,0:0:0:0:
108,200,38212,1,0,0:0:0:0:
144,112,38485,1,0,0:0:0:0:
240,68,39031,2,0,L|316:68,1,70
368,108,39576,5,0,0:0:0:0:
384,132,39712,1,0,0:0:0:0:
388,160,39849,2,0,L|388:244,1,70
368,308,40394,1,0,0:0:0:0:
264,276,40667,2,0,L|284:248,2,35,0|0|0,0:0|0:0|0:0,0:0:0:0:
192,328,41212,2,0,B|136:308|136:308|120:276,1,70
128,296,41758,1,0,0:0:0:0:
256,192,42031,12,0,44212,0:0:0:0:
112,104,45031,6,0,P|188:84|212:92,1,105.000004005432
272,152,45576,2,0,P|196:172|172:164,1,105.000004005432
96,224,46121,5,0,0:0:0:0:
96,232,46394,2,0,P|136:296|164:324,2,105.000004005432,0|0|0,0:0|0:0|0:0,0:0:0:0:
104,128,47212,2,0,B|144:80|144:80|180:80,1,70
220,140,47758,1,0,0:0:0:0:
280,60,48031,1,0,0:0:0:0:
220,140,48303,1,0,0:0:0:0:
304,136,48576,2,0,B|340:156|340:156|312:256,1,140
208,232,49394,5,0,0:0:0:0:
220,324,49667,2,0,P|280:344|312:336,3,70,0|0|0|0,0:0|0:0|0:0|0:0,0:0:0:0:
288,224,50758,2,0,L|348:272,1,70
228,164,51303,2,0,L|168:212,1,70
296,92,51849,2,0,L|356:140,1,70
220,40,52394,2,0,L|160:88,1,70
364,56,52940,5,0,0:0:0:0:
460,104,53212,1,0,0:0:0:0:
372,152,53485,2,0,L|328:228,1,70
336,216,54031,1,0,0:0:0:0:
248,236,54303,5,0,0:0:0:0:
176,184,54576,1,0,0:0:0:0:
248,236,54849,1,0,0:0:0:0:
324,300,55121,2,0,B|388:336|388:336|460:336,1,140
404,244,55940,1,0,0:0:0:0:
488,192,56212,2,0,B|424:156|424:156|352:156,1,140
276,192,57031,5,0,0:0:0:0:
184,272,57303,2,0,P|128:272|96:256,1,70
120,188,57849,2,0,P|176:188|208:204,1,70
148,264,58394,2,0,L|148:336,3,70,0|0|0|0,0:0|0:0|0:0|0:0,0:0:0:0:
236,328,59485,5,0,0:0:0:0:
312,288,59758,2,0,L|288:248,2,35,0|0|0,0:0|0:0|0:0,0:0:0:0:
392,252,60303,2,0,P|424:196|432:176,5,70,0|0|0|0|0|0,0:0|0:0|0:0|0:0|0:0|0:0,0:0:0:0:
428,96,61940,1,0,0:0:0:0:
428,96,62076,1,0,0:0:0:0:
428,96,62212,1,0,0:0:0:0:
320,92,62485,6,0,P|260:72|232:72,1,70
136,80,63031,2,0,P|84:120|60:148,1,70
212,152,63576,1,0,0:0:0:0:
216,160,63712,1,0,0:0:0:0:
220,168,63849,2,0,L|260:240,2,70,0|0|0,0:0|0:0|0:0,0:0:0:0:
112,156,64667,1,0,0:0:0:0:
44,228,64940,2,0,P|88:268|108:272,1,70
176,292,65485,1,0,0:0:0:0:
272,296,65758,1,0,0:0:0:0:
224,208,66031,2,0,P|168:176|136:172,2,70,0|0|0,0:0|0:0|0:0,0:0:0:0:
320,180,66849,6,0,L|384:236,1,70
376,228,67394,1,0,0:0:0:0:
436,144,67667,1,0,0:0:0:0:
440,44,67940,1,0,0:0:0:0:
440,44,68212,2,0,L|344:44,1,70
288,116,68758,2,0,L|360:116,1,70
304,188,69303,2,0,L|208:188,1,70
160,260,69849,2,0,L|236:260,1,70
312,328,70394,2,0,P|360:308|376:284,4,70,0|0|0|0|0,0:0|0:0|0:0|0:0|0:0,0:0:0:0:
144,320,71758,5,0,0:0:0:0:
232,320,72031,1,0,0:0:0:0:
200,244,72303,1,0,0:0:0:0:
160,172,72576,2,0,P|88:172|52:236,1,140
240,128,73394,1,0,0:0:0:0:
320,176,73667,2,0,P|392:176|428:240,1,140
356,272,74485,6,0,L|276:272,1,70
212,336,75031,2,0,P|152:304|144:280,2,70,0|0|0,0:0|0:0|0:0,0:0:0:0:
232,232,75849,1,0,0:0:0:0:
128,192,76121,1,0,0:0:0:0:
160,104,76394,2,0,P|244:100|292:140,1,140
336,192,77485,5,0,0:0:0:0:
336,192,77758,1,0,0:0:0:0:
268,256,78031,1,0,0:0:0:0:
268,256,78303,1,0,0:0:0:0:
200,192,78576,2,0,L|256:140,1,70
251,144,78985,1,0,0:0:0:0:
251,144,79121,1,0,0:0:0:0:
252,196,79667,5,0,0:0:0:0:
328,140,80212,2,0,B|424:140|424:140|368:252,1,210
256,192,81303,12,0,85667,0:0:0:0:
