osu file format v13

[General]
AudioFilename: 07-Ghost ED - Hitomi no Kotae[TV-].mp3
AudioLeadIn: 0
PreviewTime: 44884
Countdown: 0
SampleSet: Soft
StackLeniency: 0.7
Mode: 0
LetterboxInBreaks: 1
WidescreenStoryboard: 1

[Editor]
DistanceSpacing: 0.8
BeatDivisor: 4
GridSize: 4
TimelineZoom: 0.5

[Metadata]
Title:Hitomi no Kotae
TitleUnicode:Hitomi no Kotae
Artist:Noria
ArtistUnicode:Noria
Creator:Mistico315
Version:Easy
Source:07-Ghost
Tags:07 Ghost -Hanashi- Noria Hitomi no Kotae Mistico315
BeatmapID:449259
BeatmapSetID:188292

[Difficulty]
HPDrainRate:3
CircleSize:3
OverallDifficulty:2
ApproachRate:4
SliderMultiplier:1.4
SliderTickRate:1

[Events]
//Background and Video events
0,0,"5be170b7.jpg",0,0
//Break Periods
2,44402,45064
//Storyboard Layer 0 (Background)
//Storyboard Layer 1 (Fail)
//Storyboard Layer 2 (Pass)
//Storyboard Layer 3 (Foreground)
//Storyboard Sound Samples
//Background Colour Transformations
3,100,163,162,255

[TimingPoints]
3,545.454545454546,4,2,1,19,1,0
46400,-100,4,2,1,19,0,1
81855,-100,4,2,1,19,0,0

[Colours]
Combo1 : 255,128,255
Combo2 : 192,192,192
Combo3 : 128,255,255
Combo4 : 0,255,255

[HitObjects]
148,160,9293,6,0,B|120:212|112:252|104:280|100:300,2,140,0|0|0,0:0|0:0|0:0,0:0:0:0:
236,176,10930,1,0,0:0:0:0:
316,112,11475,1,0,0:0:0:0:
400,52,12021,2,0,B|452:52|480:56|480:56|452:112,2,140,0|0|0,0:0|0:0|0:0,0:0:0:0:
348,112,13657,6,0,P|312:176|240:224,1,140
236,124,14748,2,0,P|176:180|144:236,1,140
148,320,15839,2,0,P|232:328|288:296,2,140,0|0|0,0:0|0:0|0:0,0:0:0:0:
192,244,17475,1,0,0:0:0:0:
340,308,18021,5,0,0:0:0:0:
416,240,18566,2,0,B|440:196|444:152|440:124|432:100,2,140,0|0|0,0:0|0:0|0:0,0:0:0:0:
340,176,20203,1,0,0:0:0:0:
328,72,20748,2,0,B|268:60|224:64|180:68|132:96|104:124|88:156|72:188,1,280
84,168,22112,1,0,0:0:0:0:
172,188,22384,6,0,B|212:188|232:208|248:208|272:188|312:180,1,140
384,104,23475,2,0,B|408:136|400:164|400:200|400:200|444:200,1,140
440,288,24566,2,0,B|368:312|312:296|296:296,2,140,0|0|0,0:0|0:0|0:0,0:0:0:0:
360,224,26203,1,0,0:0:0:0:
248,232,26748,6,0,P|180:208|108:240,1,140
184,304,27839,1,0,0:0:0:0:
184,304,28384,1,0,0:0:0:0:
248,232,28930,2,0,P|176:208|92:240,1,140
184,132,30021,1,0,0:0:0:0:
184,132,30566,1,0,0:0:0:0:
272,76,31112,6,0,B|320:112|328:144|364:192|448:184|456:280,1,280
372,268,32748,1,0,0:0:0:0:
348,288,33293,1,0,0:0:0:0:
336,304,33839,2,0,B|280:332|248:336|224:328|196:320,1,140
200,320,34930,1,0,0:0:0:0:
264,236,35475,2,0,L|128:188,2,140,0|0|0,0:0|0:0|0:0,0:0:0:0:
264,236,37112,1,0,0:0:0:0:
268,144,37657,2,0,L|400:84,2,140,0|0|0,0:0|0:0|0:0,0:0:0:0:
268,144,39293,1,0,0:0:0:0:
352,196,39839,6,0,P|316:264|344:324,1,140
412,264,40930,2,0,P|448:196|420:136,1,140,0|0,0:0|0:0,0:0:0:0:
344,60,42021,6,0,B|336:68|344:76|336:84|328:76|320:84|328:92|320:100|312:92|304:100|312:108|304:116|296:108|288:116|296:124|288:132|280:124|272:132|280:140|272:148|264:140|256:148|264:156|256:164|248:156|240:164|248:172|240:180|232:172|224:180|232:188|240:196|248:188|256:196|248:204|256:212|264:204|272:212|264:220|272:228|280:220|288:228|280:236|288:244|296:236|304:244|296:252|304:260|312:252|320:260|312:268|320:276|328:268,2,280,0|0|0,0:0|0:0|0:0,0:0:0:0:
428,232,46384,6,4,B|428:296|428:296|360:344,2,140,0|0|0,0:0|0:0|0:0,0:0:0:0:
328,252,48021,1,0,0:0:0:0:
228,296,48566,2,0,B|228:224|228:224|276:168,2,140,0|0|0,0:0|0:0|0:0,0:0:0:0:
132,296,50203,1,0,0:0:0:0:
68,216,50748,2,0,P|68:152|120:96,1,140
160,176,51839,2,0,P|216:120|288:112,1,140
296,188,52930,2,0,B|392:168|392:168|376:232|452:288|472:280|472:280|460:324,2,280,0|0|0,0:0|0:0|0:0,0:0:0:0:
180,172,55657,6,0,L|180:316,1,140,0|4,0:0|0:0,0:0:0:0:
184,308,56748,1,0,0:0:0:0:
304,288,57293,2,0,P|352:264|380:184,1,140
368,92,58112,2,0,P|416:76|420:48,5,70,0|0|0|0|0|0,0:0|0:0|0:0|0:0|0:0|0:0,0:0:0:0:
292,136,60021,5,0,0:0:0:0:
252,192,60566,1,0,0:0:0:0:
220,248,61112,1,0,0:0:0:0:
180,300,61657,1,0,0:0:0:0:
136,348,62203,1,0,0:0:0:0:
64,264,62748,6,4,B|100:192|152:136|208:112|284:96,1,280
280,184,64384,1,0,0:0:0:0:
392,200,64930,2,0,P|392:120|364:68,2,140,0|0|0,0:0|0:0|0:0,0:0:0:0:
392,200,66566,1,0,0:0:0:0:
344,284,67112,6,0,L|200:304,1,140
236,196,68203,2,0,L|352:288,1,140
344,284,69293,2,0,L|360:140,1,140
452,196,70384,2,0,L|332:292,3,140,0|0|0|0,0:0|0:0|0:0|0:0,0:0:0:0:
220,292,72566,5,4,0:0:0:0:
108,312,73112,2,0,P|84:232|112:180,1,140
200,176,74203,1,0,0:0:0:0:
320,104,74748,2,0,B|380:136|380:136|380:212,1,140
292,192,75839,2,0,B|292:268|292:268|352:312,2,140,0|0|0,0:0|0:0|0:0,0:0:0:0:
124,140,77475,5,0,0:0:0:0:
108,244,78021,2,0,P|168:296|232:304,2,140,0|0|0,0:0|0:0|0:0,0:0:0:0:
108,244,79657,1,4,0:0:0:0:
192,108,80203,2,0,L|344:108,1,140
256,192,81293,12,0,83475,0:0:0:0:
