osu file format v4

[General]
AudioFilename: Guru Guru Gravity.mp3
AudioLeadIn: 0
AudioHash: 68ae5f49d8dbdb83fd40f060d4bc9758
PreviewTime: -1
SampleSet: Normal

[Metadata]
Title:Guru Guru Gravity
Artist:Nori Horikoshi
Creator:darkbluetornado
Version:Normal

[Difficulty]
HPDrainRate:5
CircleSize:5
OverallDifficulty:6
SliderMultiplier: 1.4
SliderTickRate: 2

[Events]
0,0,"beautiful-katamari-2.jpg"
2,56514,70456
2,104802,117887
2,132369,147439
3,0,163,162,255

[TimingPoints]
950,441.179173711681,4,1,1

[HitObjects]
256,192,29186,1,0,
256,192,30069,1,0,
256,192,30951,2,0,B|256:192|32:192,1,210
256,192,32715,5,0,
256,192,33597,1,0,
256,192,34479,2,0,B|256:192|480:192,1,210
416,128,35803,5,0,
352,96,36023,2,0,B|352:96|256:32|96:128,1,210
128,160,37126,1,0,
128,256,37567,1,0,
128,288,37788,1,0,
192,320,39552,6,0,B|192:320|448:320|448:128,1,350
352,128,41537,1,0,
352,128,41757,1,0,
352,192,41978,1,0,
352,192,42198,1,0,
352,288,43080,6,0,B|352:288|288:288,1,70
224,288,43962,2,0,B|224:288|160:288,1,70
96,288,44845,1,0,
96,224,45065,1,0,
96,160,45286,1,0,
96,96,45506,1,0,
96,32,45727,1,0,
160,32,46609,6,0,B|160:32|224:32,1,70
288,32,47491,2,0,B|288:32|352:32,1,70
416,32,48373,1,0,
416,96,48594,1,0,
416,160,48814,1,0,
416,224,49035,1,0,
416,288,49255,1,0,
352,288,49917,5,0,
288,256,50137,2,0,B|288:256|128:96,1,210
224,96,51250,1,0,
352,96,51691,1,0,
384,96,51912,1,0,
448,96,53676,6,2,B|448:96|448:288|320:288,1,210
320,288,54558,1,2,
320,288,54778,1,2,
256,288,55661,2,0,B|256:288|192:288|224:192,1,70
192,192,56102,2,0,B|192:192|192:128|256:128,1,70
96,320,71514,6,0,B|96:320|96:224,1,70
96,160,72175,2,0,B|96:160|96:64|224:96,1,140
256,96,73057,1,0,
256,224,73499,1,0,
256,288,73719,1,0,
256,352,73940,1,0,
320,352,74176,2,2,B|320:352|416:256,2,105
320,288,75263,5,2,
384,288,75483,1,2,
352,224,75704,1,2,
256,128,76145,1,2,
192,128,76366,1,2,
224,64,76586,1,2,
128,256,77027,1,2,
96,320,77248,1,2,
160,320,77468,1,2,
224,320,77909,2,0,B|224:320|320:320|288:192,1,140
288,160,78571,5,0,
288,96,78791,1,0,
160,96,79233,1,0,
160,192,79674,1,0,
160,256,79894,1,0,
224,256,80115,1,0,
320,256,80556,1,0,
384,256,80776,1,0,
448,256,80997,1,0,
448,192,81217,1,2,
320,128,81564,1,2,
192,64,81895,1,2,
160,192,82777,5,0,
160,192,82998,1,0,
256,192,83439,1,2,
256,192,83660,1,0,
256,192,83880,1,2,
352,192,84321,1,2,
256,288,84762,1,2,
160,288,85203,1,2,
160,288,85423,1,2,
160,288,85644,6,0,B|160:288|96:288|96:192,1,70
96,192,86306,2,0,B|96:192|96:96|192:64,1,140
224,64,87188,1,0,
320,128,87629,1,0,
320,192,87850,1,0,
320,256,88070,1,0,
256,256,88291,1,2,
160,160,88621,1,2,
96,64,88952,1,2,
160,64,89393,6,0,B|160:64|320:64,1,140
320,128,90275,2,0,B|320:128|160:128,1,140
192,192,91158,2,0,B|192:192|352:192,1,140
288,256,92040,1,0,
224,256,92260,1,0,
256,320,92481,1,0,
320,320,92701,6,0,B|320:320|384:320|352:224,1,70
384,224,93363,2,0,B|384:224|384:160|288:128,1,140
224,128,94245,1,0,
96,192,94686,1,0,
96,256,94907,1,0,
96,320,95127,1,0,
160,320,95348,1,2,
288,320,95679,1,2,
416,256,96009,1,6,
256,192,97553,12,0,99759
160,128,101302,1,0,
160,192,101523,1,0,
160,256,101743,1,0,
256,256,102184,1,0,
352,256,102626,1,0,
352,160,103067,1,0,
352,64,103508,1,0,
256,64,103949,1,0,
256,128,104169,1,2,
256,192,104390,1,0,
256,256,104610,1,6,
128,64,118945,5,0,
128,128,119166,1,0,
224,224,119828,1,0,
224,288,120048,1,0,
320,128,120710,1,0,
352,192,120930,1,0,
384,256,121151,1,0,
320,256,121371,1,0,
256,256,121592,1,0,
384,96,122474,5,0,
384,160,122695,1,0,
256,224,123356,1,0,
256,288,123577,1,0,
160,160,124238,1,0,
128,224,124458,1,0,
96,288,124679,1,0,
160,288,124899,1,0,
224,288,125120,1,0,
320,288,125782,5,0,
320,224,126003,2,0,B|320:224|320:64,1,140
320,84,126664,1,0,
192,96,127105,1,0,
192,96,127326,1,0,
96,192,127767,1,0,
160,256,129531,2,0,B|160:256|416:64,1,280
384,88,130634,1,0,
384,88,130854,1,0,
288,96,131516,2,0,B|288:96|224:96,3,70
256,192,148497,5,0,
256,192,148718,1,0,
416,96,149159,5,0,
416,160,149380,1,0,
416,320,149821,2,0,B|416:320|256:320,1,140
224,320,150703,2,0,B|224:320|96:320|96:160,1,210
192,96,151806,1,0,
256,160,152136,1,0,
320,224,152467,1,0,
416,64,152908,5,0,
416,64,153129,1,0,
416,64,153349,1,0,
288,128,153790,1,0,
288,128,154011,1,0,
288,128,154231,1,0,
128,192,154673,1,0,
128,192,154893,1,0,
128,192,155114,1,0,
192,256,155555,2,0,B|192:256|224:224|256:292|352:224,1,140
384,224,156216,5,0,
288,128,156657,1,0,
288,128,156878,1,0,
192,128,157319,1,0,
128,224,157760,1,0,
224,288,158201,1,0,
288,288,158422,1,0,
352,288,158642,1,0,
416,288,158863,2,2,B|416:288|416:160,2,105
352,192,160407,5,0,
352,192,160627,1,0,
256,192,161068,1,2,
256,192,161289,1,0,
256,192,161509,1,2,
160,192,161950,1,2,
96,96,162391,1,2,
192,96,162832,1,2,
256,96,163053,1,2,
320,96,163274,6,0,B|320:96|384:96|352:192,1,70
320,224,163935,2,0,B|320:224|320:288|416:288|416:160,1,140
352,128,164817,2,2,B|352:128|320:64|224:192|128:96,1,210
96,96,165920,1,2,
96,192,166251,1,2,
192,256,166582,1,2,
288,256,167023,5,0,
352,256,167243,2,0,B|352:256|448:256,1,70
416,192,167905,1,0,
352,192,168125,2,0,B|352:192|288:192,1,70
288,128,168787,1,0,
352,128,169008,2,0,B|352:128|416:128,1,70
320,64,169669,5,0,
320,64,170110,1,0,
256,64,170331,1,0,
192,64,170551,1,0,
128,64,170992,2,0,B|128:64|96:128|192:256,1,140
224,224,171875,1,0,
320,288,172316,1,0,
320,224,172536,1,0,
320,160,172757,1,0,
320,96,172977,2,6,B|320:96|192:96,2,105
256,192,174742,12,6,177388
96,96,178932,1,2,
160,96,179152,1,2,
224,96,179373,1,2,
160,192,179814,1,2,
160,320,180255,1,2,
256,320,180696,1,2,
352,320,181137,1,2,
352,192,181578,1,2,
288,192,181799,1,6,
224,192,182019,1,2,
160,192,182240,1,6,
