osu file format v12

[General]
AudioFilename: Nordkapp - Hey You (Nightcore Mix).mp3
AudioLeadIn: 0
PreviewTime: 26089
Countdown: 0
SampleSet: Normal
StackLeniency: 0.3
Mode: 0
LetterboxInBreaks: 0
EpilepsyWarning: 1
WidescreenStoryboard: 0

[Editor]
DistanceSpacing: 0.8
BeatDivisor: 4
GridSize: 4

[Metadata]
Title:Hey You (Nightcore Mix)
TitleUnicode:Hey You (Nightcore Mix)
Artist:Nordkapp
ArtistUnicode:Nordkapp
Creator:BounceBabe
Version:Hey Babe!
Source:
Tags:Gero Trance Techno Remix
BeatmapID:175212
BeatmapSetID:58246

[Difficulty]
HPDrainRate:4
CircleSize:3
OverallDifficulty:4
ApproachRate:5
SliderMultiplier:1.2
SliderTickRate:2

[Events]
//Background and Video events
0,0,"BG.jpg",0,0
//Break Periods
2,117198,122027
2,143283,145387
//Storyboard Layer 0 (Background)
//Storyboard Layer 1 (Fail)
//Storyboard Layer 2 (Pass)
//Storyboard Layer 3 (Foreground)
//Storyboard Sound Samples
//Background Colour Transformations
3,100,255,255,255

[TimingPoints]
1756,389.33229511388,4,1,1,80,1,0
26770,-100,4,1,2,80,0,0
34362,-100,4,1,3,80,0,0
34557,-100,4,1,2,80,0,0
37477,-100,4,1,3,80,0,0
37671,-100,4,1,2,80,0,0
40299,-100,4,2,1,45,0,0
46042,-100,4,2,2,60,0,0
59279,-100,4,1,1,80,0,0
59474,-100,4,1,2,80,0,0
62394,-100,4,1,3,80,0,0
62589,-100,4,1,2,80,0,0
67066,-100,4,1,3,80,0,0
67261,-100,4,1,2,80,0,0
68623,-100,4,1,3,80,0,0
68818,-100,4,1,2,80,0,0
73295,-100,4,2,1,45,0,0
78843,-100,4,2,2,60,0,0
79330,-100,4,2,1,80,0,0
79622,-100,4,2,2,60,0,0
91983,-100,4,1,1,80,0,0
92567,-100,4,1,2,80,0,0
99770,-100,4,1,3,80,0,0
99965,-100,4,1,2,80,0,0
102885,-100,4,1,3,80,0,0
103079,-100,4,1,2,80,0,0
104539,-100,4,1,1,80,0,1
104637,-100,4,1,2,80,0,1
116901,-100,4,1,1,80,0,0
116998,-100,4,1,1,80,0,1
117095,-100,4,2,2,45,0,0
128970,-100,4,2,2,60,0,0
135588,-100,4,2,2,70,0,0
140260,-133.333333333333,4,2,1,5,0,0
146587,-100,4,1,1,80,0,1
146684,-100,4,1,2,80,0,0
149604,-100,4,1,3,80,0,0
149799,-100,4,1,2,80,0,0
154276,-100,4,1,3,80,0,0
154471,-100,4,1,2,80,0,0
155834,-100,4,1,3,80,0,0
156028,-100,4,1,2,80,0,0
158948,-100,4,1,1,80,0,0
159143,-100,4,1,2,80,0,0
160116,-100,4,1,3,80,0,0
160311,-100,4,1,2,80,0,0
161674,-100,4,1,3,80,0,0
161868,-100,4,1,2,80,0,0
171407,-100,4,1,1,80,0,0
171504,-100,4,1,1,80,0,1
171602,-100,4,1,2,80,0,1
182308,-100,4,1,3,80,0,1
182503,-100,4,1,2,80,0,1
183574,-100,4,1,1,80,0,0
183963,-100,4,1,1,80,0,1
184060,-100,4,2,2,60,0,0
191263,-100,4,2,3,60,0,0
191458,-100,4,2,2,60,0,0
192820,-100,4,2,3,60,0,0
193015,-100,4,2,2,60,0,0
194378,-100,4,2,3,60,0,0
194572,-100,4,2,2,60,0,0
196324,-100,4,1,1,80,0,0

[Colours]
Combo1 : 0,128,255
Combo2 : 255,128,0
Combo3 : 255,255,255
Combo4 : 0,255,255
Combo5 : 255,255,0
Combo6 : 255,0,0
Combo7 : 0,255,0
Combo8 : 255,0,255

[HitObjects]
256,192,23558,12,4,25115,0:0:0:0:
56,64,26283,53,0,0:0:0:0:
56,160,26673,2,0,B|132:152|149:84|149:84|184:48,2,180,4|0|0,0:0|0:0|0:0,0:0:0:0:
56,256,28230,2,0,B|124:284|174:241|174:241|228:228,1,180,8|0,0:0|0:0,0:0:0:0:
360,192,29398,1,0,0:0:0:0:
448,152,29787,6,0,B|412:92|336:100|336:100|288:80,2,180,8|0|0,0:0|0:0|0:0,0:0:0:0:
464,248,31345,2,0,B|432:304|360:288,1,120,8|0,0:0|0:0,0:0:0:0:
312,288,31929,2,0,B|240:272|208:328,1,120,8|0,0:0|0:0,0:0:0:0:
160,320,32513,2,0,L|96:296,1,60
56,280,32902,1,0,0:0:0:0:
76,188,33291,1,0,0:0:0:0:
48,96,33681,6,0,B|112:56|112:56|160:24|216:48,2,180,0|0|0,0:0|0:0|0:0,0:0:0:0:
76,188,35238,2,0,B|127:210|175:178|175:178|239:138,1,180
276,108,36017,2,0,P|316:63|380:52,1,120,8|0,0:0|0:0,0:0:0:0:
460,12,36795,6,0,B|480:64|452:108|452:108|492:180,2,180
372,56,38353,2,0,B|300:56|292:128,1,120,8|0,0:0|0:0,0:0:0:0:
280,176,38937,1,0,0:0:0:0:
280,224,39131,1,4,0:0:0:0:
132,328,40689,22,0,P|52:296|36:208,1,180,6|0,0:0|0:0,0:0:0:0:
60,72,41857,1,2,0:0:0:0:
100,48,42051,1,0,0:0:0:0:
148,48,42246,2,0,P|204:56|244:104,2,120
388,96,43803,6,0,P|388:192|324:232,1,180,2|0,0:0|0:0,0:0:0:0:
244,120,44971,1,2,0:0:0:0:
196,128,45166,1,0,0:0:0:0:
156,152,45361,2,0,B|60:72,2,120,4|0|0,0:0|0:0|0:0,0:0:0:0:
244,120,46529,1,0,0:0:0:0:
320,64,46918,6,0,B|392:56|416:120,1,120,4|0,0:0|0:0,0:0:0:0:
328,168,47697,2,0,B|352:232|424:224,1,120
448,320,48475,2,0,B|328:320,3,120
232,320,50033,86,0,B|112:320,1,120
136,224,50811,2,0,B|48:144,1,120
8,56,51590,2,0,B|72:32|120:80,3,120
216,88,53147,6,0,B|304:64|352:152|352:152|432:152,1,240
512,200,54315,1,0,0:0:0:0:
424,232,54705,2,0,B|347:232|347:232|299:320|211:296,1,240
120,280,55873,1,0,0:0:0:0:
80,192,56262,6,0,B|40:144,1,60
80,120,56651,2,0,B|88:48,1,60
120,24,57041,1,0,0:0:0:0:
184,96,57430,1,0,0:0:0:0:
248,24,57819,2,0,B|344:24|344:24|396:96,2,180
144,48,59377,6,0,B|56:136,1,120,4|0,0:0|0:0,0:0:0:0:
56,184,59961,2,0,P|56:216|72:240,1,60
104,272,60350,1,0,0:0:0:0:
144,296,60545,2,0,P|179:313|200:312,1,60,8|0,0:0|0:0,0:0:0:0:
296,328,61129,2,0,L|360:328,1,60,8|0,0:0|0:0,0:0:0:0:
408,328,61518,5,0,0:0:0:0:
448,296,61713,2,0,L|472:240,1,60
480,192,62102,1,0,0:0:0:0:
488,144,62297,2,0,B|416:144|408:80|408:80|344:64,1,180
248,48,63270,5,0,0:0:0:0:
200,44,63465,1,0,0:0:0:0:
152,48,63659,1,0,0:0:0:0:
72,104,64049,1,8,0:0:0:0:
32,192,64438,1,0,0:0:0:0:
72,216,64633,2,0,B|120:248|120:248|184:248,1,120,8|0,0:0|0:0,0:0:0:0:
232,248,65217,2,0,B|280:296,2,60,8|0|8,0:0|0:0|0:0,0:0:0:0:
256,152,65995,5,0,0:0:0:0:
328,96,66385,2,0,P|392:56|480:112,2,180
400,152,67942,2,0,B|475:215|479:262|479:262|456:298,2,180
328,96,69499,5,0,0:0:0:0:
284,72,69694,1,0,0:0:0:0:
240,48,69889,1,0,0:0:0:0:
152,96,70278,1,8,0:0:0:0:
64,48,70667,1,0,0:0:0:0:
40,88,70862,2,0,P|16:152|40:192,1,120,8|0,0:0|0:0,0:0:0:0:
64,232,71446,2,0,L|88:288,2,60,8|0|4,0:0|0:0|0:0,0:0:0:0:
448,192,73393,6,0,P|456:264|416:280,1,120,4|0,0:0|0:0,0:0:0:0:
344,336,74171,2,0,L|224:336,1,120,0|2,0:0|0:0,0:0:0:0:
176,336,74755,1,0,0:0:0:0:
128,320,74950,2,0,L|72:296,2,60
184,240,75729,2,0,P|200:152|128:112,1,180,0|0,0:0|0:0,0:0:0:0:
88,96,76507,6,0,L|192:32,1,120
288,32,77286,2,0,L|360:32,2,60,0|0|2,0:0|0:0|0:0,0:0:0:0:
190,33,78065,2,0,P|200:112|288:152,1,180,4|0,0:0|0:0,0:0:0:0:
328,160,78843,2,0,P|384:144|448:168,1,120
384,240,79622,6,0,P|408:320|488:296,1,180,4|0,0:0|0:0,0:0:0:0:
384,240,80790,1,2,0:0:0:0:
288,240,81179,2,0,B|248:288|248:288|248:352,2,120
344,160,82347,1,2,0:0:0:0:
344,160,82737,86,0,P|344:72|432:64,1,180
344,160,83905,1,2,0:0:0:0:
440,152,84294,1,4,0:0:0:0:
236,56,85202,2,0,L|164:56,1,60
64,56,85851,6,0,P|24:144|72:200,1,180
184,288,87019,1,0,0:0:0:0:
184,288,87214,1,0,0:0:0:0:
184,288,87409,2,0,P|224:200|176:144,2,180
88,288,88966,5,0,0:0:0:0:
184,288,89355,2,0,L|248:288,1,60
296,288,89745,1,0,0:0:0:0:
392,288,90134,1,0,0:0:0:0:
256,192,90523,12,4,92081,0:0:0:0:
32,48,92859,6,0,L|136:124,1,120
120,216,93638,2,0,P|208:192|232:112,1,180,8|0,0:0|0:0,0:0:0:0:
232,64,94417,6,0,L|352:64,1,120
448,72,95195,2,0,B|496:144|496:144|448:224,1,180,8|0,0:0|0:0,0:0:0:0:
424,264,95974,1,0,0:0:0:0:
344,320,96363,1,0,0:0:0:0:
264,264,96753,6,0,L|144:288,1,120,8|0,0:0|0:0,0:0:0:0:
104,320,97337,2,0,P|48:296|48:240,1,120,8|0,0:0|0:0,0:0:0:0:
48,192,97921,1,0,0:0:0:0:
48,144,98115,2,0,L|48:72,1,60,0|8,0:0|0:0,0:0:0:0:
144,84,98699,1,0,0:0:0:0:
240,56,99089,6,0,B|368:56|368:56|408:80|424:64,2,180
216,152,100646,2,0,B|306:242|306:242|351:253|351:276,1,180
376,312,101425,2,0,P|408:352|472:340,1,120,8|0,0:0|0:0,0:0:0:0:
472,248,102203,6,0,L|472:64,2,180
472,344,103761,2,0,P|412:352|352:344,1,120,8|0,0:0|0:0,0:0:0:0:
312,328,104345,1,8,0:0:0:0:
288,288,104539,6,0,P|229:280|169:288,1,120,4|0,0:0|0:0,0:0:0:0:
72,296,105318,1,0,0:0:0:0:
72,296,105513,2,0,P|64:272|72:240,2,60,0|8|0,0:0|0:0|0:0,0:0:0:0:
80,152,106486,1,8,0:0:0:0:
112,64,106875,21,0,0:0:0:0:
112,64,107070,2,0,P|136:56|168:64,2,60,0|8|0,0:0|0:0|0:0,0:0:0:0:
312,64,108043,1,8,0:0:0:0:
408,56,108433,6,0,P|464:80|448:136,1,120,8|0,0:0|0:0,0:0:0:0:
424,168,109017,2,0,P|415:217|471:241,1,120,8|0,0:0|0:0,0:0:0:0:
472,288,109601,1,0,0:0:0:0:
472,336,109795,1,0,0:0:0:0:
376,336,110185,1,0,0:0:0:0:
376,336,110379,2,0,L|312:336,2,60,0|0|8,0:0|0:0|0:0,0:0:0:0:
248,272,111353,5,0,0:0:0:0:
248,272,111547,2,0,B|328:224|328:224|328:192,1,120
400,128,112326,2,0,B|344:88|280:112|280:112|240:72,1,180,8|0,0:0|0:0,0:0:0:0:
228,28,113105,2,0,L|100:28,1,120
48,104,113883,2,0,B|4:104|4:104|4:176|4:176|44:232,1,180,8|0,0:0|0:0,0:0:0:0:
80,256,114662,5,0,0:0:0:0:
160,312,115051,1,0,0:0:0:0:
256,312,115441,1,8,0:0:0:0:
336,256,115830,1,0,0:0:0:0:
380,236,116025,2,0,P|416:192|380:148,1,120,8|0,0:0|0:0,0:0:0:0:
336,128,116609,2,0,L|280:96,2,60,8|0|4,0:0|0:0|0:0,0:0:0:0:
440,168,123227,38,0,P|470:88|401:37,2,180
344,152,124785,2,0,P|279:100|310:21,2,180
336,248,126342,6,0,B|256:292|256:292|176:248,1,180
56,328,127510,1,0,0:0:0:0:
56,328,127899,2,0,P|24:272|32:216,3,120
64,128,129456,6,0,P|104:80|160:80,1,120,2|0,0:0|0:0,0:0:0:0:
216,152,130235,2,0,P|270:152|310:104,1,120,0|0,0:0|0:0,0:0:0:0:
360,96,130819,1,0,0:0:0:0:
408,104,131014,2,0,P|448:152|502:153,3,120,2|0|0|0,0:0|0:0|0:0|0:0,0:0:0:0:
504,248,132571,86,0,L|400:312,1,120,2|0,0:0|0:0,0:0:0:0:
304,312,133350,2,0,L|202:250,1,120
152,248,133934,1,0,0:0:0:0:
104,248,134128,2,0,B|88:288|88:288|8:288,3,120,2|0|0|0,0:0|0:0|0:0|0:0,0:0:0:0:
32,192,135686,6,0,B|48:128|88:112|88:112|139:99|144:56,1,180,2|0,0:0|0:0,0:0:0:0:
192,64,136464,1,0,0:0:0:0:
288,64,136854,1,0,0:0:0:0:
384,68,137243,2,0,B|432:108|400:148|400:148|411:167|472:200,1,180,2|0,0:0|0:0,0:0:0:0:
472,248,138022,1,0,0:0:0:0:
408,320,138411,1,0,0:0:0:0:
316,352,138800,6,0,L|196:352,1,120,2|0,0:0|0:0,0:0:0:0:
96,352,139579,2,0,P|64:304|96:256,1,120
160,176,140358,86,0,B|210:114|60:96|191:-65|303:25|280:104|280:104|353:65|464:155|334:317|285:174|234:237,1,630,4|0,0:1|0:0,0:0:0:0:
368,336,146587,38,0,B|456:248,1,120,4|0,0:0|0:0,0:0:0:0:
456,200,147171,2,0,P|456:168|440:144,1,60
408,112,147560,1,0,0:0:0:0:
368,88,147755,2,0,P|333:71|312:72,1,60,8|0,0:0|0:0,0:0:0:0:
216,56,148339,2,0,L|152:56,1,60,8|0,0:0|0:0,0:0:0:0:
104,56,148728,5,0,0:0:0:0:
64,88,148923,2,0,L|40:144,1,60
32,192,149312,1,0,0:0:0:0:
24,240,149507,2,0,B|96:240|104:304|104:304|168:320,1,180
264,336,150480,5,0,0:0:0:0:
360,336,150870,1,0,0:0:0:0:
440,280,151259,1,8,0:0:0:0:
480,192,151648,1,0,0:0:0:0:
440,168,151843,2,0,B|392:136|392:136|328:136,1,120,8|0,0:0|0:0,0:0:0:0:
280,136,152427,2,0,B|232:88,2,60,8|0|8,0:0|0:0|0:0,0:0:0:0:
256,232,153206,5,0,0:0:0:0:
184,288,153595,2,0,P|120:344|32:320,2,180
112,232,155152,2,0,B|37:169|33:122|33:122|56:86,2,180
184,288,156710,5,0,0:0:0:0:
228,312,156904,1,0,0:0:0:0:
272,336,157099,1,0,0:0:0:0:
360,288,157488,1,8,0:0:0:0:
448,336,157878,1,0,0:0:0:0:
472,296,158072,2,0,P|496:232|472:192,1,120,8|0,0:0|0:0,0:0:0:0:
448,152,158656,2,0,L|424:96,1,60,8|0,0:0|0:0,0:0:0:0:
384,80,159046,54,0,P|325:88|265:80,1,120,4|0,0:0|0:0,0:0:0:0:
168,56,159824,1,0,0:0:0:0:
128,80,160019,2,0,P|80:112|48:168,2,120
168,56,160992,1,8,0:0:0:0:
192,152,161382,5,0,0:0:0:0:
168,192,161576,2,0,P|144:248|160:312,2,120
192,152,162550,1,8,0:0:0:0:
272,208,162939,6,0,P|328:216|344:272,1,120,0|8,0:0|0:0,0:0:0:0:
392,280,163523,2,0,P|408:334|464:342,1,120,0|0,0:0|0:0,0:0:0:0:
496,312,164107,1,8,0:0:0:0:
472,216,164496,2,0,L|496:88,1,120,0|8,0:0|0:0,0:0:0:0:
440,16,165275,1,0,0:0:0:0:
296,24,165859,5,0,0:0:0:0:
296,24,166054,2,0,B|376:72|376:72|376:104,1,120
448,168,166832,2,0,B|392:208|328:184|328:184|288:224,1,180,8|0,0:0|0:0,0:0:0:0:
276,268,167611,2,0,L|148:268,1,120
60,264,168390,2,0,B|16:264|16:264|16:192|16:192|56:136,1,180,8|0,0:0|0:0,0:0:0:0:
88,104,169168,5,0,0:0:0:0:
168,48,169558,1,0,0:0:0:0:
88,104,169947,1,8,0:0:0:0:
168,48,170336,1,0,0:0:0:0:
212,68,170531,2,0,P|248:112|212:156,1,120,8|0,0:0|0:0,0:0:0:0:
200,200,171115,2,0,L|208:264,1,60
224,304,171504,6,0,P|304:312|320:224,1,180,4|0,0:0|0:0,0:0:0:0:
336,184,172283,1,0,0:0:0:0:
352,136,172478,2,0,L|416:136,2,60,0|8|0,0:0|0:0|0:0,0:0:0:0:
376,40,173256,2,0,L|312:40,1,60,8|8,0:0|0:0,0:0:0:0:
216,40,173840,21,0,0:0:0:0:
168,40,174035,2,0,L|168:104,2,60,0|8|0,0:0|0:0|0:0,0:0:0:0:
64,72,174814,2,0,L|16:112,1,60,8|8,0:0|0:0,0:0:0:0:
80,184,175398,6,0,L|56:240,1,60
40,288,175787,1,0,0:0:0:0:
24,336,175982,2,0,B|104:360|136:336|136:336|176:336|208:344,1,180,0|8,0:0|0:0,0:0:0:0:
248,328,176760,2,0,B|271:334|311:334|311:334|343:310|423:334,1,180,0|0,0:0|0:0,0:0:0:0:
464,312,177539,2,0,L|480:248,1,60,0|0,0:0|0:0,0:0:0:0:
464,112,178318,5,0,0:0:0:0:
464,64,178512,2,0,P|416:32|352:48,2,120,0|0|8,0:0|0:0|0:0,0:0:0:0:
280,128,180070,2,0,P|328:160|386:148,2,120,0|0|8,0:0|0:0|0:0,0:0:0:0:
136,96,181432,5,0,0:0:0:0:
88,88,181627,2,0,L|117:35,2,60,8|0|8,0:0|0:0|0:0,0:0:0:0:
56,120,182211,2,0,P|32:192|112:256,1,180
104,304,182990,2,0,L|288:304,1,180
336,304,183768,1,0,0:0:0:0:
384,304,183963,38,0,B|456:272|456:272|456:168,2,180,4|0|0,0:0|0:0|0:0,0:0:0:0:
352,216,185520,2,0,B|352:128|352:128|376:80|432:80,2,180,0|0|0,0:0|0:0|0:0,0:0:0:0:
256,216,187078,2,0,B|256:128|256:128|232:80|176:80,2,180,0|0|0,0:0|0:0|0:0,0:0:0:0:
312,296,188635,6,0,P|256:320|200:296,1,120
168,272,189219,1,0,0:0:0:0:
136,240,189414,2,0,P|83:219|27:243,1,120,0|0,0:0|0:0,0:0:0:0:
8,200,189998,2,0,L|-8:136,1,60
48,64,190582,5,0,0:0:0:0:
144,64,190971,2,0,B|224:40|272:80|272:80|248:120,2,180
144,160,192528,2,0,P|232:208|320:200,2,180
64,208,194086,86,0,P|87:305|63:378,2,180
48,160,195448,2,0,P|24:104|48:48,1,120,8|0,0:0|0:0,0:0:0:0:
96,48,196032,2,0,L|160:48,2,60,8|0|4,0:0|0:0|0:0,0:0:0:0:
