osu file format v9

[General]
AudioFilename: Nordic Stars - Crying In The Rain (Nightcore Mix).mp3
AudioLeadIn: 0
PreviewTime: 13272
Countdown: 0
SampleSet: Soft
StackLeniency: 0.7
Mode: 0
LetterboxInBreaks: 1

[Editor]
DistanceSpacing: 0.8
BeatDivisor: 2
GridSize: 8

[Metadata]
Title:Crying In The Rain (Nightcore Mix)
Artist:Nordic Stars
Creator:ztrot
Version:Light
Source:
Tags:Mustaash Shiirn Elly-Chan

[Difficulty]
HPDrainRate:2
CircleSize:3
OverallDifficulty:2
ApproachRate:3
SliderMultiplier:1.2
SliderTickRate:2

[Events]
//Background and Video events
0,0,"Konachan.com - 92088 sample.jpg"
//Break Periods
2,85211,89533
//Storyboard Layer 0 (Background)
//Storyboard Layer 1 (Fail)
//Storyboard Layer 2 (Pass)
//Storyboard Layer 3 (Foreground)
//Storyboard Sound Samples
//Background Colour Transformations
3,100,163,162,255

[TimingPoints]
1533,372.670807453416,4,2,1,70,1,0
13365,-100,4,2,1,70,0,0
31300,-100,4,2,0,70,0,0
47557,-100,4,2,1,70,0,0
61067,-100,4,2,0,70,0,0
61253,-100,4,2,1,70,0,0
108815,-100,4,2,0,70,0,0
114824,-100,4,2,1,70,0,0
138862,-100,4,2,0,70,0,0
150787,-100,4,2,1,70,0,0
186377,-100,4,2,1,5,0,0

[Colours]
Combo1 : 120,0,240
Combo2 : 200,145,255
Combo3 : 92,92,252
Combo4 : 55,160,200
SliderBorder : 160,160,160

[HitObjects]
256,192,10477,12,4,13458
368,352,14203,5,4
144,352,14949,1,4
256,168,15694,1,4
256,56,16067,1,4
168,112,16439,6,0,B|104:120|56:160|48:240|112:296,2,240,4|4|4
256,56,18303,1,4
256,56,18489,1,0
256,168,18862,6,0,B|256:360,1,180,0|4
448,248,20166,1,4
448,32,20911,1,4
256,136,21657,1,4
64,32,22402,5,4
64,248,23147,1,4
256,208,23893,2,4,B|256:328,1,120
208,344,24452,2,0,B|152:384|96:344,1,120
48,128,25383,5,0
136,64,25756,1,8
376,64,26501,1,8
376,280,27247,1,8
136,280,27992,1,8
256,280,28365,5,0
256,176,28737,2,0,B|344:80|472:96,2,240,8|8|8
256,288,30601,1,4
168,352,30973,1,4
80,288,31346,5,4
256,160,32092,1,0
432,288,32837,5,4
256,160,33582,1,0
80,288,34328,5,4
256,160,35073,1,4
72,48,35818,5,4
184,48,36191,1,4
256,128,36564,1,4
336,48,36936,1,0
448,48,37309,6,0,B|448:176,1,120,0|0
360,232,38054,2,0,B|360:352,1,120
248,352,38800,2,0,B|248:232,1,120
136,232,39545,2,0,B|136:352,1,120
40,352,40290,6,0,B|-16:240|40:120,2,240,2|2|2
128,352,42154,1,0
232,352,42526,1,2
336,352,42899,1,0
440,352,43272,6,0,B|496:240|440:120,2,240,4|2|4
256,232,45508,1,2
72,352,46253,1,4
256,232,46998,1,4
400,80,47744,5,4
304,80,48116,1,0
208,80,48489,1,4
112,80,48862,1,4
112,184,49234,5,4
256,344,49980,1,4
400,184,50725,1,4
400,80,51098,1,4
304,80,51470,1,4
208,80,51843,1,0
112,80,52216,6,0,B|24:176|72:304,2,240,4|0|4
176,264,54452,1,4
256,208,54824,1,4
336,264,55197,5,4
416,40,55942,2,0,B|355:160|440:264,2,240,4|4|4
320,56,57806,1,4
256,128,58178,1,4
96,40,58924,6,0,B|157:160|72:264,2,240,4|4|4
192,56,60787,1,4
256,128,61160,1,4
256,320,61905,5,4
72,264,62651,1,4
163,292,63023,1,4
256,320,63396,1,4
440,264,64141,5,4
349,292,64514,1,4
256,320,64887,1,4
138,89,65632,6,0,B|256:50|373:89,1,240,4|4
256,240,67123,5,4
176,288,67495,2,0,B|56:288,1,120,4|0
160,104,68613,5,4
162,103,68986,2,0,B|195:14|311:14|347:99,1,240,0|4
492,191,70477,5,4
492,287,70849,2,4,B|372:287,1,120
296,224,71595,5,4
227,290,71967,2,4,B|189:240,1,60
131,166,72526,1,4
256,192,72899,12,0,75694
144,192,76439,6,0,B|96:152|88:80|160:40,1,180,4|4
256,48,77371,1,4
192,120,77744,1,4
256,192,78116,1,4
456,112,79048,6,4,B|445:172|487:225|487:225|500:290|464:340,1,240
320,192,80539,1,4
256,264,80911,1,4
192,192,81284,1,4
64,48,82029,6,4,B|9:128|40:220,2,180
127,120,83520,1,4
222,134,83893,1,4
256,224,84265,1,4
256,224,85011,5,0
352,80,90973,5,4
400,160,91346,1,4
304,160,91719,1,4
144,56,92464,2,4,B|104:104|112:168,2,120
207,128,93582,1,4
207,128,93955,1,4
256,312,94700,5,4
305,128,95446,5,4
376,64,95818,1,4
376,64,96005,1,4
392,160,96377,1,4
317,221,96750,1,4
48,224,97682,5,4
136,56,98427,1,4
224,224,99172,5,4
178,139,99545,1,4
224,56,99918,1,4
312,56,100290,1,4
366,139,100663,1,4
320,224,101036,1,4
271,138,101408,1,4
45,258,102154,6,4,B|97:336|196:263|264:362,1,240
440,192,103644,1,4
256,8,104390,1,4
72,192,105135,1,4
256,264,105880,5,4
208,176,106253,1,4
208,176,106439,1,4
256,88,106812,1,4
304,176,107185,1,4
160,360,108116,5,4
256,360,108489,1,4
352,360,108862,1,4
512,192,109607,5,2
384,48,110352,1,4
384,144,110725,1,0
292,173,111098,1,2
241,91,111470,1,0
291,9,111843,1,4
61,80,112588,6,4,B|-11:191|63:314,1,240
144,256,113706,1,0
144,256,113893,2,0,B|166:198|150:138,2,120
256,192,115197,12,0,117619
144,64,118178,5,4
360,64,118924,1,12
184,216,119669,1,12
256,280,120042,1,4
328,216,120414,1,12
120,336,121160,5,8
120,120,121905,1,12
336,120,122651,1,12
400,192,123023,1,4
336,264,123396,1,12
120,336,124141,5,12
336,336,124887,1,8
344,120,125632,1,12
256,56,126005,1,0
168,120,126377,1,12
256,184,126750,6,0,B|440:184,1,180,4|0
440,280,127682,1,0
360,344,128054,1,0
264,320,128427,1,0
264,320,128800,1,0
72,56,129731,6,0,B|256:56,1,180,4|0
336,96,130663,1,0
392,176,131036,1,0
336,256,131408,1,0
240,256,131781,1,0
72,56,132713,6,0,B|72:256,1,180,4|0
144,304,133644,1,0
240,304,134017,1,0
328,264,134390,1,0
328,168,134762,1,0
72,56,135694,6,4,B|136:72|136:72|200:56|256:64,1,180
344,64,136626,1,0
408,136,136998,1,0
344,208,137371,1,0
408,280,137744,1,0
176,352,138675,5,0
176,352,139048,1,0
96,296,139421,1,0
96,296,139793,1,0
96,200,140166,1,0
96,200,140539,1,0
176,144,140911,1,0
176,144,141284,1,0
256,200,141657,5,0
192,272,142029,1,0
256,344,142402,1,0
56,272,143147,6,0,B|67:212|25:159|25:159|12:94|48:44,1,240
192,192,144638,1,0
256,120,145011,1,0
320,192,145383,1,0
448,336,146129,6,0,B|503:256|472:164,2,180,4|0|4
385,264,147619,1,4
290,250,147992,1,0
256,160,148365,1,4
256,192,149110,12,0,150601
256,40,151719,5,4
112,200,152464,1,4
112,304,152837,1,4
208,304,153210,1,4
304,304,153582,1,4
400,304,153955,6,0,B|488:208|440:80,2,240,4|4|4
336,120,156191,1,4
256,176,156564,1,4
176,120,156936,1,4
96,344,157682,6,0,B|157:224|72:120,2,240,0|4|0
192,328,159545,1,4
256,256,159918,1,4
416,344,160663,6,0,B|355:224|440:120,2,240,4|4|4
320,328,162526,1,4
256,256,162899,1,12
256,64,163644,5,8
440,120,164390,1,12
349,92,164762,1,4
256,64,165135,1,12
72,120,165880,5,8
163,92,166253,1,4
256,64,166626,1,12
376,216,167371,6,0,B|256:240|136:216,1,240,12|8
256,64,168862,5,12
372,97,169234,2,4,B|492:97,1,120,4|12
349,280,170352,5,12
350,281,170725,2,0,B|317:370|201:370|165:285,1,240
20,193,172216,5,4
20,97,172588,2,4,B|140:97,1,120,12|4
216,160,173334,5,12
285,94,173706,2,4,B|323:144,1,60
256,288,174452,6,0,B|64:288,1,180
80,192,175383,1,0
128,104,175756,1,0
224,104,176129,1,0
224,104,176501,1,0
440,328,177433,6,0,B|256:328,1,180,4|0
168,296,178365,1,0
104,224,178737,1,0
168,152,179110,1,0
232,224,179483,1,0
440,328,180414,6,0,B|440:128,1,180,4|0
368,88,181346,1,0
272,88,181719,1,0
192,144,182092,1,0
192,240,182464,1,0
440,328,183396,6,0,B|376:312|376:312|312:328|256:320,1,180,4|0
168,320,184328,1,0
96,256,184700,1,0
168,192,185073,1,0
96,128,185446,1,0
256,192,186377,12,0,190849
