osu file format v9

[General]
AudioFilename: Nordic Stars - Crying In The Rain (Nightcore Mix).mp3
AudioLeadIn: 0
PreviewTime: 13272
Countdown: 0
SampleSet: Soft
StackLeniency: 0.7
Mode: 0
LetterboxInBreaks: 1

[Editor]
DistanceSpacing: 0.9
BeatDivisor: 4
GridSize: 8

[Metadata]
Title:Crying In The Rain (Nightcore Mix)
Artist:Nordic Stars
Creator:ztrot
Version:Heavy
Source:
Tags:Mustaash Shiirn Elly-Chan

[Difficulty]
HPDrainRate:6
CircleSize:4
OverallDifficulty:7
ApproachRate:8
SliderMultiplier:2.2
SliderTickRate:2

[Events]
//Background and Video events
0,0,"Konachan.com - 92088 sample.jpg"
//Break Periods
//Storyboard Layer 0 (Background)
//Storyboard Layer 1 (Fail)
//Storyboard Layer 2 (Pass)
//Storyboard Layer 3 (Foreground)
//Storyboard Sound Samples
//Background Colour Transformations
3,100,163,162,255

[TimingPoints]
1533,372.670807453416,4,2,1,70,1,0
13365,-100,4,2,1,70,0,0
31300,-100,4,2,0,70,0,0
34048,-100,4,2,1,70,0,0
34234,-100,4,2,0,70,0,0
34793,-100,4,2,1,70,0,0
34980,-100,4,2,0,70,0,0
47557,-100,4,2,1,70,0,0
61067,-100,4,2,0,70,0,0
61253,-100,4,2,1,70,0,0
108815,-100,4,2,0,70,0,0
114824,-100,4,2,1,70,0,0
138862,-100,4,2,0,70,0,0
150787,-100,4,2,1,70,0,0
186377,-100,4,2,1,5,0,0

[Colours]
Combo1 : 120,0,240
Combo2 : 200,145,255
Combo3 : 92,92,252
Combo4 : 55,160,200
SliderBorder : 160,160,160

[HitObjects]
208,352,10477,1,6
112,320,10663,1,2
160,232,10849,1,2
256,264,11036,1,2
304,352,11222,5,6
400,320,11408,1,2
352,232,11595,1,2
256,264,11781,1,2
285,169,11967,6,0,B|229:169,14,55,2|2|2|2|2|2|2|2|2|2|2|2|2|2|2
304,264,13458,6,0,B|336:312|336:312|304:352,1,110,4|0
208,352,13831,2,0,B|176:312|176:312|208:264,1,110,4|0
184,168,14203,1,4
256,104,14390,1,0
328,168,14576,1,4
350,88,14762,6,0,B|422:104|422:168|422:232|350:248,1,220,0|4
162,88,15508,2,0,B|90:104|90:168|90:232|162:248,2,220,0|4|0
256,104,16439,5,4
256,200,16626,1,0
320,272,16812,2,0,B|368:296|368:296|424:272,1,110,4|0
192,272,17185,2,0,B|144:296|144:296|88:272,1,110,4|0
256,200,17557,2,0,B|256:88,1,110,4|0
168,48,17930,6,0,B|104:56|72:120|88:176|160:208,1,220,4|0
358,204,18489,2,0,B|424:176|440:120|408:56|344:48,1,220,4|0
176,128,19048,5,0
256,64,19234,1,0
336,128,19421,1,4
256,184,19607,1,0
176,240,19793,2,0,B|128:288|176:344,1,110,4|0
256,280,20166,1,4
256,280,20352,1,0
340,338,20539,2,0,B|384:288|336:240,1,110,4|0
256,184,20911,5,4
328,120,21098,2,0,B|392:136|424:88,1,110,0|4
184,119,21470,2,0,B|120:136|87:87,1,110,0|4
360,48,21843,2,0,B|296:32|264:80,1,110,0|4
152,48,22216,2,0,B|216:32|248:80,1,110,0|4
256,176,22588,1,0
312,280,22775,2,0,B|424:280,1,110,4|0
312,376,23147,1,4
200,376,23334,1,0
200,280,23520,2,0,B|88:280,1,110,4|0
336,176,23893,6,0,B|400:168|456:216|440:304|392:336,1,220,4|0
184,176,24452,2,0,B|120:168|64:216|80:304|128:336,1,220,4|0
200,376,25011,1,0
312,376,25197,6,0,B|376:376|408:320,1,110,4|0
200,376,25570,2,0,B|136:376|104:320,1,110,4|8
96,224,25942,2,0,B|160:224|192:280,1,110,4|0
416,224,26315,2,0,B|352:224|320:280,1,110,4|8
216,176,26688,2,0,B|104:136,1,110,4|0
296,176,27060,2,0,B|408:136,1,110,4|8
256,272,27433,1,4
256,272,27619,1,4
328,200,27806,5,4
184,200,27992,1,12
328,200,28178,1,4
152,336,28365,6,0,B|64:256|104:128,1,220,4|8
360,336,28924,2,0,B|448:256|408:128,1,220,4|0
336,72,29483,1,8
304,168,29669,1,0
208,168,29855,1,4
176,72,30042,1,0
384,144,30228,6,0,B|480:216,1,110,12|0
128,144,30601,2,0,B|32:216,1,110,4|0
256,312,30973,1,8
256,216,31160,1,4
256,168,31253,1,0
256,120,31346,1,4
72,48,31719,1,0
72,48,31905,1,0
256,360,32278,5,2
440,48,32651,1,0
72,264,33023,1,2
440,264,33396,1,0
256,32,33769,1,2
168,304,34141,5,4
168,304,34328,1,4
344,80,34700,5,0
344,80,34887,1,4
344,80,35073,1,4
304,272,35446,5,0
208,272,35632,1,0
360,192,35818,1,4
360,192,36005,1,0
152,192,36191,1,4
152,192,36377,1,0
304,112,36564,1,4
304,112,36750,1,0
208,112,36936,1,4
208,112,37123,1,0
128,56,37309,5,2
128,56,37402,1,0
48,112,37588,1,2
48,112,37682,1,0
48,208,37868,1,2
48,208,37961,2,0,B|48:272|80:312|152:312,1,165
148,311,38334,1,0
148,311,38427,1,2
232,256,38613,5,0
280,256,38706,2,0,B|344:256|352:336,2,110,2|2|2
280,256,39172,1,0
312,160,39359,1,0
312,160,39452,2,0,B|384:160|400:96,2,110,2|2|2
312,160,39918,1,0
200,160,40104,1,0
200,160,40197,2,0,B|128:160|112:96,2,110,2|2|2
200,160,40663,1,0
256,80,40849,5,2
256,80,40942,1,2
256,176,41129,1,2
256,176,41222,1,0
256,176,41315,1,0
256,176,41408,1,2
152,296,41595,5,0
152,296,41781,1,0
360,296,42154,1,0
360,296,42340,1,0
256,80,42713,1,0
256,320,43085,1,0
384,328,43272,5,2
384,328,43365,1,0
464,272,43551,1,2
464,272,43644,1,0
464,176,43831,1,2
464,176,43924,2,0,B|464:112|432:72|360:72,1,165
363,72,44296,1,0
363,72,44390,1,2
280,128,44576,5,0
232,128,44669,2,0,B|168:128|160:48,2,110,2|2|2
232,128,45135,1,0
200,224,45321,1,0
200,224,45414,2,0,B|128:224|112:288,2,110,2|2|2
200,224,45880,1,0
312,224,46067,1,0
312,224,46160,2,0,B|384:224|400:288,2,110,2|2|2
312,224,46626,1,0
256,304,46812,5,0
256,304,46905,1,2
256,208,47092,1,2
256,160,47185,1,0
256,112,47278,1,0
256,64,47371,1,2
176,256,47744,6,0,B|120:256|120:256|80:304,1,110,4|0
336,256,48116,2,4,B|392:256|392:256|432:304,1,110,4|0
176,128,48489,2,0,B|120:128|120:128|80:80,1,110,4|0
336,128,48862,2,0,B|392:128|392:128|432:80,1,110,4|0
208,48,49234,5,4
304,48,49421,1,0
120,48,49607,1,4
392,48,49980,1,4
120,136,50352,1,4
392,136,50725,1,4
392,232,50911,2,0,B|328:248|328:248|304:304|304:304|328:352|328:352|368:368,1,220,4|4
120,232,51657,2,0,B|184:248|184:248|208:304|208:304|184:352|184:352|144:368,1,220,4|4
256,216,52216,5,4
208,128,52402,1,0
304,128,52588,1,4
104,128,52961,1,4
408,128,53334,1,4
256,360,53706,1,4
160,360,53893,1,4
352,360,54265,1,4
208,224,54638,5,4
208,128,54824,1,0
304,128,55011,1,4
304,224,55197,1,4
64,40,55570,5,4
256,256,55942,1,4
448,40,56315,1,4
112,192,56688,1,4
112,192,56874,1,0
400,192,57247,1,0
152,288,57619,1,4
208,368,57806,1,0
304,368,57992,1,4
360,288,58178,1,4
146,41,58551,6,0,B|370:41,3,220,4|4|4|4
352,136,59855,1,4
160,136,60228,1,4
160,336,60601,5,4
256,336,60787,1,0
352,336,60973,1,4
408,248,61160,5,4
312,248,61346,1,4
360,160,61533,2,0,B|304:136|256:172,1,110,8|0
200,248,61905,1,4
104,248,62092,1,0
152,160,62278,2,0,B|208:136|256:172,1,110,8|0
304,88,62651,1,4
208,88,62837,1,4
408,88,63210,1,4
104,88,63582,1,4
256,344,63955,1,4
160,344,64141,5,4
208,256,64328,1,0
160,168,64514,2,0,B|112:192|112:192|96:256,1,110,8|0
352,168,64887,2,0,B|400:192|400:192|416:256,1,110,4|0
304,256,65259,1,8
352,344,65446,1,0
448,344,65632,1,4
448,344,65818,1,4
64,344,66191,1,4
256,32,66564,1,4
184,216,66936,5,4
208,120,67123,1,4
304,120,67309,1,4
328,216,67495,2,0,B|392:264|392:264|456:240|456:240|472:160,2,220,8|4|8
256,280,68427,1,4
184,216,68613,1,4
184,216,68800,2,0,B|120:264|120:264|56:240|56:240|40:160,2,220,4|4|4
208,16,69918,5,4
256,104,70104,1,0
304,16,70290,1,4
168,96,70477,1,8
344,96,70849,1,4
120,96,71222,1,8
392,96,71595,1,4
408,192,71781,1,4
256,360,72154,1,4
104,192,72526,1,4
104,192,72713,1,12
328,304,73085,5,4
184,304,73272,1,0
256,208,73458,1,8
160,216,73644,1,4
352,216,74017,1,4
112,144,74390,1,0
400,144,74762,1,4
112,144,75135,1,4
160,56,75321,5,4
256,56,75508,1,4
352,56,75694,1,0
256,56,75880,1,4
160,56,76067,2,0,B|48:96|56:232,1,220,4|0
160,168,76626,2,0,B|168:296|64:352,2,220,4|4|4
352,168,77744,2,0,B|344:296|448:352,1,220,4|4
312,320,78303,1,4
200,320,78489,1,0
304,240,78675,1,4
208,240,78862,1,4
256,152,79048,6,0,B|320:56|456:48,1,220,4|0
256,152,79607,2,0,B|192:56|56:48,3,220,4|4|4|4
184,328,81098,1,4
256,264,81284,1,4
328,328,81470,1,0
256,264,81657,1,4
184,328,81843,1,4
120,256,82029,5,0
256,24,82402,1,0
256,24,82588,1,0
464,192,82961,2,0,B|424:136|424:136|384:128|384:128|344:136|344:136|304:192,1,220
48,192,83706,2,0,B|88:248|88:248|128:256|128:256|168:248|168:248|208:192,1,220
352,56,84452,5,0
256,88,84638,1,0
160,56,84824,1,0
64,88,85011,1,4
64,288,85383,5,8
160,288,85570,1,4
360,288,85942,1,4
456,288,86129,1,8
360,288,86315,1,4
360,88,86688,5,4
304,168,86874,1,8
208,168,87060,1,4
152,88,87247,1,0
256,256,87619,1,8
256,192,87992,12,0,90601
208,120,90973,6,0,B|176:72|176:72|208:32,1,110,4|0
304,32,91346,2,0,B|336:72|336:72|304:120,1,110,4|0
328,216,91719,1,4
256,280,91905,1,0
184,216,92092,1,4
350,296,92278,6,0,B|422:280|422:216|422:152|350:136,1,220,4|0
162,296,93023,2,0,B|90:280|90:216|90:152|162:136,2,220,4|4|4
256,280,93955,5,4
256,184,94141,1,0
336,240,94328,2,4,B|384:264|384:264|440:240,1,110,4|0
176,240,94700,2,0,B|128:264|128:264|72:240,1,110,4|0
256,184,95073,2,4,B|256:296,1,110,4|0
344,336,95446,6,0,B|408:328|440:264|424:208|352:176,1,220,4|4
154,180,96005,2,0,B|88:208|72:264|104:328|168:336,1,220,4|4
336,256,96564,5,4
256,320,96750,1,0
176,256,96936,1,4
256,200,97123,1,0
336,144,97309,2,0,B|384:96|336:40,1,110,4|0
256,96,97682,1,4
256,96,97868,1,0
172,46,98054,2,0,B|128:96|176:144,1,110,4|0
256,184,98427,5,4
152,224,98613,2,0,B|88:208|56:256,1,110,0|4
360,224,98986,2,0,B|424:208|456:256,1,110,0|4
120,304,99359,2,0,B|184:320|216:272,1,110,0|4
392,304,99731,2,0,B|328:320|296:272,1,110,0|4
256,184,100104,1,0
184,128,100290,2,4,B|136:96|136:96|88:128,1,110,4|0
208,40,100663,1,4
304,40,100849,1,0
328,128,101036,2,0,B|376:96|376:96|424:128,1,110,4|0
109,56,101408,6,0,B|72:80|56:168|112:216|176:208,1,220,4|0
328,208,101967,2,0,B|392:216|448:168|432:80|384:48,1,220,4|0
256,96,102526,1,4
184,32,102713,6,0,B|120:32|88:88,1,110,0|4
328,32,103085,2,0,B|392:32|424:88,1,110,4|8
348,114,103458,2,0,B|284:114|252:58,1,110,4|0
164,114,103831,2,0,B|228:114|260:58,1,110,4|8
296,208,104203,2,0,B|408:248,1,110,4|0
216,208,104576,2,0,B|104:248,1,110,4|8
256,112,104949,1,0
256,112,105135,1,4
184,184,105321,5,4
328,184,105508,1,12
184,184,105694,1,4
360,48,105880,6,0,B|448:128|408:256,1,220,4|8
152,48,106439,2,0,B|64:128|104:256,1,220,4|0
176,312,106998,1,8
208,216,107185,1,0
304,216,107371,1,4
336,312,107557,1,0
128,240,107744,6,0,B|32:168,1,110,12|0
384,240,108116,2,4,B|480:168,1,110
256,72,108489,1,8
208,160,108675,1,4
256,168,108769,1,0
304,160,108862,1,4
440,336,109234,1,2
440,336,109421,1,0
256,24,109793,5,0
72,336,110166,1,2
72,336,110352,1,4
72,336,110539,1,2
440,120,110911,1,2
256,352,111284,1,2
344,80,111657,5,2
344,80,111843,1,4
168,304,112216,5,2
168,304,112402,1,0
168,304,112588,1,4
208,112,112961,5,2
304,112,113147,1,0
152,192,113334,1,4
152,192,113520,1,0
360,192,113706,1,4
360,192,113893,1,0
208,272,114079,1,4
208,272,114265,1,0
304,272,114452,1,4
304,272,114638,1,0
480,32,115197,5,4
256,40,115570,1,0
32,32,115942,1,4
184,192,116315,1,4
328,192,116501,1,0
168,304,116874,2,0,B|256:368|256:368|352:304,2,220,4|4|4
256,256,117806,1,4
32,32,118178,5,8
256,40,118551,1,4
480,32,118924,1,8
328,192,119296,1,4
184,192,119483,1,4
400,304,119855,1,4
112,304,120228,1,4
184,192,120414,1,8
328,192,120601,1,4
400,304,120787,1,4
400,104,121160,5,8
112,104,121532,1,4
400,304,121905,1,8
112,304,122278,1,4
256,304,122464,1,4
320,120,122837,2,0,B|440:88|496:216,2,220,0|4|0
256,200,123769,5,4
17,213,124141,2,0,B|72:88|192:120,2,220,8|4|8
184,312,125259,1,4
328,312,125446,1,4
256,48,125818,1,0
256,248,126191,5,0
192,176,126377,1,0
320,176,126564,1,0
256,104,126750,2,0,B|208:56|144:64|88:112|96:184,1,220,4|8
256,104,127309,2,0,B|304:56|368:64|424:112|416:184,2,220,4|0|4
368,264,128427,1,0
144,264,128800,1,4
256,104,129172,5,0
208,192,129359,1,8
304,192,129545,1,4
256,280,129731,2,0,B|360:328|480:280,1,220,4|8
256,280,130290,2,0,B|152:328|32:280,2,220,4|0|4
136,120,131408,1,4
376,120,131781,1,0
304,48,131967,1,4
208,48,132154,1,0
136,120,132340,1,8
208,192,132526,1,0
304,192,132713,6,0,B|424:208|480:320,1,220,4|8
208,192,133272,2,0,B|88:208|32:320,2,220,4|0|4
360,320,134390,1,4
152,320,134762,1,4
256,352,134949,1,0
256,352,135135,1,4
200,248,135321,1,8
200,248,135508,1,0
312,248,135694,2,0,B|424:208|416:72,1,220,4|8
200,248,136253,2,0,B|88:208|96:72,2,220,4|0|4
256,56,137371,1,0
256,352,137744,1,0
352,176,138116,5,4
256,136,138303,1,0
160,176,138489,1,0
256,136,138675,1,4
448,88,139048,5,0
256,32,139421,1,0
64,88,139793,1,0
64,296,140166,1,0
256,352,140539,1,0
448,296,140911,1,0
256,192,141284,1,0
64,88,141657,5,0
448,296,142029,1,0
64,296,142402,1,0
448,88,142775,1,0
256,352,143147,1,0
256,32,143520,1,0
48,192,143893,1,0
464,192,144265,1,0
256,32,144638,5,4
208,120,144824,1,0
304,120,145011,1,0
256,208,145197,1,0
208,296,145383,1,0
304,296,145570,1,0
176,224,145756,1,0
336,224,145942,1,0
200,80,146129,6,0,B|136:168,1,110,4|0
312,80,146501,2,0,B|376:168,1,110
200,304,146874,2,0,B|136:216,1,110
312,304,147247,2,0,B|376:216,1,110
416,128,147619,5,4
384,88,147713,1,0
352,48,147806,1,0
304,32,147899,1,0
256,32,147992,1,0
208,32,148085,1,0
160,48,148178,1,0
128,88,148272,1,0
96,128,148365,1,4
96,176,148458,1,0
128,216,148551,1,0
160,256,148644,1,0
208,272,148737,1,0
256,272,148831,1,0
304,272,148924,1,0
352,256,149017,1,0
384,216,149110,6,0,B|416:168,16,55
392,336,150973,5,4
120,336,151346,1,4
392,248,151719,1,4
120,248,152092,1,4
120,152,152278,2,0,B|184:136|184:136|208:80|208:80|184:32|184:32|144:16,1,220,4|4
392,152,153023,2,0,B|328:136|328:136|304:80|304:80|328:32|328:32|368:16,1,220,4|4
256,168,153582,5,4
304,256,153769,1,0
208,256,153955,1,4
408,256,154328,1,4
104,256,154700,1,4
256,24,155073,1,4
352,24,155259,1,4
160,24,155632,1,4
304,160,156005,5,4
304,256,156191,1,0
208,256,156377,1,4
208,160,156564,1,4
448,344,156936,5,4
256,128,157309,1,4
64,344,157682,1,4
400,192,158054,1,4
400,192,158241,1,0
112,192,158613,1,0
360,96,158986,1,4
304,16,159172,1,0
208,16,159359,1,4
152,96,159545,1,4
366,343,159918,6,0,B|142:343,3,220,4|4|4|4
160,248,161222,1,4
352,248,161595,1,4
352,48,161967,5,4
256,48,162154,1,0
160,48,162340,1,4
104,136,162526,5,4
200,136,162713,1,4
152,224,162899,2,0,B|208:248|256:212,1,110,8|0
312,136,163272,1,4
408,136,163458,1,0
360,224,163644,2,0,B|304:248|256:212,1,110,8|0
208,296,164017,1,4
304,296,164203,1,4
104,296,164576,1,4
408,296,164949,1,4
256,40,165321,1,4
352,40,165508,5,4
304,128,165694,1,0
352,216,165880,2,0,B|400:192|400:192|416:128,1,110,8|0
160,216,166253,2,0,B|112:192|112:192|96:128,1,110,4|0
208,128,166626,1,8
160,40,166812,1,0
64,40,166998,1,4
64,40,167185,1,4
448,40,167557,1,4
256,352,167930,1,4
328,168,168303,5,4
304,264,168489,1,4
208,264,168675,1,4
184,168,168862,2,0,B|120:120|120:120|56:144|56:144|40:224,2,220,8|4|8
256,104,169793,1,4
328,168,169980,1,4
328,168,170166,2,0,B|392:120|392:120|456:144|456:144|472:224,2,220,4|4|4
304,368,171284,5,4
256,280,171470,1,0
208,368,171657,1,4
344,288,171843,1,8
168,288,172216,1,4
392,288,172588,1,8
120,288,172961,1,4
104,192,173147,1,4
256,24,173520,1,4
408,192,173893,1,4
408,192,174079,1,12
184,80,174452,5,4
328,80,174638,1,0
256,176,174824,1,8
352,168,175011,1,4
160,168,175383,1,4
400,240,175756,1,0
112,240,176129,1,4
400,240,176501,1,4
352,328,176688,5,4
256,328,176874,1,4
160,328,177060,1,8
256,328,177247,1,4
352,328,177433,2,0,B|464:288|456:152,1,220,4|8
352,216,177992,2,0,B|344:88|448:32,2,220,4|4|4
160,216,179110,2,0,B|168:88|64:32,1,220,4|4
200,64,179669,1,4
312,64,179855,1,0
208,144,180042,1,12
304,144,180228,1,4
256,232,180414,6,0,B|192:328|56:336,1,220,4|8
256,232,180973,2,0,B|320:328|456:336,3,220,4|4|4|4
328,56,182464,1,4
256,120,182651,1,4
184,56,182837,1,0
256,120,183023,1,12
328,56,183210,1,4
392,128,183396,5,0
256,360,183769,1,8
256,360,183955,1,0
48,192,184328,2,0,B|88:248|88:248|128:256|128:256|168:248|168:248|208:192,1,220
464,192,185073,2,0,B|424:136|424:136|384:128|384:128|344:136|344:136|304:192,1,220
128,96,185818,5,0
256,112,186005,1,0
384,96,186191,1,0
256,192,186377,12,0,190849
