osu file format v9

[General]
AudioFilename: Nymph222.mp3
AudioLeadIn: 0
PreviewTime: 30031
Countdown: 0
SampleSet: Soft
StackLeniency: 0.7
Mode: 0
LetterboxInBreaks: 0

[Editor]
DistanceSpacing: 1.2
BeatDivisor: 2
GridSize: 4

[Metadata]
Title:Natsu no Ojousan
Artist:Nomizu Iori
Creator:Nymph
Version:Normal
Source:Sora no Otoshimono: Forte
Tags:Nymph_ wcx19911123

[Difficulty]
HPDrainRate:3
CircleSize:4
OverallDifficulty:5
ApproachRate:5
SliderMultiplier:0.9
SliderTickRate:1

[Events]
//Background and Video events
0,0,"ddd.jpg"
//Break Periods
2,69766,78610
//Storyboard Layer 0 (Background)
//Storyboard Layer 1 (Fail)
//Storyboard Layer 2 (Pass)
//Storyboard Layer 3 (Foreground)
//Storyboard Sound Samples
//Background Colour Transformations
3,100,163,162,255

[TimingPoints]
6640,365.853658536585,4,2,2,70,1,0
18164,-100,4,2,2,78,0,0
41761,-100,4,2,2,83,0,1
52188,-100,4,2,2,75,0,1
52554,-100,4,2,2,83,0,1
52920,-100,4,2,2,75,0,1
53286,-100,4,2,2,83,0,1
63713,-100,4,2,2,68,0,0
81091,-100,4,2,2,78,0,0
104139,-100,4,2,2,81,0,0
104688,-100,4,2,2,83,0,1
115115,-100,4,2,2,75,0,1
115481,-100,4,2,2,83,0,1
115847,-100,4,2,2,75,0,1
116213,-100,4,2,2,83,0,1
126639,-100,4,2,2,75,0,0
127371,-100,4,2,2,69,0,0
131579,-100,4,2,2,75,0,0
131944,-100,4,2,2,83,0,0
132493,-100,4,2,2,90,0,1
148957,-100,4,2,2,75,0,1
149322,-100,4,2,2,90,0,1
154444,-100,4,2,2,75,0,0
166700,-100,4,2,2,75,0,1
166701,-100,4,2,2,75,0,0

[Colours]
Combo1 : 128,255,128
Combo2 : 0,128,255
Combo3 : 255,140,255
Combo4 : 166,77,255

[HitObjects]
80,68,16883,2,0,B|60:116|80:168,1,90,2|0
156,116,17615,2,0,B|171:156|151:204,1,90,2|0
104,280,18347,6,0,B|196:280,1,90,4|0
284,280,19079,1,2
372,280,19444,2,0,B|420:280,2,45,0|0|0
284,280,20176,2,0,B|240:280,1,45,2|0
280,200,20725,2,0,B|232:200,1,45,0|2
189,200,21091,1,0
143,200,21274,6,0,B|127:156|143:112,1,90,2|0
208,48,22005,2,0,B|252:32|296:48,1,90,2|0
360,112,22737,2,0,B|376:156|360:200,1,90,2|0
348,244,23286,1,0
360,332,23652,2,0,B|408:332,2,45,2|2|0
316,332,24200,6,0,B|228:368|136:332,1,180,0|2
76,272,25298,1,0
144,212,25664,2,0,B|232:176|320:212,1,180,0|2
408,212,26761,1,0
256,192,27127,12,2,28591
256,192,29322,5,2
256,192,29688,1,2
256,192,30054,6,0,B|240:152|256:104,1,90,4|0
328,48,30786,1,2
412,84,31152,2,0,B|456:84,2,45,0|0|0
412,176,31883,2,0,B|460:176,1,45,2|0
412,256,32432,2,0,B|368:256,1,45,0|2
320,256,32798,1,2
276,256,32981,6,0,B|232:244|188:256,1,90,2|0
100,276,33713,2,0,B|88:232|100:184,1,90,2|0
76,100,34444,2,0,B|120:88|168:100,1,90,2|0
212,100,34993,1,0
304,100,35359,2,0,B|348:100,2,45,2|2|0
260,100,35908,6,0,B|176:64|84:100,1,180,2|2
128,180,37005,1,0
36,180,37371,2,0,B|0:264|36:356,1,180,2|2
124,360,38469,1,0
256,192,38835,12,2,40298
256,192,41030,5,2
256,192,41396,1,2
256,192,41761,6,0,B|236:232|256:280,2,90,4|0|2
348,192,42859,1,0
436,192,43225,2,0,B|456:152|436:104,2,90,2|0|2
348,192,44322,1,0
256,192,44688,6,0,B|168:164|76:192,1,180,2|2
48,276,45786,1,0
76,360,46152,2,0,B|164:388|256:360,1,180,2|2
344,360,47249,1,0
436,360,47615,6,0,B|480:360,4,45,4|0|0|0|2
436,268,48713,1,0
436,176,49079,2,0,B|392:176,4,45,4|0|0|0|2
420,88,50176,1,0
332,76,50542,6,0,B|244:48|152:76,1,180,2|2
108,152,51639,1,0
72,236,52005,2,0,B|56:280|72:324,1,90,2|2
148,276,52737,2,0,B|164:320|148:364,1,90,2|2
240,364,53469,6,0,B|424:364,1,180,4|2
460,284,54566,1,0
432,200,54932,2,0,B|248:200,1,180,2|2
160,200,56030,1,0
72,204,56396,6,0,B|56:248|72:292,2,90,2|0|2
160,200,57493,1,0
160,108,57859,2,0,B|176:64|160:20,2,90,2|0|2
160,200,58957,1,0
160,288,59322,6,0,B|248:320|344:288,1,180,4|2
364,204,60420,1,0
352,116,60786,2,0,B|264:84|168:116,1,180,4|2
148,204,61883,1,0
92,272,62249,5,2
92,272,62615,1,0
148,344,62981,1,2
148,344,63347,1,0
240,344,63713,2,0,B|284:356|328:344,1,90,2|2
344,256,64444,6,0,B|388:244|432:256,2,90
168,256,65908,2,0,B|124:244|80:256,2,90
256,192,66822,12,4,69566
256,192,79810,5,2
256,192,80176,1,0
256,192,80542,1,2
256,192,80908,1,2
256,100,81274,6,0,B|300:88|344:100,1,90,4|0
436,108,82005,1,2
436,200,82371,2,0,B|436:248,2,45,0|0|0
344,200,83103,2,0,B|344:156,1,45,2|0
264,200,83652,2,0,B|264:248,1,45,2|2
264,292,84018,1,0
264,336,84200,6,0,B|220:352|176:336,1,90,2|0
88,308,84932,2,0,B|71:263|87:219,1,90,2|0
88,128,85664,2,0,B|36:128,2,45,2|0|2
132,128,86213,1,0
224,128,86579,2,0,B|268:116|312:128,1,90,0|0
316,172,87127,6,0,B|360:184|404:172,2,90,2|0|2
224,172,88225,1,0
224,264,88591,6,0,B|180:264,1,45,2|0
180,308,88957,2,0,B|136:308,1,45
88,308,89322,2,0,B|44:324|0:308,2,90,2|0|2
180,308,90420,1,0
272,308,90786,1,2
364,308,91152,1,0
456,308,91518,6,0,B|492:220|464:128,1,180,2|2
440,44,92615,1,2
352,24,92981,6,0,B|308:12|264:24,1,90,4|0
172,28,93713,1,2
172,28,94079,1,0
128,108,94444,2,0,B|172:120|216:108,1,90,2|0
308,108,95176,2,0,B|352:108,1,45,2|0
400,108,95542,2,0,B|452:108,1,45,2|0
492,108,95908,6,0,B|512:152|492:196,1,90,2|0
476,284,96639,2,0,B|432:268|388:284,1,90,2|0
296,284,97371,2,0,B|252:284,2,45,2|0|2
340,284,97920,1,0
432,284,98286,2,0,B|432:328,2,45,2|2|0
432,240,98835,6,0,B|460:152|432:52,1,180,2|2
352,28,99932,1,0
264,40,100298,2,0,B|220:28|176:40,2,90,2|0|2
264,132,101396,1,0
256,192,101761,12,2,103225
256,192,103957,5,2
256,192,104322,1,2
256,192,104688,6,0,B|240:236|256:280,2,90,4|0|2
348,192,105786,1,0
440,192,106152,2,0,B|456:148|440:104,2,90,2|0|2
348,192,107249,1,0
256,192,107615,6,0,B|168:192,1,90,2|0
208,272,108347,2,0,B|120:272,1,90,2|0
164,352,109079,2,0,B|68:352,2,90,2|0|2
256,352,110176,1,0
348,352,110542,6,0,B|428:312|472:224,1,180,4|2
436,144,111639,1,0
356,104,112005,2,0,B|276:144|232:232,1,180,4|0
208,316,113103,1,0
208,316,113469,6,0,B|120:316,2,90,2|0|0
300,316,114566,1,0
300,316,114932,2,0,B|388:316,2,90,2|2|2
208,316,116030,1,2
120,316,116396,6,0,B|88:228|120:140,1,180,4|2
208,112,117493,1,0
296,140,117859,2,0,B|328:228|296:316,1,180,2|2
208,316,118957,1,0
120,316,119323,2,0,B|88:228|120:140,1,180,2|2
208,112,120420,1,0
300,112,120786,2,0,B|392:112,2,90,2|0|2
208,112,121883,1,0
116,112,122249,6,0,B|68:112,4,45,4|0|0|0|2
176,180,123347,1,0
236,248,123713,2,0,B|284:248,4,45,4|0|0|0|2
144,248,124810,6,0,B|96:248,2,45,0|0|2
236,248,125542,1,0
236,248,125908,1,2
324,248,126274,1,0
324,248,126639,1,2
324,248,127005,1,2
416,248,127371,2,0,B|432:204|416:160,2,90
256,192,128652,12,2,131030
256,192,131761,5,2
256,192,132127,1,2
192,128,132493,6,0,B|104:128,1,90,4|8
68,200,133225,2,0,B|158:200,1,90,0|8
124,272,133957,2,0,B|36:272,1,90,2|8
0,344,134689,2,0,B|90:344,1,90,0|8
172,344,135420,6,0,B|262:344,1,90,2|8
296,272,136152,2,0,B|206:272,1,90,0|8
240,200,136884,2,0,B|330:200,1,90,2|8
364,128,137615,2,0,B|274:128,1,90,0|8
300,200,138347,6,0,B|300:336,2,135,4|0|0
212,184,139810,2,0,B|212:48,2,135,4|0|0
212,300,141274,6,0,B|256:312|300:300,1,90,2|0
388,236,142005,2,0,B|400:191|387:147,1,90
300,80,142737,2,0,B|256:68|212:80,1,90,2|0
124,148,143469,2,0,B|111:192|123:236,1,90
212,300,144200,6,0,B|256:312|300:300,1,90,4|8
408,300,144932,1,0
408,300,145298,1,8
356,204,145664,2,0,B|312:192|268:204,1,90,2|8
160,204,146396,1,0
160,204,146762,1,8
216,112,147127,6,0,B|260:100|304:112,1,90,2|8
412,112,147859,1,0
412,112,148225,1,8
364,212,148591,2,0,B|388:260|340:300|364:344,2,135,2|2|0
256,192,150054,6,0,B|232:144|280:104|256:60,2,135,4|0|0
148,212,151518,2,0,B|124:260|172:300|148:344,2,135,4|0|0
244,269,152981,1,2
348,239,153347,1,0
352,131,153713,1,2
250,94,154078,1,0
185,181,154444,6,0,B|161:197|129:191|101:208,1,90,2|2
100,300,155176,1,0
192,300,155542,1,0
284,300,155908,1,0
464,300,156639,1,0
464,300,157005,1,0
256,192,157371,12,4,160298
256,64,161030,5,2
192,128,161396,1,0
128,192,161761,1,0
256,320,162493,5,2
320,256,162859,1,0
384,192,163224,1,0
256,64,163957,5,2
192,128,164323,1,0
128,192,164688,1,0
256,320,165420,5,2
320,256,165786,1,0
384,192,166152,2,0,B|429:192,3,45
