osu file format v9

[General]
AudioFilename: 09 - - () .mp3
AudioLeadIn: 0
PreviewTime: 38235
Countdown: 0
SampleSet: Soft
StackLeniency: 0.6
Mode: 0
LetterboxInBreaks: 1

[Editor]
DistanceSpacing: 0.8
BeatDivisor: 4
GridSize: 16

[Metadata]
Title:Natsu no Ojou san
Artist:Nomizu Iori
Creator:Farmer
Version:approved
Source:sora no otoshimono
Tags:sora no otoshimono nymph Nomizu Iori jumping 2B

[Difficulty]
HPDrainRate:6
CircleSize:4
OverallDifficulty:7
ApproachRate:8
SliderMultiplier:1.5
SliderTickRate:1

[Events]
//Background and Video events
0,0,"Konachan.com - 65046.jpg"
//Break Periods
2,68211,78968
//Storyboard Layer 0 (Background)
//Storyboard Layer 1 (Fail)
//Storyboard Layer 2 (Pass)
//Storyboard Layer 3 (Foreground)
//Storyboard Sound Samples
//Background Colour Transformations
3,100,163,162,255

[TimingPoints]
694,365.853658536585,4,2,2,80,1,0
24643,-200,4,2,1,80,0,0
26257,-100,4,2,1,80,0,0
40023,-100,4,2,1,70,0,0
41578,-100,4,2,1,80,0,0
44596,-200,4,2,0,80,0,0
48529,-200,4,2,0,60,0,0
48814,-200,4,2,0,80,0,0
49992,-200,4,2,0,60,0,0
50267,-200,4,2,0,80,0,0
53376,-100,4,2,0,100,0,0
57675,-100,4,2,0,70,0,0
58773,-100,4,2,0,80,0,0
132401,-100,4,2,0,100,0,1
148498,-200,4,2,0,100,0,1
149596,-100,4,2,0,100,0,1
166059,-50,4,2,0,100,0,1

[Colours]
Combo1 : 255,170,213
Combo2 : 128,255,128
Combo3 : 255,255,70
Combo4 : 0,255,255

[HitObjects]
400,32,6547,2,0,B|400:88|344:24|344:88|280:24|280:88,1,150
128,176,7279,1,0
48,248,7462,1,0
128,328,7645,1,0
208,256,7827,1,0
272,168,8011,2,0,B|320:176|280:80|360:72,1,112.5
392,104,8376,2,0,B|456:168,1,75
328,200,8742,1,0
424,272,8925,2,0,B|496:344,1,75
320,320,9291,1,0
208,248,9474,5,0
136,320,9657,1,0
64,248,9840,1,0
136,176,10023,1,0
160,72,10206,2,0,B|224:0,1,75
320,0,10572,1,0
416,32,10754,1,0
448,120,10938,1,0
416,32,11121,1,0
448,120,11303,1,0
432,216,11486,1,0
384,296,11669,1,0
192,96,12035,5,0
96,224,12218,1,0
224,160,12401,1,0
64,160,12584,1,0
192,224,12766,1,0
96,96,12949,1,0
280,24,13133,1,2
416,160,13498,5,0
328,280,13681,1,0
448,224,13864,1,0
288,224,14047,1,0
416,280,14230,1,0
320,160,14413,1,0
184,160,14596,2,0,B|120:192|184:224|184:224,1,75
256,192,14962,12,0,16425
312,312,16791,5,2
312,72,17157,1,0
456,192,17523,1,2
312,192,17888,1,0
312,192,18071,1,0
160,192,18254,6,0,B|-16:192|-8:192,2,150
408,192,19352,2,0,B|472:192|472:192,2,37.5
320,256,19718,1,0
256,160,19901,1,0
192,256,20084,1,0
128,160,20266,1,0
64,256,20449,1,0
128,352,20632,5,8
128,352,20815,1,8
480,64,21181,6,0,B|480:168,1,75
480,64,21547,2,0,B|392:64,1,75
328,16,21913,1,2
176,112,22279,1,0
264,192,22462,1,0
368,128,22645,1,0
432,240,22827,1,0
352,328,23010,1,0
224,376,23193,1,0
96,192,23559,5,0
120,304,23742,1,0
96,192,23925,1,0
144,72,24108,2,0,B|176:40|208:40|240:72,1,75
312,56,24474,1,0
376,128,24657,2,0,B|392:112|408:128|424:112|440:128|456:112|472:128|488:112,1,112.5
464,296,25571,6,0,B|464:336,1,37.25
384,256,25937,2,0,B|384:216,1,37.25
320,320,26303,1,0
256,256,26486,1,0
176,208,26669,1,0
200,184,26761,1,0
224,160,26852,1,0
160,96,27035,2,0,B|184:56|224:40|264:56|288:96,3,150
480,32,28498,5,2
328,192,28864,1,0
480,352,29230,1,2
328,192,29596,1,0
328,192,29687,1,0
328,192,29779,1,0
200,56,29962,1,0
144,120,30145,1,0
320,160,30327,1,0
376,216,30510,1,0
232,280,30693,1,0
176,336,30876,1,0
88,256,31059,6,0,B|48:176,1,75
80,96,31425,2,0,B|136:32,1,75
224,32,31791,2,0,B|320:64|320:64,1,75
256,192,32340,1,2
336,280,32523,2,0,B|304:328,2,37.5
456,248,32888,6,0,B|504:224|464:160,1,75
440,88,33254,1,0
440,88,33437,1,0
336,32,33620,2,0,B|296:0|240:32,1,75
168,24,33986,1,0
168,24,34169,1,0
96,88,34352,2,0,B|32:104|48:168,1,75
48,240,34718,1,0
136,296,34901,2,0,B|200:312|232:280,1,75
296,232,35266,5,0
368,160,35449,1,0
440,224,35632,1,0
488,304,35815,2,0,B|536:296|528:240,2,75
400,344,36364,1,0
296,344,36547,2,0,B|224:352|208:304,2,75
328,224,37278,5,0
424,224,37461,1,0
280,144,37644,1,0
472,144,37827,1,0
376,64,38010,2,0,B|376:24,2,37.5
256,192,38559,12,0,39840
208,64,40205,5,2
328,144,40388,1,0
312,280,40571,1,2
200,192,40754,1,0
312,280,40937,1,2
160,328,41120,1,0
64,240,41303,1,2
72,112,41485,1,0
416,40,41669,6,0,B|456:24|496:56|504:120|464:136,1,150
472,136,42218,1,0
472,248,42401,1,0
472,360,42584,1,0
352,352,42767,2,0,B|352:360|328:360|312:360|304:360|272:336|248:296,1,112.5
240,288,43133,1,0
112,240,43315,1,0
72,112,43498,1,0
8,24,43681,6,2,B|176:24,1,150
264,64,44230,2,0,B|320:128,1,75
400,56,44596,2,0,B|464:56,1,56.25
408,184,45145,5,0
496,272,45328,1,0
408,344,45511,1,0
320,264,45693,1,2
232,168,45876,5,0
272,56,46059,1,0
144,16,46242,1,0
104,120,46425,1,2
144,232,46608,5,0
216,320,46791,1,0
128,384,46974,1,0
56,304,47157,1,8
256,120,47523,5,0
176,176,47706,1,0
208,264,47889,1,0
304,264,48072,1,0
336,176,48254,1,2
256,192,48620,5,8
256,120,48986,5,0
336,176,49169,1,0
304,264,49352,1,0
208,264,49535,1,0
176,176,49718,1,2
256,192,49901,5,0
256,192,50084,1,8
176,128,50450,6,0,B|144:104,2,37.5
328,128,50998,2,0,B|360:104,2,37.5
256,288,51547,2,0,B|256:328,2,37.5
48,192,52279,6,0,B|72:152,1,37.5
192,192,52645,2,0,B|208:224,1,37.5
344,192,53011,1,0
256,88,53193,1,0
40,64,53376,6,0,B|56:32|96:8|144:16|176:24,1,150
192,120,53925,1,0
96,144,54108,2,0,B|72:200|104:248,1,75
88,248,54383,1,0
96,280,54474,2,0,B|112:384|208:352,1,150
312,312,55023,1,0
288,192,55206,1,0
376,96,55389,5,0
456,192,55572,1,0
376,96,55754,1,0
304,184,55937,1,0
376,96,56120,1,0
456,192,56303,2,0,B|448:240|432:280|384:288|336:280,1,150
248,280,56852,2,0,B|168:248,1,75
168,168,57218,1,0
56,104,57401,1,0
48,216,57584,1,0
80,320,57767,2,2,B|128:320|136:272,1,75
152,248,58041,1,0
168,224,58133,2,2,B|168:176|224:160,1,75
232,144,58407,1,0
256,128,58498,2,2,B|304:112|312:64,1,75
408,16,58864,5,8
424,200,59230,1,0
344,272,59413,1,0
416,344,59596,2,0,B|464:288,1,75
464,287,59962,1,2
288,360,60328,5,8
88,64,60693,1,0
112,168,60876,1,0
160,168,60968,1,0
176,128,61059,1,0
264,72,61242,5,0
352,32,61425,1,0
224,192,61791,5,0
176,288,61974,1,0
288,280,62157,2,0,B|376:248|376:128|296:96,1,225
120,240,62889,2,0,B|88:160|112:112|152:80|232:80,1,225
496,48,63620,5,0
8,320,63986,1,0
48,88,64352,6,0,B|96:48|144:48,1,75
112,176,64718,1,0
224,104,64901,1,0
232,224,65084,1,0
464,48,65633,2,0,B|400:24|360:48,1,75
472,160,65998,1,0
352,136,66181,1,0
384,248,66364,1,0
256,192,66547,12,0,68011
304,88,79718,5,0
192,184,80084,1,0
304,280,80450,1,0
416,176,80815,2,0,B|352:120,1,75
216,64,81181,5,0
128,80,81364,1,0
96,160,81547,1,0
96,240,81730,1,0
176,256,81913,2,0,B|224:280|256:216,1,75
240,240,82279,2,0,B|288:248|304:200,1,75
296,80,82645,5,0
336,24,82828,1,0
376,152,83011,1,0
440,120,83193,1,0
360,256,83376,1,0
408,304,83559,1,0
256,288,83742,1,0
256,352,83925,1,0
216,24,84108,6,0,B|296:24,1,75
448,152,84474,2,0,B|448:232,1,75
288,344,84840,2,0,B|208:344,1,75
64,232,85206,2,0,B|64:144,1,75
272,112,85572,2,0,B|336:192,1,75
240,272,85937,2,0,B|184:200,1,75
368,136,86486,5,0
392,112,86578,1,0
416,88,86669,2,0,B|480:32,2,75
376,224,87218,1,0
272,112,87401,1,0
152,232,87584,2,0,B|216:312|304:288|312:184,1,225
128,48,88498,6,0,B|64:104,1,75
72,96,88864,1,2
72,96,89047,2,0,B|144:168,1,75
216,184,89413,1,0
144,240,89596,1,2
248,296,89779,1,0
272,272,89870,1,0
296,248,89962,1,0
320,144,90145,1,0
240,80,90328,1,2
40,192,90511,5,0
72,192,90602,1,0
104,192,90693,1,0
136,192,90785,1,0
168,192,90876,1,0
200,192,90968,1,0
232,192,91059,1,0
264,192,91151,1,0
296,192,91242,1,0
472,96,91425,5,2
472,296,91791,1,0
472,96,92157,1,2
472,256,92523,1,2
472,144,92706,1,0
288,88,92889,6,0,B|288:176,1,75
288,304,93254,2,0,B|288:224,1,75
176,192,93620,2,0,B|272:192,1,75
392,192,93986,2,0,B|312:192,1,75
280,192,94352,5,0
192,104,94535,1,0
80,32,94718,1,0
72,160,94901,1,0
72,344,95267,1,2
72,344,95450,2,2,B|48:312,2,37.5
192,344,95815,5,0
296,296,95998,1,0
376,216,96181,1,0
416,112,96364,1,0
416,8,96547,2,0,B|464:-8,2,37.5
312,24,96913,1,0
208,40,97096,1,0
120,112,97279,1,0
208,40,97462,1,0
120,112,97645,1,0
80,200,97828,1,0
464,128,98193,6,0,B|480:160|464:200,1,75
256,128,98559,2,0,B|232:160|256:208,1,75
112,280,98925,1,0
112,280,99017,1,0
112,280,99108,1,0
296,304,99291,2,0,B|320:272|288:224,1,75
224,40,99657,6,0,B|248:0|296:32,2,75
384,48,100206,6,0,B|448:88,1,75
488,184,100572,1,0
432,280,100754,1,0
328,304,100937,1,0
224,304,101120,2,0,B|200:312|200:288,2,37.5
256,192,101486,12,0,102767
224,32,103133,5,0
192,160,103315,1,0
320,192,103498,1,0
448,160,103681,1,0
480,288,103864,1,0
368,352,104047,1,0
480,288,104230,1,0
368,352,104413,1,0
152,240,104596,6,0,B|160:296|80:288,1,75
32,200,104962,2,0,B|8:160|56:136,1,75
176,56,105328,2,0,B|128:40|104:96,1,75
168,208,105693,2,0,B|112:200|120:136,1,75
119,159,106059,1,0
120,160,106242,1,0
120,160,106334,1,0
120,160,106425,1,0
40,360,106608,6,0,B|16:328|40:288,1,75
144,360,106974,1,0
232,280,107157,1,0
160,192,107340,1,0
248,120,107523,2,0,B|232:64|200:64|184:32|112:48,1,150
48,104,108072,1,0
48,232,108254,1,0
48,104,108437,1,0
160,40,108620,1,0
160,40,108712,1,0
160,40,108803,1,0
264,112,108986,5,0
352,24,109169,1,0
440,104,109352,1,0
456,224,109535,1,0
336,272,109718,2,0,B|256:288,1,75
64,320,110084,5,0
64,80,110450,1,0
64,80,110633,1,0
160,160,110815,1,0
160,160,110998,1,0
224,280,111181,1,0
16,280,111547,5,0
248,40,111913,1,0
248,40,112096,1,0
352,40,112279,1,0
424,104,112462,1,0
448,128,112553,1,0
464,160,112645,1,0
488,240,112828,2,0,B|480:280|464:240|456:280|440:240|432:280|416:240|400:280|384:240|368:280|352:240|336:280,1,150
248,256,113376,1,0
128,256,113559,1,0
64,160,113742,1,0
48,48,113925,1,0
168,40,114108,2,0,B|224:48|224:104,1,75
184,192,114474,1,0
272,264,114657,1,0
168,144,114840,6,0,B|216:136|248:192,1,75
344,144,115206,2,0,B|296:136|256:200,1,75
168,248,115572,2,0,B|208:248|248:192,1,75
344,256,115937,2,0,B|296:240|272:200,1,75
256,192,116303,5,0
392,40,116669,1,0
480,128,116852,1,0
360,152,117035,2,0,B|336:224,1,75
368,320,117401,1,0
272,296,117584,1,0
184,272,117767,1,0
184,272,117858,1,0
432,48,118315,6,0,B|432:200,1,150
432,198,118864,1,0
336,144,119047,1,0
248,88,119230,2,0,B|208:136|224:184|248:200|280:208,1,150
384,248,119779,6,0,B|480:248,1,75
464,288,120053,1,0
456,328,120145,2,0,B|368:328,1,75
280,336,120511,1,0
184,288,120693,5,0
136,192,120876,1,0
256,152,121059,2,0,B|296:88,1,75
336,224,121425,1,0
384,136,121608,1,0
432,256,121791,2,0,B|480:176,1,75
472,96,122157,5,0
472,96,122340,1,0
472,96,122523,2,0,B|376:120|384:120,1,75
399,114,122889,1,0
256,24,123254,5,0
352,144,123620,1,0
352,176,123712,1,0
352,208,123803,1,0
320,296,123986,1,0
216,320,124169,1,0
200,288,124261,1,0
184,256,124352,1,0
16,32,124718,5,0
88,96,124901,1,0
120,72,124992,1,0
144,48,125084,1,0
216,144,125267,1,0
232,176,125358,1,0
248,200,125450,1,0
368,288,125633,1,0
384,264,125724,1,0
400,232,125815,2,0,B|416:200,3,37.5
440,168,126181,2,0,B|480:160,3,37.5
488,120,126547,2,0,B|504:72|448:32,1,75
368,32,126913,1,0
216,80,127279,5,0
288,192,127462,1,0
168,256,127645,1,0
304,312,127828,1,0
440,256,128010,1,0
440,32,128376,6,0,B|304:32,1,112.5
327,32,128742,1,0
256,96,128925,1,0
184,152,129108,2,0,B|80:176,1,75
256,192,129474,12,0,130572
120,328,130937,6,0,B|168:272,1,75
384,336,131303,2,0,B|344:272,1,75
144,160,131669,2,0,B|208:96,1,75
368,168,132035,2,0,B|320:112,1,75
88,72,132401,6,0,B|96:56|112:40|128:32|144:32|160:40|176:56|184:72|184:96|184:112,1,150
264,184,132950,1,0
296,168,133041,1,0
320,144,133133,1,0
368,48,133315,2,0,B|416:144|480:48,1,150
488,144,133864,1,0
464,168,133956,1,0
440,192,134047,1,0
104,296,134413,6,0,B|136:312|184:320|232:320|264:312,1,150
216,200,134962,2,0,B|184:176|136:192,1,75
40,136,135328,1,0
168,112,135510,1,0
192,128,135601,1,0
216,152,135693,1,0
256,248,135876,5,0
352,288,136059,1,0
400,192,136242,1,0
304,144,136425,1,0
152,72,136608,2,0,B|232:72,1,75
360,72,136974,2,0,B|272:72,1,75
256,192,137340,2,0,B|256:112,1,75
256,192,137889,1,0
176,96,138254,5,0
336,280,138437,1,0
336,96,138620,1,0
176,280,138803,1,0
256,192,138986,1,0
256,192,139352,5,0
256,120,139718,5,0
328,176,139901,1,0
296,256,140084,1,0
208,248,140267,1,0
184,168,140450,1,0
256,192,140633,1,0
256,192,140815,1,0
352,64,141181,5,0
464,64,141364,1,0
432,160,141547,1,0
320,160,141730,1,0
376,248,141913,1,0
488,248,142096,1,0
440,336,142279,1,0
320,336,142462,2,0,B|256:272,1,75
128,160,142828,6,0,B|168:200|120:248,1,75
384,160,143193,2,0,B|352:200|392:248,1,75
256,152,143559,2,0,B|256:232,2,75
160,80,144108,1,0
256,16,144291,1,0
360,80,144474,1,0
400,192,144657,1,0
400,192,144840,1,0
312,288,145023,2,0,B|256:240|240:224,1,75
160,160,145389,1,0
240,64,145572,1,0
352,72,145754,5,0
344,40,145846,1,0
360,8,145937,1,0
464,32,146120,6,0,B|472:88|440:112|448:112,1,75
384,184,146486,1,0
488,200,146669,1,0
416,288,146852,1,0
304,248,147035,1,0
288,216,147126,1,0
256,208,147218,1,0
224,224,147309,1,0
208,256,147401,1,0
112,264,147584,6,0,B|144:344|240:360,1,150
352,336,148133,1,0
352,336,148315,1,0
416,256,148498,6,0,B|440:240,2,18.75
328,192,148864,2,0,B|304:184,2,18.75
416,120,149230,2,0,B|440:104,2,18.75
488,32,149596,6,0,B|408:32,1,75
312,56,149962,1,2
224,112,150145,1,0
192,224,150328,1,0
224,112,150511,1,0
192,224,150693,1,2
48,40,151059,6,0,B|128:40,1,75
232,40,151425,1,2
160,128,151608,1,0
192,240,151791,1,0
304,280,151974,1,0
416,248,152157,1,2
200,352,152523,6,0,B|272:328,1,75
376,296,152889,1,0
488,48,153254,1,0
256,80,153620,5,0
224,80,153712,1,0
192,96,153803,1,0
152,192,153986,5,0
184,208,154078,1,0
216,208,154169,1,0
232,296,154352,5,0
48,160,154718,1,0
256,32,155084,5,0
192,104,155267,1,0
320,104,155450,1,0
144,176,155633,1,0
376,176,155815,1,0
256,344,156181,5,0
352,328,156364,2,0,B|400:312|416:272,1,75
448,200,156730,1,0
440,104,156913,2,0,B|424:72|400:64|368:72,1,75
256,192,157279,12,0,158376
40,240,158742,5,0
128,136,158925,1,0
216,240,159108,2,0,B|160:216|120:256,1,75
208,360,159474,1,0
328,296,159657,1,0
432,256,159840,1,0
440,224,159931,1,0
432,192,160023,1,0
360,88,160206,5,0
464,152,160389,1,0
360,200,160572,1,0
248,136,160754,5,0
160,216,160937,1,0
136,104,161120,1,0
248,136,161303,5,0
336,208,161486,1,0
248,288,161669,2,0,B|176:232,1,75
248,288,162035,2,0,B|312:336,1,75
272,216,162401,6,0,B|304:176|344:224,1,75
464,216,162767,2,0,B|416:176|376:232,1,75
208,184,163132,5,0
96,240,163315,1,0
208,304,163498,1,0
280,152,163681,5,0
320,264,163864,1,0
400,184,164047,1,0
280,152,164230,5,0
256,40,164413,1,0
376,64,164596,2,0,B|312:16,1,75
376,64,164962,2,0,B|440:112,1,75
480,224,165328,6,0,B|456:264|384:240,1,75
304,280,165693,1,0
304,280,165785,1,0
304,280,165876,1,0
192,240,166059,6,0,B|232:168|304:128,1,150,0|0
184,136,166425,2,0,B|248:176|304:248,1,150
