osu file format v9

[General]
AudioFilename: Kore wa Zombie Desu ka Opening HD.flv.MP3
AudioLeadIn: 2000
PreviewTime: 64827
Countdown: 0
SampleSet: Soft
StackLeniency: 0.7
Mode: 1
LetterboxInBreaks: 0

[Editor]
DistanceSpacing: 1.5
BeatDivisor: 4
GridSize: 8

[Metadata]
Title:Ma.Ka.Se.Te Tonight (TV Size)
Artist:Nomizu Iori
Creator:Tenshi-nyan
Version:lepidon! - Taiko Oni
Source:Kore wa Zombie Desu ka?
Tags:Moonshade lepidopodus

[Difficulty]
HPDrainRate:5
CircleSize:5
OverallDifficulty:5
ApproachRate:5
SliderMultiplier:1.4
SliderTickRate:1

[Events]
//Background and Video events
Video,0,"video.flv"
0,0,"Konachan.com - 99461 sample.jpg"
//Break Periods
//Storyboard Layer 0 (Background)
//Storyboard Layer 1 (Fail)
//Storyboard Layer 2 (Pass)
//Storyboard Layer 3 (Foreground)
//Storyboard Sound Samples
//Background Colour Transformations
3,100,163,162,255

[TimingPoints]
187,331.491712707182,4,2,0,65,1,0
5162,-100,4,2,0,85,0,0
63834,331.491712707182,6,2,0,85,1,0
65822,331.491712707182,4,2,0,85,1,1
88366,-100,4,2,0,60,0,0

[Colours]
Combo1 : 200,38,38
Combo2 : 248,129,239
Combo3 : 158,16,254

[HitObjects]
188,179,187,1,0
274,237,352,1,0
458,338,684,1,0
270,244,1015,1,0
435,373,1181,1,0
376,285,1347,1,0
170,325,1678,1,0
375,280,2010,1,0
343,379,2175,1,0
343,379,2507,1,0
225,205,2838,1,0
137,146,3004,1,0
323,243,3336,1,0
507,342,3667,1,0
414,292,3833,1,0
317,249,3999,1,0
140,361,4330,1,0
322,257,4662,1,0
240,322,4827,1,0
120,130,5490,5,0
324,181,5822,1,8
441,153,6153,1,0
432,257,6319,1,0
386,161,6485,1,8
451,243,6651,1,0
264,147,6982,1,0
441,153,7148,1,8
391,245,7314,1,0
286,254,7479,1,0
337,245,7562,1,0
285,254,7645,1,0
386,161,7811,1,8
453,121,8142,1,0
429,330,8474,1,8
328,146,8805,1,0
389,231,8971,1,0
422,131,9137,1,8
394,232,9303,1,0
187,268,9634,1,0
284,229,9800,1,8
480,154,10131,1,0
393,214,10297,1,0
362,314,10463,1,8
120,130,10794,5,0
324,181,11126,1,8
441,153,11457,1,0
432,257,11623,1,0
386,161,11789,1,8
451,243,11954,1,0
264,147,12286,1,0
441,153,12452,1,8
391,245,12617,1,0
286,254,12783,1,0
337,245,12866,1,0
285,254,12949,1,0
386,161,13115,1,8
176,171,13446,1,0
380,122,13778,1,8
423,327,14109,1,0
327,283,14275,1,0
367,186,14441,1,8
165,243,14772,1,0
268,222,14938,1,0
320,223,15021,1,0
372,216,15104,1,8
467,173,15269,1,0
384,107,15435,1,8
341,76,15518,1,8
467,173,15601,1,0
415,185,15684,1,0
467,184,15767,1,8
492,184,15849,1,8
465,229,15932,1,0
378,276,16098,5,0
211,147,16430,1,8
406,223,16761,1,0
322,158,16927,1,0
423,130,17093,1,8
441,232,17258,1,0
259,338,17590,1,0
335,265,17756,1,8
380,170,17921,1,0
414,70,18087,1,0
429,174,18253,1,0
504,246,18419,1,8
311,161,18750,1,0
478,162,19082,1,8
332,313,19413,1,0
414,247,19579,1,0
478,162,19745,1,8
414,247,19910,1,0
362,257,19993,1,0
310,267,20076,1,0
239,189,20242,1,8
195,159,20325,1,8
246,168,20407,1,0
343,207,20573,1,0
436,158,20739,1,8
483,136,20822,1,8
414,247,20905,1,0
364,130,21070,1,4
426,214,21236,1,12
332,262,21402,5,0
509,150,21733,1,8
298,153,22065,1,0
195,175,22231,1,0
426,214,22396,1,8
423,319,22562,1,0
225,246,22894,1,0
320,202,23059,1,8
423,186,23225,1,0
448,190,23391,1,0
408,287,23557,1,0
398,182,23722,1,8
392,151,24054,1,0
448,190,24385,1,8
428,145,24717,1,0
478,176,24883,1,8
410,255,25048,1,0
332,183,25214,1,8
282,275,25380,1,0
366,337,25546,1,0
366,337,25628,1,0
350,286,25711,1,8
454,278,25877,1,0
417,179,26043,1,12
313,159,26209,1,12
208,166,26374,1,12
208,166,26540,1,12
290,100,26706,5,0
326,306,27037,1,8
417,179,27369,1,0
402,283,27535,1,0
436,184,27700,1,8
436,184,28032,1,0
396,281,28198,1,0
394,176,28363,1,8
379,153,28695,1,0
329,170,28778,1,0
377,258,28861,1,0
347,157,29026,1,8
142,205,29358,1,0
341,141,29689,1,8
442,168,30021,1,0
386,256,30186,1,0
375,151,30352,1,8
182,236,30684,1,0
283,209,30849,1,0
379,167,31015,1,8
455,239,31181,1,8
413,206,31264,1,8
364,186,31347,1,8
351,236,31430,1,8
363,286,31512,1,0
420,197,31678,1,8
415,144,31761,1,8
455,239,31844,1,0
373,172,32010,5,0
436,154,32341,1,8
413,206,32673,1,0
375,303,32838,1,0
396,200,33004,1,8
448,109,33170,1,0
272,223,33501,1,0
372,190,33667,1,8
461,245,33833,1,0
384,317,33999,1,0
350,276,34082,1,0
302,251,34164,1,0
334,209,34330,1,8
125,178,34662,1,0
66,91,34827,1,0
169,111,34993,1,8
370,170,35325,1,0
440,247,35490,1,0
401,149,35656,1,8
366,248,35822,1,0
330,287,35905,1,0
279,302,35988,1,0
321,206,36153,1,12
332,101,36319,1,12
237,147,36485,1,0
341,156,36651,1,12
443,174,36816,1,12
434,69,36982,1,0
475,165,37148,1,8
458,214,37231,1,8
444,264,37314,5,0
280,128,37645,1,8
400,304,37977,1,0
296,296,38142,1,0
344,208,38308,1,8
424,144,38474,1,0
320,264,38805,1,0
408,208,38971,1,8
408,208,39137,1,0
392,312,39303,1,0
392,264,39385,1,0
392,264,39468,1,0
408,160,39634,1,8
200,168,39966,1,0
296,200,40131,1,0
400,192,40297,1,8
272,32,40628,1,0
320,128,40794,1,0
336,176,40877,1,0
392,176,40960,1,8
384,280,41126,1,0
336,288,41209,1,0
288,328,41291,1,0
376,272,41457,1,0
392,176,41623,1,8
496,200,41789,1,0
400,216,41954,1,8
352,248,42037,1,8
296,256,42120,1,8
248,248,42203,1,8
224,200,42286,1,0
200,152,42369,1,0
160,112,42452,1,0
208,88,42535,1,0
256,88,42617,5,0
456,152,42949,1,8
472,360,43280,1,0
400,280,43446,1,0
344,192,43612,1,8
328,128,43943,1,0
432,160,44109,1,0
336,192,44275,1,8
312,296,44441,1,0
312,296,44606,1,0
312,296,44689,1,0
312,296,44772,1,0
368,208,44938,1,8
464,24,45269,1,0
448,232,45601,1,8
336,56,45932,1,0
400,144,46098,1,0
456,232,46264,1,8
248,264,46595,1,0
352,248,46761,1,0
408,160,46927,1,8
408,160,47093,1,0
304,160,47258,1,8
232,152,47369,1,8
304,152,47479,1,0
376,136,47590,1,0
440,104,47700,1,0
512,104,47811,1,0
480,168,47921,5,0
192,288,48419,1,0
192,288,48501,1,0
248,288,48584,1,8
456,264,48916,1,0
376,200,49082,1,8
448,120,49247,1,0
408,216,49413,1,8
496,280,49579,1,0
312,176,49910,1,8
496,280,50242,1,8
392,296,50407,1,8
336,304,50490,1,8
280,296,50573,1,0
440,160,50905,1,0
248,200,51070,1,0
192,200,51153,1,0
248,200,51236,1,8
344,248,51402,1,0
336,352,51733,1,8
360,248,51899,1,0
440,160,52065,1,8
336,144,52231,1,0
440,160,52562,1,8
376,240,52728,1,0
472,200,52894,1,8
424,288,53059,1,8
424,288,53142,1,8
376,296,53225,5,0
184,208,53557,1,0
288,208,53722,1,0
336,216,53805,1,0
384,200,53888,1,8
472,200,54054,1,0
368,16,54385,1,8
424,104,54551,1,0
488,192,54717,1,8
392,232,54883,1,0
296,48,55214,1,8
352,136,55380,1,0
392,232,55546,1,0
472,168,55711,1,8
416,160,55794,1,8
448,200,55877,1,0
272,312,56209,1,0
320,216,56374,1,0
296,264,56457,1,0
344,256,56540,1,8
416,328,56706,1,0
472,168,57037,1,8
464,272,57203,1,0
440,168,57369,1,8
344,128,57535,1,0
264,320,57866,1,8
320,120,58198,1,4
480,120,58363,1,12
424,208,58529,5,0
320,200,58695,1,0
216,192,58861,1,0
120,240,59026,1,0
216,280,59192,1,0
320,304,59358,1,0
424,296,59524,1,0
424,208,59689,1,0
320,192,59855,1,0
216,176,60021,1,0
128,120,60186,1,0
176,208,60352,1,0
216,280,60518,1,0
312,248,60684,1,0
296,352,60849,1,0
219,279,61015,1,0
160,191,61181,1,0
212,189,61264,1,0
235,118,61347,1,0
264,203,61512,1,0
221,172,61595,1,0
179,141,61678,1,0
312,248,61844,1,0
279,207,61927,1,0
246,166,62010,1,0
312,248,62175,1,0
273,212,62258,1,0
240,171,62341,1,0
336,208,62507,1,0
336,208,62590,1,0
384,192,62673,1,8
432,176,62756,1,8
472,144,62838,1,0
440,184,62921,1,0
488,200,63004,1,8
440,216,63087,1,8
432,272,63170,1,0
384,256,63253,1,0
336,272,63336,1,0
280,272,63419,1,0
232,280,63501,1,0
232,280,63584,1,0
192,240,63667,1,0
177,197,64828,1,0
437,170,65159,1,8
314,340,65491,1,8
269,135,65822,5,0
288,238,65987,1,0
280,289,66070,1,0
332,285,66153,1,8
436,273,66319,1,0
436,273,66402,1,0
411,318,66484,1,0
376,218,66650,1,0
418,121,66816,1,8
348,199,66982,1,0
314,239,67065,1,0
276,274,67147,1,0
238,188,67313,1,0
342,177,67479,1,8
416,166,67810,1,0
416,166,67893,1,0
416,166,67976,1,0
416,271,68142,1,8
272,120,68473,1,0
304,224,68639,1,0
304,224,68722,1,0
352,240,68805,1,8
456,224,68971,1,0
416,256,69054,1,0
416,271,69136,1,0
344,344,69302,1,0
368,240,69468,1,8
400,136,69634,1,0
360,168,69717,1,0
360,168,69799,1,0
304,256,69965,1,0
456,224,70131,1,8
432,16,70462,1,0
440,72,70545,1,8
448,120,70628,1,0
440,224,70794,1,8
230,208,71125,5,0
124,209,71291,1,0
167,238,71374,1,0
218,227,71457,1,8
322,212,71623,1,8
368,188,71705,1,8
277,117,71788,1,0
317,214,71954,1,0
418,185,72120,1,8
440,224,72286,1,0
388,226,72368,1,0
343,254,72451,1,0
246,212,72617,1,0
195,197,72700,1,0
246,188,72783,1,8
337,136,72949,1,8
387,123,73031,1,8
387,175,73114,1,0
409,277,73280,1,0
394,172,73446,1,8
434,268,73612,1,0
382,277,73694,1,0
335,301,73777,1,0
282,209,73943,1,0
383,183,74109,1,8
375,148,74440,1,0
394,172,74523,1,0
394,172,74606,1,0
497,155,74772,1,8
418,225,74938,1,4
282,209,75269,1,8
282,209,75352,1,8
282,209,75435,1,8
312,108,75601,1,0
415,122,75766,1,12
415,122,75932,1,12
415,122,76098,1,12
415,122,76263,1,12
399,225,76429,5,0
294,233,76595,1,0
241,239,76678,1,0
293,236,76761,1,8
395,255,76926,1,0
409,305,77009,1,0
409,305,77092,1,0
426,201,77258,1,8
493,120,77424,1,8
454,217,77589,1,0
414,251,77672,1,0
374,285,77755,1,0
303,206,77921,1,0
399,164,78087,1,8
426,201,78418,1,0
456,243,78501,1,0
421,203,78584,1,0
456,243,78667,1,0
426,201,78750,1,8
399,225,79081,1,0
294,233,79247,1,0
241,239,79330,1,0
293,236,79413,1,8
395,255,79578,1,0
409,305,79661,1,0
409,305,79744,1,0
426,201,79910,1,8
493,120,80076,1,8
454,217,80241,1,0
414,251,80324,1,0
374,285,80407,1,0
303,206,80573,1,0
399,164,80739,1,8
426,201,81070,1,0
456,243,81153,1,8
421,203,81236,1,0
456,243,81319,1,0
426,201,81402,1,8
216,189,81733,5,0
140,261,81899,1,0
191,249,81982,1,0
426,201,82065,1,8
336,255,82230,1,8
388,249,82313,1,8
415,204,82396,1,0
325,148,82562,1,0
429,135,82728,1,8
437,239,82893,1,0
433,291,82976,1,0
433,291,83059,1,0
327,293,83225,1,0
274,300,83308,1,0
271,247,83391,1,8
259,143,83556,1,8
259,143,83639,1,8
310,153,83722,1,0
415,154,83888,1,0
376,56,84054,1,8
400,157,84219,1,0
397,209,84302,1,0
379,258,84385,1,0
280,221,84551,1,0
358,151,84717,1,8
327,250,84882,1,0
299,294,84965,1,0
248,308,85048,1,0
195,300,85131,1,0
153,268,85214,1,0
232,199,85380,1,8
331,165,85545,1,4
379,258,85877,1,0
395,207,85960,1,8
411,157,86042,1,8
416,262,86208,1,0
360,172,86374,1,8
360,172,86457,1,8
412,175,86540,1,0
435,179,86705,1,8
435,179,86788,1,8
456,226,86871,1,0
197,208,87037,1,0
197,208,87120,1,0
197,208,87203,1,0
197,208,87286,1,0
248,202,87368,1,8
300,196,87451,1,8
352,203,87534,1,0
408,288,87700,1,4
304,280,87866,1,4
216,336,88031,1,4
264,240,88197,1,4
362,203,88363,1,12
