osu file format v9

[General]
AudioFilename: Kore wa Zombie Desu ka Opening HD.flv.MP3
AudioLeadIn: 0
PreviewTime: 64827
Countdown: 0
SampleSet: Normal
StackLeniency: 0.7
Mode: 0
LetterboxInBreaks: 0

[Editor]
DistanceSpacing: 1
BeatDivisor: 4
GridSize: 4

[Metadata]
Title:Ma.Ka.Se.Te Tonight (TV Size)
Artist:Nomizu Iori
Creator:Tenshi-nyan
Version:Easy
Source:Kore wa Zombie Desu ka?
Tags:Moonshade lepidopodus

[Difficulty]
HPDrainRate:1
CircleSize:3
OverallDifficulty:1
ApproachRate:2
SliderMultiplier:0.8
SliderTickRate:1

[Events]
//Background and Video events
Video,0,"video.flv"
0,0,"Konachan.com - 99461 sample.jpg"
//Break Periods
//Storyboard Layer 0 (Background)
//Storyboard Layer 1 (Fail)
//Storyboard Layer 2 (Pass)
//Storyboard Layer 3 (Foreground)
//Storyboard Sound Samples
//Background Colour Transformations
3,100,163,162,255

[TimingPoints]
187,331.491712707182,4,2,1,0,1,0
3170,-100,4,2,1,11,0,0
3501,-100,4,2,1,21,0,0
3833,-100,4,2,1,29,0,0
4164,-100,4,2,1,41,0,0
4662,-100,4,2,1,0,0,0
4827,-100,4,2,1,51,0,0
24966,-100,4,2,2,51,0,0
25214,-100,4,2,1,51,0,0
27037,-133.333333333333,4,2,1,51,0,0
27535,-133.333333333333,4,2,2,51,0,0
27783,-133.333333333333,4,2,1,51,0,0
28280,-133.333333333333,4,2,2,51,0,0
28529,-133.333333333333,4,2,1,51,0,0
28695,-100,4,2,1,51,0,0
29358,-133.333333333333,4,2,1,51,0,0
29606,-133.333333333333,4,2,2,51,0,0
29855,-133.333333333333,4,2,1,51,0,0
30352,-100,4,2,2,51,0,0
30518,-100,4,2,1,51,0,0
31015,-100,4,2,1,51,0,0
35573,-100,4,2,2,51,0,0
35739,-100,4,2,1,51,0,0
37479,-100,4,2,1,39,0,0
37811,-100,4,2,1,50,0,0
39551,-100,4,2,2,51,0,0
39800,-100,4,2,1,51,0,0
40877,-100,4,2,2,51,0,0
41126,-100,4,2,1,51,0,0
42949,-133.333333333333,4,2,1,51,0,0
43536,-133.333333333333,4,2,2,51,0,0
43695,-133.333333333333,4,2,1,51,0,0
44109,-133.333333333333,4,2,2,51,0,0
44441,-133.333333333333,4,2,1,51,0,0
44617,-100,4,2,1,51,0,0
52728,-100,4,2,1,41,0,0
53391,-100,4,2,1,56,0,0
58032,-100,4,2,1,47,0,0
58695,-100,4,2,1,54,0,0
62424,-100,4,2,1,31,0,0
63004,-100,4,2,1,41,0,0
63336,-100,4,2,1,50,0,0
63667,-100,4,1,0,41,0,0
63834,331.491712707182,6,2,1,11,1,0
64415,-100,6,1,0,25,0,0
64746,-100,6,1,0,21,0,0
65078,-100,6,1,0,35,0,0
65409,-100,6,1,0,41,0,0
65822,331.491712707182,4,2,1,62,1,1
66736,-100,4,2,2,53,0,1
66985,-100,4,2,1,53,0,1
72703,-100,4,2,2,53,0,1
72869,-100,4,2,1,53,0,1
73948,-100,4,2,2,53,0,1
74192,-100,4,2,1,53,0,1
74523,-100,4,2,2,53,0,1
74855,-100,4,2,1,53,0,1
88366,-100,4,2,1,53,0,0

[Colours]
Combo1 : 200,38,38
Combo2 : 248,129,239
Combo3 : 158,16,254

[HitObjects]
256,192,2838,12,0,4827
116,152,5490,6,0,B|122:195|122:195|155:235,1,80,4|8
304,256,6485,1,8
440,176,7148,1,8
336,112,7645,2,0,B|304:72,1,40,2|8
168,160,8474,5,8
88,296,9137,1,8
248,296,9800,1,8
148,229,10297,2,0,B|113:190,1,40,2|8
280,152,11126,5,8
368,288,11789,1,8
208,296,12452,2,0,B|136:328|48:296,2,160,8|8|8
360,240,14441,1,8
360,80,15104,5,8
280,80,15435,2,0,B|232:80,4,40,10|10|10|10|6
320,152,16430,6,0,B|320:248,2,80,8|2|8
280,80,17424,1,2
204,48,17756,1,8
132,84,18087,2,0,B|44:104,1,80,2|8
56,183,18750,2,8,B|56:271,3,80,2|8|2|8
220,276,20407,6,0,B|254:287|300:276,1,80,8|2
261,203,21070,2,0,B|298:190|340:204,1,80,8|2
400,152,21733,5,8
332,108,22065,2,0,B|293:86|246:112,2,80,2|8|2
400,152,23059,1,8
400,232,23391,2,0,B|304:232,1,80,2|8
300,308,24054,6,0,B|256:296|241:255,1,80,2|8
232,176,24717,2,0,B|168:104|88:104,1,160,2|2
92,184,25711,1,8
160,228,26043,6,8,B|160:276,4,40,10|2|10|2|6
240,228,27037,2,0,B|265:318|461:318|482:219,1,299.999991059304,8|2
416,180,29026,1,8
480,136,29358,2,0,B|455:38|258:37|238:143,1,299.999991059304,2|8
355,255,31678,6,0,B|318:275|265:274,1,80,8|4
208,236,32341,2,0,B|140:188|140:88,2,160,8|8|8
288,236,33999,2,0,B|376:236,1,80,2|8
448,236,34662,6,0,B|442:282|400:312,1,80,2|8
334,334,35325,2,0,B|286:362|217:357,1,120,2|2
216,276,36153,6,0,B|216:220,1,40,8|8
200,156,36651,2,0,B|256:156,1,40,8|8
320,152,37148,2,0,B|320:104,1,40,8|2
320,32,37645,6,4,B|420:40|448:120,2,160,12|8|8
240,32,39303,2,0,B|144:44|120:128,1,160,2|2
56,172,40297,1,8
124,216,40628,2,0,B|146:295|242:307,1,160,2|2
316,276,41623,1,8
360,208,41954,6,0,B|416:208,4,40,8|0|8|0|4
356,128,42949,2,0,B|284:88|212:143|212:143|144:92|75:134,1,299.999991059304,8|2
76,216,44938,1,8
76,296,45269,1,2
256,192,45601,12,8,47258
104,112,47921,6,0,B|64:248|216:304,1,240,4|2
320,272,49413,2,2,B|352:208|336:144,1,120,2|8
336,72,50242,1,8
256,96,50573,2,4,B|192:88|128:128,2,120,2|2|2
352,296,52894,6,0,B|392:328,2,40,8|8|4
400,184,53722,2,0,B|400:120|320:88,2,120,2|2|2
352,296,55214,1,8
272,296,55546,1,0
192,296,55877,2,0,B|128:288|84:240,2,120,2|2|2
408,56,58198,6,0,B|448:32,2,40,8|8|4
304,120,59026,2,0,B|248:152|176:152,2,120,2|8|2
392,200,60518,2,0,B|400:240|368:280,1,80,8|2
304,232,61181,2,0,B|245:231|189:263,2,120,2|8|2
376,272,62507,6,0,B|416:304,7,40,10|8|10|8|10|8|10|4
256,192,63834,12,4,65822
224,44,66484,6,0,B|136:56|104:152,1,160,2|2
184,164,67479,2,0,B|204:126|248:116,1,80,8|2
256,196,68142,5,8
264,276,68473,2,8,B|312:272|336:220,2,80,2|8|2
256,196,69468,2,0,B|172:196,2,80,8|2|8
324,152,70462,2,8,B|307:114|256:104,1,80,2|8
196,64,71125,5,4
120,88,71457,2,0,B|67:118|67:193|127:230,1,160,8|8
172,280,72451,2,0,B|216:357|326:357|382:268,1,240,2|8
452,256,73777,2,0,B|452:154|383:84|269:84,1,280,2|4
272,164,75269,6,8,B|272:212,1,40
272,284,75766,2,0,B|272:324,2,40,10|10|10
192,284,76429,6,0,B|144:284|104:252,2,80,4|8|2
272,284,77424,2,0,B|360:272|392:176,1,160,8|8
312,164,78418,2,0,B|292:202|248:212,1,80,2|8
240,132,79081,5,2
236,52,79413,2,8,B|188:56|160:108,2,80,8|2|8
240,132,80407,2,0,B|324:132,1,80,2|8
376,188,81070,6,0,B|460:188,1,80,2|8
464,108,81733,1,4
408,52,82065,2,0,B|280:52,1,120,8|2
208,52,82893,6,0,B|137:13|64:56|38:131|86:186,1,240,4|2
144,128,84219,2,0,B|223:132|273:216,2,160,2|2|4
256,192,85711,12,4,88363
