osu file format v13

[General]
AudioFilename: Nomizu_Iori-DARAKENA_TV_Size_.mp3
AudioLeadIn: 0
PreviewTime: 64244
Countdown: 0
SampleSet: Normal
StackLeniency: 0.7
Mode: 1
LetterboxInBreaks: 0
WidescreenStoryboard: 0

[Editor]
DistanceSpacing: 2
BeatDivisor: 4
GridSize: 8
TimelineZoom: 2.5

[Metadata]
Title:DARAKENA (TV-size)
TitleUnicode:DARAKENA~TVサイズ
Artist:Nomizu Iori
ArtistUnicode:野水いおり
Creator:Nofool
Version:Oni
Source:棺姫のチャイカ
Tags:Hitsugi no Chaika Nardoxyribonucleic 伊織
BeatmapID:454928
BeatmapSetID:191079

[Difficulty]
HPDrainRate:5
CircleSize:5
OverallDifficulty:5
ApproachRate:5
SliderMultiplier:1.4
SliderTickRate:1

[Events]
//Background and Video events
0,0,"Toru_Chaika.jpg",0,118
//Break Periods
//Storyboard Layer 0 (Background)
//Storyboard Layer 1 (Fail)
//Storyboard Layer 2 (Pass)
//Storyboard Layer 3 (Foreground)
//Storyboard Sound Samples
//Background Colour Transformations
3,100,163,162,255

[TimingPoints]
940,338.983050847458,4,1,0,60,1,0
940,-125,4,1,0,40,0,0
9075,-125,4,1,0,50,0,0
10770,-100,4,1,0,60,0,0
11448,-100,4,1,0,70,0,0
12126,-100,4,1,0,80,0,0
12465,338.983050847458,4,1,0,80,1,0
23651,-125,4,1,0,60,0,0
28227,-117.647058823529,4,1,0,65,0,0
28397,-111.111111111111,4,1,0,70,0,0
28736,-100,4,1,0,80,0,0
34159,-100,4,1,0,70,0,0
34498,-125,4,1,0,60,0,0
39075,-117.647058823529,4,1,0,65,0,0
39244,-111.111111111111,4,1,0,70,0,0
39414,-105.263157894737,4,1,0,75,0,0
39498,-102.040816326531,4,1,0,78,0,0
39583,-100,4,1,0,80,0,0
45007,338.983050847458,3,1,0,80,1,0
63651,-80,3,1,0,80,0,0
64329,338.983050847458,4,1,0,80,1,1
72464,-100,4,1,0,80,0,0
74159,-80,4,1,0,80,0,0
75176,-100,4,1,0,80,0,1
88735,-100,4,1,0,80,0,0

[Colours]
Combo1 : 18,124,255
Combo2 : 255,0,0

[HitObjects]
256,192,940,5,8,0:0:0:0:
256,192,1448,1,0,0:0:0:0:
256,192,1956,1,0,0:0:0:0:
256,192,2295,1,8,0:0:0:0:
256,192,2804,1,0,0:0:0:0:
256,192,3312,1,0,0:0:0:0:
256,192,3651,1,8,0:0:0:0:
256,192,4160,1,0,0:0:0:0:
256,192,4668,1,0,0:0:0:0:
256,192,5007,1,8,0:0:0:0:
256,192,5516,1,8,0:0:0:0:
256,192,6363,1,0,0:0:0:0:
256,192,7041,1,8,0:0:0:0:
256,192,7380,1,0,0:0:0:0:
256,192,7719,1,8,0:0:0:0:
256,192,8397,1,8,0:0:0:0:
256,192,8736,1,8,0:0:0:0:
256,192,9075,1,4,0:0:0:0:
256,192,9584,1,4,0:0:0:0:
256,192,10092,1,4,0:0:0:0:
256,192,10431,12,4,12126,0:0:0:0:
256,192,12465,5,4,0:0:0:0:
256,192,12803,5,8,0:0:0:0:
256,192,12973,1,0,0:0:0:0:
256,192,13058,1,0,0:0:0:0:
256,192,13142,1,8,0:0:0:0:
256,192,13312,1,0,0:0:0:0:
256,192,13481,1,8,0:0:0:0:
256,192,13651,1,0,0:0:0:0:
256,192,13820,1,0,0:0:0:0:
256,192,14159,1,8,0:0:0:0:
256,192,14329,1,0,0:0:0:0:
256,192,14414,1,0,0:0:0:0:
256,192,14498,1,8,0:0:0:0:
256,192,14668,1,0,0:0:0:0:
256,192,14837,1,8,0:0:0:0:
256,192,15007,1,8,0:0:0:0:
256,192,15176,1,0,0:0:0:0:
256,192,15515,1,8,0:0:0:0:
256,192,15685,1,0,0:0:0:0:
256,192,15770,1,0,0:0:0:0:
256,192,15854,1,8,0:0:0:0:
256,192,16024,1,0,0:0:0:0:
256,192,16193,1,8,0:0:0:0:
256,192,16278,1,8,0:0:0:0:
256,192,16363,1,0,0:0:0:0:
256,192,16532,1,8,0:0:0:0:
256,192,16871,1,8,0:0:0:0:
256,192,17041,1,0,0:0:0:0:
256,192,17126,1,0,0:0:0:0:
256,192,17210,1,8,0:0:0:0:
256,192,17380,1,0,0:0:0:0:
256,192,17465,1,0,0:0:0:0:
256,192,17549,1,8,0:0:0:0:
256,192,17634,1,8,0:0:0:0:
256,192,17719,1,0,0:0:0:0:
256,192,17888,1,8,0:0:0:0:
256,192,18058,1,0,0:0:0:0:
256,192,18142,1,0,0:0:0:0:
256,192,18227,1,8,0:0:0:0:
256,192,18397,1,12,0:0:0:0:
256,192,18736,1,0,0:0:0:0:
256,192,18905,1,8,0:0:0:0:
256,192,19075,1,0,0:0:0:0:
256,192,19159,1,0,0:0:0:0:
256,192,19244,1,8,0:0:0:0:
256,192,19414,1,0,0:0:0:0:
256,192,19583,1,8,0:0:0:0:
256,192,19753,1,4,0:0:0:0:
256,192,20092,1,0,0:0:0:0:
256,192,20261,1,8,0:0:0:0:
256,192,20346,1,8,0:0:0:0:
256,192,20431,1,0,0:0:0:0:
256,192,20600,1,8,0:0:0:0:
256,192,20770,1,0,0:0:0:0:
256,192,20854,1,0,0:0:0:0:
256,192,20939,1,8,0:0:0:0:
256,192,21109,1,12,0:0:0:0:
256,192,21448,1,0,0:0:0:0:
256,192,21617,1,8,0:0:0:0:
256,192,21787,1,0,0:0:0:0:
256,192,21956,1,8,0:0:0:0:
256,192,22041,1,8,0:0:0:0:
256,192,22126,1,0,0:0:0:0:
256,192,22210,1,0,0:0:0:0:
256,192,22295,1,8,0:0:0:0:
256,192,22465,1,0,0:0:0:0:
256,192,22634,1,8,0:0:0:0:
256,192,22719,1,8,0:0:0:0:
256,192,22803,1,8,0:0:0:0:
256,192,22888,1,8,0:0:0:0:
256,192,22973,1,0,0:0:0:0:
256,192,23058,1,0,0:0:0:0:
256,192,23142,1,0,0:0:0:0:
256,192,23227,1,0,0:0:0:0:
256,192,23312,1,0,0:0:0:0:
256,192,23651,1,8,0:0:0:0:
256,192,24159,1,0,0:0:0:0:
256,192,24329,1,8,0:0:0:0:
256,192,24498,1,0,0:0:0:0:
256,192,24668,1,0,0:0:0:0:
256,192,25007,1,8,0:0:0:0:
256,192,25346,1,0,0:0:0:0:
256,192,25515,1,0,0:0:0:0:
256,192,25685,1,8,0:0:0:0:
256,192,25854,1,8,0:0:0:0:
256,192,25939,1,8,0:0:0:0:
256,192,26024,1,0,0:0:0:0:
256,192,26363,1,8,0:0:0:0:
256,192,26871,1,0,0:0:0:0:
256,192,27041,1,8,0:0:0:0:
256,192,27210,1,0,0:0:0:0:
256,192,27380,1,0,0:0:0:0:
256,192,27719,1,8,0:0:0:0:
256,192,27888,1,8,0:0:0:0:
256,192,27973,1,8,0:0:0:0:
256,192,28058,1,0,0:0:0:0:
256,192,28227,1,0,0:0:0:0:
256,192,28397,1,8,0:0:0:0:
256,192,28736,1,0,0:0:0:0:
256,192,29075,1,8,0:0:0:0:
256,192,29244,1,4,0:0:0:0:
256,192,29583,1,0,0:0:0:0:
256,192,29753,1,8,0:0:0:0:
256,192,30092,1,0,0:0:0:0:
256,192,30261,1,0,0:0:0:0:
256,192,30431,1,8,0:0:0:0:
256,192,30600,1,4,0:0:0:0:
256,192,30939,1,0,0:0:0:0:
256,192,31109,1,8,0:0:0:0:
256,192,31448,1,0,0:0:0:0:
256,192,31787,1,8,0:0:0:0:
256,192,31956,1,4,0:0:0:0:
256,192,32295,1,0,0:0:0:0:
256,192,32465,1,8,0:0:0:0:
256,192,32803,1,4,0:0:0:0:
256,192,33142,1,12,0:0:0:0:
256,192,33312,1,0,0:0:0:0:
256,192,33397,1,0,0:0:0:0:
256,192,33481,1,8,0:0:0:0:
256,192,33651,1,8,0:0:0:0:
256,192,33820,1,0,0:0:0:0:
256,192,33905,1,0,0:0:0:0:
256,192,33990,1,0,0:0:0:0:
256,192,34159,1,0,0:0:0:0:
256,192,34498,1,8,0:0:0:0:
256,192,35007,1,0,0:0:0:0:
256,192,35176,1,8,0:0:0:0:
256,192,35346,1,0,0:0:0:0:
256,192,35515,1,0,0:0:0:0:
256,192,35854,1,8,0:0:0:0:
256,192,36024,1,8,0:0:0:0:
256,192,36109,1,8,0:0:0:0:
256,192,36193,1,0,0:0:0:0:
256,192,36363,1,0,0:0:0:0:
256,192,36532,1,8,0:0:0:0:
256,192,36702,1,8,0:0:0:0:
256,192,36787,1,8,0:0:0:0:
256,192,36871,1,0,0:0:0:0:
256,192,37210,1,8,0:0:0:0:
256,192,37719,1,0,0:0:0:0:
256,192,37888,1,8,0:0:0:0:
256,192,38058,1,0,0:0:0:0:
256,192,38227,1,0,0:0:0:0:
256,192,38566,1,8,0:0:0:0:
256,192,38905,1,0,0:0:0:0:
256,192,39075,1,8,0:0:0:0:
256,192,39244,1,8,0:0:0:0:
256,192,39414,1,0,0:0:0:0:
256,192,39498,1,0,0:0:0:0:
256,192,39583,1,0,0:0:0:0:
256,192,39753,1,0,0:0:0:0:
256,192,39922,1,8,0:0:0:0:
256,192,40092,1,4,0:0:0:0:
256,192,40431,1,0,0:0:0:0:
256,192,40600,1,8,0:0:0:0:
256,192,40939,1,0,0:0:0:0:
256,192,41109,1,0,0:0:0:0:
256,192,41278,1,8,0:0:0:0:
256,192,41448,1,4,0:0:0:0:
256,192,41787,1,0,0:0:0:0:
256,192,41956,1,8,0:0:0:0:
256,192,42295,1,0,0:0:0:0:
256,192,42465,1,0,0:0:0:0:
256,192,42634,1,8,0:0:0:0:
256,192,42803,1,4,0:0:0:0:
256,192,43142,1,0,0:0:0:0:
256,192,43312,1,8,0:0:0:0:
256,192,43651,1,4,0:0:0:0:
256,192,43990,1,4,0:0:0:0:
256,192,44159,1,0,0:0:0:0:
256,192,44244,1,0,0:0:0:0:
256,192,44329,1,8,0:0:0:0:
256,192,44498,1,8,0:0:0:0:
256,192,44668,1,0,0:0:0:0:
256,192,44753,1,0,0:0:0:0:
256,192,44837,1,0,0:0:0:0:
256,192,45007,1,0,0:0:0:0:
256,192,45345,1,8,0:0:0:0:
256,192,45515,1,0,0:0:0:0:
256,192,45854,1,8,0:0:0:0:
256,192,46023,1,4,0:0:0:0:
256,192,46362,1,4,0:0:0:0:
256,192,46701,1,8,0:0:0:0:
256,192,47040,1,0,0:0:0:0:
256,192,47379,1,8,0:0:0:0:
256,192,47549,1,0,0:0:0:0:
256,192,47888,1,8,0:0:0:0:
256,192,48057,1,4,0:0:0:0:
256,192,48396,1,4,0:0:0:0:
256,192,48735,1,0,0:0:0:0:
256,192,48820,1,0,0:0:0:0:
256,192,48905,1,0,0:0:0:0:
256,192,49074,1,8,0:0:0:0:
256,192,49413,1,8,0:0:0:0:
256,192,49668,1,0,0:0:0:0:
256,192,49752,1,8,0:0:0:0:
256,192,50091,1,0,0:0:0:0:
256,192,50430,1,8,0:0:0:0:
256,192,50684,1,0,0:0:0:0:
256,192,50769,1,8,0:0:0:0:
256,192,51108,1,0,0:0:0:0:
256,192,51447,1,8,0:0:0:0:
256,192,51617,1,0,0:0:0:0:
256,192,51956,1,8,0:0:0:0:
256,192,52125,1,4,0:0:0:0:
256,192,52464,1,0,0:0:0:0:
256,192,52803,1,8,0:0:0:0:
256,192,53142,1,0,0:0:0:0:
256,192,53481,1,8,0:0:0:0:
256,192,53651,1,0,0:0:0:0:
256,192,53990,1,8,0:0:0:0:
256,192,54159,1,4,0:0:0:0:
256,192,54498,1,4,0:0:0:0:
256,192,54837,5,8,0:0:0:0:
256,192,55176,1,0,0:0:0:0:
256,192,55515,1,8,0:0:0:0:
256,192,55684,1,0,0:0:0:0:
256,192,56023,1,8,0:0:0:0:
256,192,56193,1,4,0:0:0:0:
256,192,56532,1,4,0:0:0:0:
256,192,56871,1,8,0:0:0:0:
256,192,57210,1,0,0:0:0:0:
256,192,57295,1,0,0:0:0:0:
256,192,57379,1,0,0:0:0:0:
256,192,57549,1,8,0:0:0:0:
256,192,57718,1,4,0:0:0:0:
256,192,58227,1,0,0:0:0:0:
256,192,58312,1,0,0:0:0:0:
256,192,58396,1,0,0:0:0:0:
256,192,58566,1,8,0:0:0:0:
256,192,58735,1,4,0:0:0:0:
256,192,59244,1,12,0:0:0:0:
256,192,59752,1,12,0:0:0:0:
256,192,60261,12,0,62295,0:0:0:0:
256,192,62464,5,8,0:0:0:0:
256,192,62634,1,0,0:0:0:0:
256,192,62803,1,8,0:0:0:0:
256,192,62973,1,8,0:0:0:0:
256,192,63142,1,0,0:0:0:0:
256,192,63312,1,0,0:0:0:0:
256,192,63481,1,8,0:0:0:0:
256,192,63651,1,4,0:0:0:0:
256,192,63820,1,4,0:0:0:0:
256,192,64329,1,4,0:0:0:0:
256,192,64498,1,8,0:0:0:0:
256,192,64667,1,0,0:0:0:0:
256,192,64752,1,0,0:0:0:0:
256,192,64837,1,8,0:0:0:0:
256,192,65006,1,0,0:0:0:0:
256,192,65176,1,8,0:0:0:0:
256,192,65261,1,0,0:0:0:0:
256,192,65430,1,0,0:0:0:0:
256,192,65515,1,8,0:0:0:0:
256,192,65684,1,0,0:0:0:0:
256,192,65854,1,8,0:0:0:0:
256,192,66023,1,0,0:0:0:0:
256,192,66108,1,0,0:0:0:0:
256,192,66193,1,8,0:0:0:0:
256,192,66362,1,0,0:0:0:0:
256,192,66532,1,8,0:0:0:0:
256,192,66617,1,0,0:0:0:0:
256,192,66786,1,0,0:0:0:0:
256,192,66871,1,8,0:0:0:0:
256,192,67040,1,0,0:0:0:0:
256,192,67210,1,8,0:0:0:0:
256,192,67379,1,0,0:0:0:0:
256,192,67464,1,0,0:0:0:0:
256,192,67549,1,8,0:0:0:0:
256,192,67718,1,0,0:0:0:0:
256,192,67888,1,8,0:0:0:0:
256,192,68057,1,0,0:0:0:0:
256,192,68142,1,0,0:0:0:0:
256,192,68227,1,8,0:0:0:0:
256,192,68312,1,8,0:0:0:0:
256,192,68396,1,0,0:0:0:0:
256,192,68566,1,8,0:0:0:0:
256,192,68651,1,0,0:0:0:0:
256,192,68820,1,8,0:0:0:0:
256,192,68905,1,0,0:0:0:0:
256,192,69074,1,0,0:0:0:0:
256,192,69244,1,8,0:0:0:0:
256,192,69413,1,0,0:0:0:0:
256,192,69583,1,8,0:0:0:0:
256,192,69752,1,0,0:0:0:0:
256,192,69922,1,8,0:0:0:0:
256,192,70176,1,0,0:0:0:0:
256,192,70261,1,8,0:0:0:0:
256,192,70430,1,0,0:0:0:0:
256,192,70600,1,8,0:0:0:0:
256,192,70684,1,8,0:0:0:0:
256,192,70769,1,0,0:0:0:0:
256,192,70939,1,8,0:0:0:0:
256,192,71108,1,0,0:0:0:0:
256,192,71278,1,8,0:0:0:0:
256,192,71532,1,0,0:0:0:0:
256,192,71617,1,8,0:0:0:0:
256,192,71786,1,0,0:0:0:0:
256,192,71956,1,8,0:0:0:0:
256,192,72040,1,0,0:0:0:0:
256,192,72210,1,0,0:0:0:0:
256,192,72295,1,8,0:0:0:0:
256,192,72464,1,4,0:0:0:0:
256,192,72803,1,8,0:0:0:0:
256,192,72973,1,0,0:0:0:0:
256,192,73057,1,0,0:0:0:0:
256,192,73142,1,0,0:0:0:0:
256,192,73312,1,8,0:0:0:0:
256,192,73481,1,4,0:0:0:0:
256,192,74159,5,12,0:0:0:0:
256,192,74498,1,4,0:0:0:0:
256,192,74667,1,4,0:0:0:0:
256,192,74837,1,12,0:0:0:0:
256,192,75176,5,4,0:0:0:0:
256,192,75345,1,8,0:0:0:0:
256,192,75515,1,0,0:0:0:0:
256,192,75684,1,8,0:0:0:0:
256,192,75854,1,0,0:0:0:0:
256,192,76023,1,8,0:0:0:0:
256,192,76108,1,0,0:0:0:0:
256,192,76278,1,0,0:0:0:0:
256,192,76362,1,8,0:0:0:0:
256,192,76447,1,8,0:0:0:0:
256,192,76532,1,0,0:0:0:0:
256,192,76701,1,8,0:0:0:0:
256,192,76871,1,0,0:0:0:0:
256,192,76956,1,0,0:0:0:0:
256,192,77040,1,8,0:0:0:0:
256,192,77210,1,0,0:0:0:0:
256,192,77379,1,8,0:0:0:0:
256,192,77464,1,0,0:0:0:0:
256,192,77634,1,0,0:0:0:0:
256,192,77718,1,8,0:0:0:0:
256,192,77888,1,0,0:0:0:0:
256,192,77973,1,0,0:0:0:0:
256,192,78057,1,8,0:0:0:0:
256,192,78227,1,0,0:0:0:0:
256,192,78396,1,8,0:0:0:0:
256,192,78566,1,0,0:0:0:0:
256,192,78735,1,8,0:0:0:0:
256,192,78820,1,0,0:0:0:0:
256,192,78990,1,0,0:0:0:0:
256,192,79074,1,8,0:0:0:0:
256,192,79159,1,8,0:0:0:0:
256,192,79244,1,0,0:0:0:0:
256,192,79413,1,8,0:0:0:0:
256,192,79752,1,8,0:0:0:0:
256,192,79922,1,0,0:0:0:0:
256,192,80006,1,0,0:0:0:0:
256,192,80091,1,0,0:0:0:0:
256,192,80176,1,0,0:0:0:0:
256,192,80261,1,8,0:0:0:0:
256,192,80345,1,0,0:0:0:0:
256,192,80430,1,8,0:0:0:0:
256,192,80515,1,8,0:0:0:0:
256,192,80600,1,0,0:0:0:0:
256,192,80769,1,8,0:0:0:0:
256,192,81023,1,0,0:0:0:0:
256,192,81108,1,8,0:0:0:0:
256,192,81278,1,0,0:0:0:0:
256,192,81447,1,8,0:0:0:0:
256,192,81617,1,0,0:0:0:0:
256,192,81701,1,0,0:0:0:0:
256,192,81786,1,8,0:0:0:0:
256,192,81956,1,0,0:0:0:0:
256,192,82125,1,8,0:0:0:0:
256,192,82379,1,0,0:0:0:0:
256,192,82464,1,8,0:0:0:0:
256,192,82634,1,0,0:0:0:0:
256,192,82803,1,8,0:0:0:0:
256,192,82973,1,0,0:0:0:0:
256,192,83057,1,0,0:0:0:0:
256,192,83142,1,8,0:0:0:0:
256,192,83312,1,0,0:0:0:0:
256,192,83481,1,8,0:0:0:0:
256,192,83651,1,0,0:0:0:0:
256,192,83820,1,8,0:0:0:0:
256,192,83905,1,8,0:0:0:0:
256,192,83990,1,0,0:0:0:0:
256,192,84159,1,8,0:0:0:0:
256,192,84329,1,0,0:0:0:0:
256,192,84413,1,0,0:0:0:0:
256,192,84498,1,8,0:0:0:0:
256,192,84667,1,0,0:0:0:0:
256,192,84837,1,8,0:0:0:0:
256,192,85176,1,8,0:0:0:0:
256,192,85345,1,8,0:0:0:0:
256,192,85430,1,8,0:0:0:0:
256,192,85515,1,0,0:0:0:0:
256,192,85600,1,0,0:0:0:0:
256,192,85684,1,8,0:0:0:0:
256,192,85769,1,8,0:0:0:0:
256,192,85854,1,0,0:0:0:0:
256,192,86023,1,0,0:0:0:0:
256,192,86193,1,8,0:0:0:0:
256,192,86362,1,0,0:0:0:0:
256,192,86447,1,0,0:0:0:0:
256,192,86532,1,8,0:0:0:0:
256,192,86701,1,0,0:0:0:0:
256,192,86871,1,8,0:0:0:0:
256,192,87210,1,8,0:0:0:0:
256,192,87295,1,8,0:0:0:0:
256,192,87379,1,0,0:0:0:0:
256,192,87634,1,0,0:0:0:0:
256,192,87718,1,8,0:0:0:0:
256,192,87803,1,0,0:0:0:0:
256,192,87888,1,0,0:0:0:0:
256,192,87973,1,0,0:0:0:0:
256,192,88057,1,8,0:0:0:0:
256,192,88142,1,0,0:0:0:0:
256,192,88227,1,8,0:0:0:0:
256,192,88312,1,8,0:0:0:0:
256,192,88396,1,8,0:0:0:0:
256,192,88481,1,0,0:0:0:0:
256,192,88566,1,8,0:0:0:0:
256,192,88735,1,4,0:0:0:0:
