osu file format v13

[General]
AudioFilename: Nomizu_Iori-DARAKENA_TV_Size_.mp3
AudioLeadIn: 0
PreviewTime: 64244
Countdown: 0
SampleSet: Normal
StackLeniency: 0.7
Mode: 1
LetterboxInBreaks: 0
WidescreenStoryboard: 0

[Editor]
DistanceSpacing: 2
BeatDivisor: 4
GridSize: 32
TimelineZoom: 1.7

[Metadata]
Title:DARAKENA (TV-size)
TitleUnicode:DARAKENA~TVサイズ
Artist:Nomizu Iori
ArtistUnicode:野水いおり
Creator:Nofool
Version:Kantan
Source:棺姫のチャイカ
Tags:Hitsugi no Chaika Nardoxyribonucleic 伊織
BeatmapID:454924
BeatmapSetID:191079

[Difficulty]
HPDrainRate:4
CircleSize:5
OverallDifficulty:3
ApproachRate:5
SliderMultiplier:1.4
SliderTickRate:1

[Events]
//Background and Video events
0,0,"Toru_Chaika.jpg",0,118
//Break Periods
//Storyboard Layer 0 (Background)
//Storyboard Layer 1 (Fail)
//Storyboard Layer 2 (Pass)
//Storyboard Layer 3 (Foreground)
//Storyboard Sound Samples

[TimingPoints]
940,338.983050847458,4,1,0,60,1,0
940,-100,4,1,0,40,0,0
9075,-100,4,1,0,50,0,0
10770,-100,4,1,0,60,0,0
11448,-100,4,1,0,70,0,0
12126,-100,4,1,0,80,0,0
12465,338.983050847458,4,1,0,80,1,0
23312,-100,4,1,0,60,0,0
28736,-100,4,1,0,80,0,0
34159,-100,4,1,0,60,0,0
39583,-100,4,1,0,80,0,0
45007,338.983050847458,3,1,0,80,1,0
49074,-100,3,1,0,60,0,0
53142,-100,3,1,0,80,0,0
64329,338.983050847458,4,1,0,80,1,1
72464,-100,4,1,0,80,0,0
75176,-100,4,1,0,80,0,1
88735,-100,4,1,0,80,0,0

[Colours]
Combo1 : 18,124,255
Combo2 : 255,0,0

[HitObjects]
256,192,940,5,8,0:0:0:0:
256,192,2295,1,8,0:0:0:0:
256,192,3651,1,8,0:0:0:0:
256,192,5007,1,8,0:0:0:0:
256,192,6363,1,8,0:0:0:0:
256,192,7719,1,8,0:0:0:0:
256,192,9075,1,8,0:0:0:0:
256,192,9584,1,8,0:0:0:0:
256,192,10092,1,8,0:0:0:0:
256,192,10431,12,0,12126,0:0:0:0:
256,192,12465,5,4,0:0:0:0:
256,192,13481,1,8,0:0:0:0:
256,192,13820,1,0,0:0:0:0:
256,192,14498,1,8,0:0:0:0:
256,192,15176,1,0,0:0:0:0:
256,192,16193,1,8,0:0:0:0:
256,192,16532,1,0,0:0:0:0:
256,192,17210,1,8,0:0:0:0:
256,192,17888,1,0,0:0:0:0:
256,192,18397,1,8,0:0:0:0:
256,192,19244,1,0,0:0:0:0:
256,192,19753,1,8,0:0:0:0:
256,192,20600,1,0,0:0:0:0:
256,192,21109,1,8,0:0:0:0:
256,192,21956,1,8,0:0:0:0:
256,192,22295,1,0,0:0:0:0:
256,192,22634,1,8,0:0:0:0:
256,192,23312,1,0,0:0:0:0:
256,192,23651,1,8,0:0:0:0:
256,192,24329,1,8,0:0:0:0:
256,192,25007,1,8,0:0:0:0:
256,192,25685,1,8,0:0:0:0:
256,192,26024,1,0,0:0:0:0:
256,192,26363,1,8,0:0:0:0:
256,192,27041,1,8,0:0:0:0:
256,192,27380,1,0,0:0:0:0:
256,192,27719,1,8,0:0:0:0:
256,192,28058,1,0,0:0:0:0:
256,192,28736,1,0,0:0:0:0:
256,192,29244,1,8,0:0:0:0:
256,192,30600,1,8,0:0:0:0:
256,192,31956,1,8,0:0:0:0:
256,192,32803,1,0,0:0:0:0:
256,192,33142,1,0,0:0:0:0:
256,192,33481,1,8,0:0:0:0:
256,192,34159,1,0,0:0:0:0:
256,192,34498,1,8,0:0:0:0:
256,192,35176,1,8,0:0:0:0:
256,192,35854,1,8,0:0:0:0:
256,192,36532,1,8,0:0:0:0:
256,192,36871,1,0,0:0:0:0:
256,192,37210,1,8,0:0:0:0:
256,192,37888,1,8,0:0:0:0:
256,192,38227,1,0,0:0:0:0:
256,192,38566,1,8,0:0:0:0:
256,192,38905,1,0,0:0:0:0:
256,192,39583,1,0,0:0:0:0:
256,192,40092,1,8,0:0:0:0:
256,192,41448,1,8,0:0:0:0:
256,192,42803,1,8,0:0:0:0:
256,192,43651,1,0,0:0:0:0:
256,192,43990,1,0,0:0:0:0:
256,192,44329,1,8,0:0:0:0:
256,192,45007,1,0,0:0:0:0:
256,192,45515,1,0,0:0:0:0:
256,192,46023,1,0,0:0:0:0:
256,192,47040,1,0,0:0:0:0:
256,192,47549,1,0,0:0:0:0:
256,192,48057,1,0,0:0:0:0:
256,192,49074,1,0,0:0:0:0:
256,192,50091,1,0,0:0:0:0:
256,192,51108,1,0,0:0:0:0:
256,192,51617,1,0,0:0:0:0:
256,192,52125,1,0,0:0:0:0:
256,192,53142,1,0,0:0:0:0:
256,192,53651,1,0,0:0:0:0:
256,192,54159,1,0,0:0:0:0:
256,192,55176,1,0,0:0:0:0:
256,192,55684,1,0,0:0:0:0:
256,192,56193,1,0,0:0:0:0:
256,192,57210,1,0,0:0:0:0:
256,192,58227,1,8,0:0:0:0:
256,192,59244,1,12,0:0:0:0:
256,192,59752,1,12,0:0:0:0:
256,192,60261,12,0,62125,0:0:0:0:
256,192,63651,5,0,0:0:0:0:
256,192,64329,1,4,0:0:0:0:
256,192,64667,1,8,0:0:0:0:
256,192,65345,1,8,0:0:0:0:
256,192,65684,1,0,0:0:0:0:
256,192,66023,1,8,0:0:0:0:
256,192,66701,1,8,0:0:0:0:
256,192,67040,1,0,0:0:0:0:
256,192,67379,1,8,0:0:0:0:
256,192,68057,1,8,0:0:0:0:
256,192,68396,1,0,0:0:0:0:
256,192,69074,1,0,0:0:0:0:
256,192,69752,1,0,0:0:0:0:
256,192,71108,1,0,0:0:0:0:
256,192,71786,1,8,0:0:0:0:
256,192,72464,1,4,0:0:0:0:
256,192,73481,1,4,0:0:0:0:
256,192,74159,1,12,0:0:0:0:
256,192,74498,1,12,0:0:0:0:
256,192,75176,1,0,0:0:0:0:
256,192,75515,1,8,0:0:0:0:
256,192,76193,1,8,0:0:0:0:
256,192,76532,1,0,0:0:0:0:
256,192,76871,1,8,0:0:0:0:
256,192,77549,1,8,0:0:0:0:
256,192,77888,1,0,0:0:0:0:
256,192,78227,1,8,0:0:0:0:
256,192,78905,1,8,0:0:0:0:
256,192,79244,1,0,0:0:0:0:
256,192,79583,1,8,0:0:0:0:
256,192,79922,1,0,0:0:0:0:
256,192,80600,1,0,0:0:0:0:
256,192,81956,1,0,0:0:0:0:
256,192,82634,1,8,0:0:0:0:
256,192,83312,12,0,85345,0:0:0:0:
256,192,86023,5,4,0:0:0:0:
256,192,86701,1,8,0:0:0:0:
256,192,87379,1,4,0:0:0:0:
256,192,88057,1,8,0:0:0:0:
256,192,88735,1,12,0:0:0:0:
