osu file format v14

[General]
AudioFilename: Nomizu_Iori-DARAKENA_TV_Size_.mp3
AudioLeadIn: 0
PreviewTime: 64244
Countdown: 1
SampleSet: Normal
StackLeniency: 0.7
Mode: 1
LetterboxInBreaks: 1
WidescreenStoryboard: 1

[Editor]
DistanceSpacing: 2
BeatDivisor: 4
GridSize: 32
TimelineZoom: 2.4

[Metadata]
Title:DARAKENA (TV size)
TitleUnicode:DARAKENA (TV size)
Artist:Nomizu Iori
ArtistUnicode:Nomizu Iori
Creator:ll-oscar
Version:Oni
Source:棺姫のチャイカ
Tags:Hitsugi no Chaika
BeatmapID:745786
BeatmapSetID:337040

[Difficulty]
HPDrainRate:5
CircleSize:5
OverallDifficulty:5
ApproachRate:5
SliderMultiplier:1.4
SliderTickRate:1

[Events]
//Background and Video events
0,0,"hGY4chn.jpg",0,100
//Break Periods
//Storyboard Layer 0 (Background)
//Storyboard Layer 1 (Fail)
//Storyboard Layer 2 (Pass)
//Storyboard Layer 3 (Foreground)
//Storyboard Sound Samples

[TimingPoints]
943,338.983050847458,4,1,0,50,1,0
12468,338.983050847458,4,1,0,80,1,0
23315,-100,4,1,0,70,0,0
45010,338.983050847458,3,1,0,75,1,0
60433,-100,3,1,0,50,0,0
62467,-100,3,1,0,75,0,0
64332,338.983050847458,4,1,0,85,1,1
72467,-100,4,1,0,85,0,0
75179,-100,4,1,0,85,0,1
88738,-100,4,1,0,85,0,0

[HitObjects]
256,192,943,5,8,0:0:0:0:
224,192,1281,1,0,0:0:0:0:
256,192,1451,1,8,0:0:0:0:
256,192,1790,1,8,0:0:0:0:
256,192,1959,1,8,0:0:0:0:
256,192,2129,1,8,0:0:0:0:
256,192,2298,1,0,0:0:0:0:
256,192,2637,1,0,0:0:0:0:
256,192,2807,1,0,0:0:0:0:
256,192,3146,1,8,0:0:0:0:
256,192,3315,1,0,0:0:0:0:
256,224,3485,1,0,0:0:0:0:
256,192,3654,1,8,0:0:0:0:
256,192,3993,1,0,0:0:0:0:
256,192,4163,1,8,0:0:0:0:
256,192,4502,1,0,0:0:0:0:
256,192,4671,1,8,0:0:0:0:
288,186,4841,1,0,0:0:0:0:
256,192,5010,1,8,0:0:0:0:
256,192,5265,1,8,0:0:0:0:
256,192,5519,1,0,0:0:0:0:
256,192,6366,1,0,0:0:0:0:
256,192,7044,1,0,0:0:0:0:
256,192,7722,1,8,0:0:0:0:
256,192,8400,1,0,0:0:0:0:
256,192,9078,1,8,0:0:0:0:
256,192,9248,1,8,0:0:0:0:
256,192,9417,1,0,0:0:0:0:
256,192,9587,1,8,0:0:0:0:
256,192,9756,1,8,0:0:0:0:
256,192,9926,1,0,0:0:0:0:
256,192,10095,1,8,0:0:0:0:
256,192,10434,12,0,12129,0:0:0:0:
256,192,12468,5,4,0:0:0:0:
256,192,12637,1,0,0:0:0:0:
256,192,12806,1,0,0:0:0:0:
256,192,12976,1,8,0:0:0:0:
256,192,13315,1,0,0:0:0:0:
256,192,13484,1,8,0:0:0:0:
256,192,13823,1,0,0:0:0:0:
288,192,13993,1,0,0:0:0:0:
256,192,14162,1,0,0:0:0:0:
256,192,14332,1,8,0:0:0:0:
256,192,14501,1,0,0:0:0:0:
256,192,14671,1,0,0:0:0:0:
256,192,14840,1,8,0:0:0:0:
256,192,15179,1,0,0:0:0:0:
256,192,15349,1,0,0:0:0:0:
256,192,15518,1,0,0:0:0:0:
256,192,15688,1,8,0:0:0:0:
224,160,16027,1,0,0:0:0:0:
256,192,16196,1,8,0:0:0:0:
256,192,16535,1,0,0:0:0:0:
256,192,16705,1,0,0:0:0:0:
256,192,16874,1,0,0:0:0:0:
256,192,17044,1,8,0:0:0:0:
256,192,17213,1,0,0:0:0:0:
224,192,17298,1,0,0:0:0:0:
256,192,17383,1,0,0:0:0:0:
256,192,17552,1,8,0:0:0:0:
244,202,17891,1,0,0:0:0:0:
256,192,18061,1,0,0:0:0:0:
247,197,18230,1,0,0:0:0:0:
256,192,18400,1,12,0:0:0:0:
247,197,18569,1,8,0:0:0:0:
224,192,18654,1,8,0:0:0:0:
247,197,18739,1,0,0:0:0:0:
247,197,18908,1,8,0:0:0:0:
251,203,19247,1,0,0:0:0:0:
251,203,19417,1,0,0:0:0:0:
251,203,19586,1,0,0:0:0:0:
251,203,19756,1,12,0:0:0:0:
251,203,19925,1,8,0:0:0:0:
256,192,20010,1,8,0:0:0:0:
251,203,20095,1,0,0:0:0:0:
251,203,20264,1,8,0:0:0:0:
251,203,20603,1,0,0:0:0:0:
251,203,20773,1,0,0:0:0:0:
251,203,20942,1,0,0:0:0:0:
251,203,21112,1,12,0:0:0:0:
251,203,21281,1,8,0:0:0:0:
251,203,21366,1,8,0:0:0:0:
251,203,21451,1,0,0:0:0:0:
251,203,21620,1,8,0:0:0:0:
240,197,21959,1,0,0:0:0:0:
240,197,22044,1,0,0:0:0:0:
240,197,22129,1,0,0:0:0:0:
256,192,22298,1,8,0:0:0:0:
240,197,22468,1,0,0:0:0:0:
251,203,22637,1,8,0:0:0:0:
240,197,22722,1,8,0:0:0:0:
240,197,22806,1,8,0:0:0:0:
251,203,22976,1,0,0:0:0:0:
240,197,23315,1,4,0:0:0:0:
269,207,23654,1,8,0:0:0:0:
230,188,23993,1,0,0:0:0:0:
230,188,24162,1,8,0:0:0:0:
230,188,24501,1,8,0:0:0:0:
230,188,24840,1,0,0:0:0:0:
230,188,25010,1,8,0:0:0:0:
230,188,25179,1,8,0:0:0:0:
230,188,25349,1,0,0:0:0:0:
230,188,25688,1,8,0:0:0:0:
230,188,25857,1,8,0:0:0:0:
192,192,26027,1,0,0:0:0:0:
192,192,26366,1,8,0:0:0:0:
256,192,26874,1,0,0:0:0:0:
256,192,27044,1,0,0:0:0:0:
230,188,27213,1,8,0:0:0:0:
230,188,27383,1,0,0:0:0:0:
230,188,27552,1,8,0:0:0:0:
230,188,27722,1,0,0:0:0:0:
230,188,27891,1,0,0:0:0:0:
230,188,28061,1,8,0:0:0:0:
230,188,28400,1,0,0:0:0:0:
230,188,28569,1,8,0:0:0:0:
230,188,28739,1,0,0:0:0:0:
192,160,28823,1,0,0:0:0:0:
224,192,28908,1,0,0:0:0:0:
224,192,29078,1,0,0:0:0:0:
224,192,29247,1,12,0:0:0:0:
224,192,29586,1,0,0:0:0:0:
224,192,29756,1,8,0:0:0:0:
224,192,30095,1,0,0:0:0:0:
256,192,30179,1,0,0:0:0:0:
256,192,30264,1,0,0:0:0:0:
224,192,30434,1,0,0:0:0:0:
224,192,30603,1,12,0:0:0:0:
224,192,30942,1,0,0:0:0:0:
224,192,31112,1,8,0:0:0:0:
224,192,31451,1,0,0:0:0:0:
224,192,31535,1,0,0:0:0:0:
224,192,31620,1,0,0:0:0:0:
224,192,31790,1,0,0:0:0:0:
224,192,31959,1,12,0:0:0:0:
224,192,32298,1,0,0:0:0:0:
224,192,32468,1,8,0:0:0:0:
224,192,32806,1,0,0:0:0:0:
224,192,32891,1,0,0:0:0:0:
224,192,32976,1,0,0:0:0:0:
224,192,33145,1,8,0:0:0:0:
224,192,33315,1,0,0:0:0:0:
224,192,33484,1,8,0:0:0:0:
224,192,33569,1,8,0:0:0:0:
224,192,33654,1,0,0:0:0:0:
224,192,33739,1,0,0:0:0:0:
224,192,33823,1,8,0:0:0:0:
224,192,34162,1,4,0:0:0:0:
224,192,34501,1,0,0:0:0:0:
224,160,34840,1,0,0:0:0:0:
224,192,35010,1,8,0:0:0:0:
224,160,35349,1,0,0:0:0:0:
224,160,35688,1,8,0:0:0:0:
224,160,35857,1,8,0:0:0:0:
224,160,36027,1,0,0:0:0:0:
224,160,36196,1,0,0:0:0:0:
224,160,36281,1,0,0:0:0:0:
224,160,36366,1,0,0:0:0:0:
224,160,36535,1,8,0:0:0:0:
224,160,36705,1,8,0:0:0:0:
224,160,36874,1,0,0:0:0:0:
224,160,37213,1,8,0:0:0:0:
192,160,37722,1,0,0:0:0:0:
192,160,37891,1,8,0:0:0:0:
192,160,38061,1,8,0:0:0:0:
192,160,38230,1,0,0:0:0:0:
192,160,38315,1,0,0:0:0:0:
192,160,38400,1,8,0:0:0:0:
192,160,38569,1,8,0:0:0:0:
192,160,38739,1,0,0:0:0:0:
192,160,38908,1,8,0:0:0:0:
192,160,39247,1,0,0:0:0:0:
192,160,39417,1,8,0:0:0:0:
192,160,39586,1,0,0:0:0:0:
192,160,39671,1,0,0:0:0:0:
192,160,39756,1,8,0:0:0:0:
192,160,39925,1,0,0:0:0:0:
192,160,40095,1,12,0:0:0:0:
160,160,40434,1,0,0:0:0:0:
160,160,40603,1,0,0:0:0:0:
160,160,40942,1,0,0:0:0:0:
192,160,41027,1,0,0:0:0:0:
192,160,41112,1,8,0:0:0:0:
160,160,41281,1,0,0:0:0:0:
160,160,41451,1,12,0:0:0:0:
160,160,41790,1,0,0:0:0:0:
160,160,41959,1,0,0:0:0:0:
160,160,42298,1,0,0:0:0:0:
192,160,42383,1,0,0:0:0:0:
192,160,42468,1,8,0:0:0:0:
160,160,42637,1,0,0:0:0:0:
160,160,42806,1,12,0:0:0:0:
160,160,43145,1,0,0:0:0:0:
160,160,43315,1,0,0:0:0:0:
160,160,43484,1,8,0:0:0:0:
160,160,43654,1,8,0:0:0:0:
160,160,43739,1,8,0:0:0:0:
160,160,43823,1,8,0:0:0:0:
160,160,43993,1,0,0:0:0:0:
160,160,44162,1,0,0:0:0:0:
160,160,44332,1,8,0:0:0:0:
160,160,44417,1,8,0:0:0:0:
160,160,44501,1,8,0:0:0:0:
160,160,44586,1,8,0:0:0:0:
160,160,44671,1,0,0:0:0:0:
160,160,45010,1,12,0:0:0:0:
160,160,45348,1,0,0:0:0:0:
160,160,45518,1,12,0:0:0:0:
160,160,45857,1,8,0:0:0:0:
160,160,46026,1,12,0:0:0:0:
160,160,46365,1,8,0:0:0:0:
160,160,46704,1,8,0:0:0:0:
160,160,47043,1,4,0:0:0:0:
160,160,47382,1,8,0:0:0:0:
160,160,47552,1,4,0:0:0:0:
160,160,47891,1,0,0:0:0:0:
160,160,48060,1,4,0:0:0:0:
192,160,48399,1,0,0:0:0:0:
160,160,48738,1,0,0:0:0:0:
160,160,49077,1,8,0:0:0:0:
160,128,49247,1,8,0:0:0:0:
160,160,49416,1,0,0:0:0:0:
160,160,49586,1,8,0:0:0:0:
160,160,49925,1,8,0:0:0:0:
160,160,50094,1,0,0:0:0:0:
160,160,50603,1,8,0:0:0:0:
160,160,51111,1,8,0:0:0:0:
160,160,51450,1,0,0:0:0:0:
160,160,51620,1,8,0:0:0:0:
160,160,51959,1,8,0:0:0:0:
160,160,52128,1,0,0:0:0:0:
160,160,52467,1,0,0:0:0:0:
160,160,52552,1,0,0:0:0:0:
160,160,52637,1,0,0:0:0:0:
160,160,52806,1,8,0:0:0:0:
160,160,53145,1,4,0:0:0:0:
160,160,53484,1,0,0:0:0:0:
160,160,53654,1,12,0:0:0:0:
160,160,53993,1,8,0:0:0:0:
160,160,54162,1,12,0:0:0:0:
160,160,54501,1,8,0:0:0:0:
160,160,54671,1,8,0:0:0:0:
160,160,54840,1,0,0:0:0:0:
160,160,55179,1,12,0:0:0:0:
160,160,55518,1,8,0:0:0:0:
160,160,55687,1,4,0:0:0:0:
160,160,56026,1,0,0:0:0:0:
160,160,56196,1,4,0:0:0:0:
160,160,56535,1,8,0:0:0:0:
160,160,56704,1,0,0:0:0:0:
160,160,56874,1,0,0:0:0:0:
160,160,57213,1,4,0:0:0:0:
160,160,57382,1,0,0:0:0:0:
160,160,57552,1,0,0:0:0:0:
160,160,57721,1,8,0:0:0:0:
160,160,58230,1,12,0:0:0:0:
160,160,58399,1,8,0:0:0:0:
160,160,58569,1,0,0:0:0:0:
160,160,58738,1,8,0:0:0:0:
160,160,59247,1,4,0:0:0:0:
160,160,59416,1,0,0:0:0:0:
128,160,59586,1,0,0:0:0:0:
128,160,59755,1,8,0:0:0:0:
160,160,60094,1,0,0:0:0:0:
160,160,60264,1,8,0:0:0:0:
256,192,60433,12,0,62298,0:0:0:0:
256,192,62467,5,8,0:0:0:0:
256,192,62637,1,8,0:0:0:0:
256,192,62806,1,0,0:0:0:0:
256,192,62976,1,8,0:0:0:0:
256,192,63145,1,0,0:0:0:0:
256,192,63315,1,0,0:0:0:0:
256,192,63484,1,8,0:0:0:0:
256,192,63654,1,4,0:0:0:0:
256,192,63823,1,4,0:0:0:0:
256,192,64332,1,12,0:0:0:0:
256,192,64501,1,0,0:0:0:0:
256,192,64670,1,0,0:0:0:0:
256,192,64755,1,0,0:0:0:0:
256,192,64840,1,8,0:0:0:0:
224,192,65009,1,0,0:0:0:0:
256,192,65179,1,8,0:0:0:0:
256,192,65348,1,8,0:0:0:0:
256,192,65518,1,0,0:0:0:0:
256,192,65687,1,0,0:0:0:0:
256,192,65772,1,0,0:0:0:0:
256,192,65857,1,0,0:0:0:0:
256,192,66026,1,8,0:0:0:0:
256,192,66196,1,0,0:0:0:0:
256,192,66365,1,0,0:0:0:0:
256,192,66535,1,8,0:0:0:0:
256,192,66704,1,0,0:0:0:0:
256,192,66874,1,8,0:0:0:0:
256,192,67043,1,8,0:0:0:0:
256,192,67128,1,8,0:0:0:0:
256,192,67213,1,8,0:0:0:0:
256,192,67382,1,0,0:0:0:0:
256,192,67552,1,8,0:0:0:0:
256,192,67891,1,0,0:0:0:0:
256,192,68060,1,8,0:0:0:0:
256,192,68230,1,0,0:0:0:0:
256,192,68399,1,8,0:0:0:0:
256,192,68484,1,8,0:0:0:0:
256,192,68654,1,8,0:0:0:0:
256,192,68738,1,8,0:0:0:0:
256,192,68908,1,0,0:0:0:0:
224,192,69247,1,0,0:0:0:0:
224,192,69416,1,8,0:0:0:0:
224,192,69586,1,0,0:0:0:0:
256,192,69755,1,0,0:0:0:0:
224,192,69840,1,0,0:0:0:0:
224,224,69925,1,0,0:0:0:0:
224,192,70094,1,8,0:0:0:0:
224,192,70264,1,0,0:0:0:0:
224,192,70433,1,8,0:0:0:0:
224,192,70518,1,0,0:0:0:0:
224,192,70603,1,0,0:0:0:0:
224,192,70772,1,8,0:0:0:0:
256,192,70942,1,0,0:0:0:0:
256,192,71111,1,8,0:0:0:0:
224,192,71196,1,8,0:0:0:0:
224,192,71281,1,0,0:0:0:0:
224,192,71450,1,0,0:0:0:0:
224,192,71620,1,0,0:0:0:0:
256,192,71789,1,8,0:0:0:0:
256,192,71874,1,8,0:0:0:0:
256,192,71959,1,8,0:0:0:0:
224,192,72128,1,0,0:0:0:0:
256,192,72467,1,12,0:0:0:0:
256,192,72637,1,12,0:0:0:0:
256,192,72806,1,4,0:0:0:0:
256,192,72976,1,12,0:0:0:0:
256,192,73145,1,12,0:0:0:0:
256,192,73315,1,4,0:0:0:0:
256,192,73484,1,12,0:0:0:0:
224,192,74162,1,8,0:0:0:0:
224,192,74501,1,0,0:0:0:0:
224,192,74840,1,8,0:0:0:0:
224,192,75179,1,12,0:0:0:0:
224,192,75348,1,0,0:0:0:0:
224,192,75518,1,8,0:0:0:0:
224,192,75603,1,0,0:0:0:0:
224,192,75687,1,8,0:0:0:0:
192,192,75857,1,0,0:0:0:0:
224,192,76026,1,8,0:0:0:0:
224,192,76196,1,0,0:0:0:0:
224,192,76365,1,0,0:0:0:0:
224,192,76535,1,8,0:0:0:0:
224,192,76620,1,8,0:0:0:0:
224,192,76704,1,8,0:0:0:0:
224,192,76874,1,8,0:0:0:0:
224,192,77043,1,0,0:0:0:0:
192,192,77213,1,0,0:0:0:0:
224,192,77382,1,8,0:0:0:0:
224,192,77552,1,0,0:0:0:0:
224,192,77721,1,8,0:0:0:0:
224,192,77891,1,8,0:0:0:0:
224,192,77976,1,8,0:0:0:0:
224,192,78060,1,0,0:0:0:0:
224,192,78230,1,0,0:0:0:0:
224,192,78399,1,8,0:0:0:0:
224,192,78738,1,12,0:0:0:0:
224,192,79077,1,0,0:0:0:0:
224,192,79247,1,8,0:0:0:0:
224,192,79332,1,8,0:0:0:0:
224,192,79501,1,8,0:0:0:0:
224,192,79586,1,8,0:0:0:0:
224,192,79755,1,0,0:0:0:0:
224,192,79925,1,0,0:0:0:0:
224,192,80009,1,0,0:0:0:0:
224,192,80094,1,0,0:0:0:0:
224,192,80264,1,8,0:0:0:0:
224,192,80603,1,8,0:0:0:0:
256,192,80687,1,8,0:0:0:0:
224,192,80772,1,0,0:0:0:0:
224,192,80942,1,0,0:0:0:0:
224,192,81111,1,8,0:0:0:0:
224,192,81281,1,8,0:0:0:0:
224,192,81365,1,8,0:0:0:0:
224,192,81450,1,8,0:0:0:0:
224,192,81620,1,0,0:0:0:0:
192,192,81789,1,8,0:0:0:0:
224,192,81959,1,0,0:0:0:0:
224,192,82043,1,0,0:0:0:0:
224,192,82128,1,8,0:0:0:0:
224,192,82298,1,0,0:0:0:0:
224,192,82467,1,8,0:0:0:0:
224,192,82637,1,8,0:0:0:0:
224,192,82721,1,8,0:0:0:0:
224,192,82806,1,8,0:0:0:0:
224,192,82976,1,0,0:0:0:0:
224,192,83315,1,8,0:0:0:0:
224,192,83399,1,8,0:0:0:0:
224,192,83484,1,8,0:0:0:0:
224,192,83654,1,0,0:0:0:0:
224,192,83823,1,8,0:0:0:0:
224,192,83993,1,0,0:0:0:0:
224,192,84077,1,0,0:0:0:0:
224,192,84162,1,0,0:0:0:0:
224,192,84332,1,0,0:0:0:0:
192,192,84501,1,8,0:0:0:0:
224,192,84670,1,0,0:0:0:0:
224,192,84755,1,0,0:0:0:0:
224,192,84840,1,8,0:0:0:0:
224,192,85009,1,0,0:0:0:0:
224,192,85179,1,8,0:0:0:0:
224,192,85348,1,8,0:0:0:0:
224,192,85433,1,8,0:0:0:0:
224,192,85518,1,0,0:0:0:0:
224,192,85687,1,8,0:0:0:0:
224,192,86026,1,8,0:0:0:0:
224,192,86196,1,0,0:0:0:0:
224,192,86365,1,8,0:0:0:0:
224,192,86535,1,0,0:0:0:0:
224,192,86704,1,8,0:0:0:0:
224,192,86874,1,0,0:0:0:0:
224,192,87043,1,8,0:0:0:0:
224,192,87213,1,0,0:0:0:0:
224,192,87382,1,0,0:0:0:0:
224,192,87467,1,0,0:0:0:0:
224,192,87552,1,0,0:0:0:0:
256,224,87637,1,0,0:0:0:0:
224,192,87721,1,0,0:0:0:0:
224,192,87891,1,0,0:0:0:0:
224,192,88060,1,8,0:0:0:0:
224,192,88145,1,8,0:0:0:0:
224,192,88230,1,8,0:0:0:0:
224,192,88315,1,8,0:0:0:0:
224,192,88399,1,8,0:0:0:0:
224,192,88569,1,8,0:0:0:0:
224,192,88738,1,4,0:0:0:0:
