osu file format v12

[General]
AudioFilename: Black White.mp3
AudioLeadIn: 2000
PreviewTime: 64011
Countdown: 0
SampleSet: Normal
StackLeniency: 0.7
Mode: 0
LetterboxInBreaks: 1

[Editor]
DistanceSpacing: 1.5
BeatDivisor: 4
GridSize: 8

[Metadata]
Title:Black White (TV Size)
TitleUnicode:Black White (TV Size)
Artist:Nomizu Iori
ArtistUnicode:野水いおり
Creator:Grassvalley
Version:Hard
Source:mondaiji tachi ga isekai kara kuru sou desu yo
Tags:
BeatmapID:220241
BeatmapSetID:74565

[Difficulty]
HPDrainRate:5
CircleSize:4
OverallDifficulty:5
ApproachRate:8
SliderMultiplier:1.4
SliderTickRate:1

[Events]
//Background and Video events
Video,0,"Iori Nomizu - Black + White.flv"
0,0,"bg.jpg",1,1
//Break Periods
//Storyboard Layer 0 (Background)
//Storyboard Layer 1 (Fail)
//Storyboard Layer 2 (Pass)
//Storyboard Layer 3 (Foreground)
//Storyboard Sound Samples
//Background Colour Transformations
3,100,163,162,255

[TimingPoints]
213,312.5,4,1,0,60,1,0
213,-200,4,2,0,30,0,0
11150,-100,4,1,0,60,0,0
14900,-200,4,1,0,60,0,0
15525,-100,4,1,0,60,0,0
19900,-200,4,2,0,60,0,0
20681,-100,4,2,0,60,0,0
22088,-100,4,2,0,90,0,0
23025,-100,4,1,0,60,0,0
41619,-100,4,2,0,60,0,0
55603,-100,4,2,0,5,0,0
55681,-100,4,2,0,60,0,0
56072,-100,4,2,0,5,0,0
56150,-100,4,2,0,60,0,0
58963,-100,4,2,0,60,0,0
61619,-100,4,1,0,60,0,0
62713,-100,4,2,0,60,0,0
63963,-100,4,1,0,60,0,1
69900,-100,4,2,0,60,0,1
70213,-100,4,1,0,60,0,1
71306,-100,4,2,0,60,0,1
71463,-100,4,1,0,60,0,1
72478,-100,4,2,0,5,0,1
72556,-100,4,1,0,60,0,1
72791,-100,4,2,0,5,0,1
72869,-100,4,1,0,60,0,1
73103,-100,4,2,0,5,0,1
73181,-100,4,1,0,60,0,1
73416,-100,4,2,0,5,0,1
73494,-100,4,2,0,80,0,1
73963,-100,4,1,0,60,0,1
75369,-100,4,2,0,60,0,1
75525,-80,4,1,0,60,0,1
75681,-80,4,2,0,60,0,1
75838,-66.6666666666667,4,1,0,60,0,1
75994,-100,4,2,0,60,0,1
76150,-100,4,1,0,60,0,1
78494,-100,4,2,0,60,0,1
78650,-100,4,1,0,60,0,1
78806,-100,4,2,0,60,0,1
78963,-100,4,1,0,60,0,1
79119,-100,4,2,0,60,0,1
79275,-100,4,1,0,60,0,1
79431,-100,4,2,0,60,0,1
79588,-100,4,1,0,60,0,1
80056,-100,4,2,0,60,0,1
80213,-100,4,1,0,60,0,1
80681,-100,4,2,0,60,0,1
80838,-100,4,1,0,60,0,1
81306,-100,4,2,0,60,0,1
81463,-100,4,1,0,60,0,1
83022,-66.6666666666667,4,1,0,60,0,1
83181,-66.6666666666667,4,2,0,60,0,1
83338,-66.6666666666667,4,1,0,60,0,1
83494,-66.6666666666667,4,2,0,60,0,1
83650,-66.6666666666667,4,1,0,60,0,1
83806,-66.6666666666667,4,2,0,60,0,1
83963,-66.6666666666667,4,1,0,60,0,0
84119,-100,4,1,0,60,0,0

[Colours]
Combo1 : 255,53,53
Combo2 : 61,181,233
Combo3 : 255,255,176

[HitObjects]
456,312,213,2,0,B|304:320|400:208|224:248,1,245,2|0,0:0|0:0,0:0:0:0:
184,248,1463,2,0,P|72:224|56:128,1,210,2|2,0:0|0:0,0:0:0:0:
152,160,2713,1,2,0:0:0:0:
232,96,3025,1,2,0:0:0:0:
312,160,3338,2,0,P|376:216|360:264,2,140,2|0|0,0:0|0:0|0:0,0:0:0:0:
104,192,5213,6,0,L|392:192,2,280
104,192,8338,1,0,0:0:0:0:
256,192,8494,12,2,10682,0:0:0:0:
256,192,11150,5,4,0:0:0:0:
144,280,11463,2,0,L|64:328,2,70
216,280,11931,2,0,L|296:328,2,70
216,208,12400,2,0,L|296:160,2,70
144,208,12869,2,0,L|64:160,2,70
176,144,13338,5,0,0:0:0:0:
216,88,13494,1,0,0:0:0:0:
280,56,13650,1,0,0:0:0:0:
352,48,13806,1,0,0:0:0:0:
352,120,13963,2,0,P|384:192|352:240,1,140
312,296,14431,2,0,P|280:224|312:176,1,140
352,120,14900,2,0,P|384:192|352:240,1,140
224,192,15838,5,4,0:0:0:0:
224,192,16150,1,4,0:0:0:0:
352,96,16463,5,0,0:0:0:0:
352,96,16619,2,0,L|416:32,1,70
352,176,16931,5,0,0:0:0:0:
352,176,17087,2,0,L|416:240,1,70
272,176,17400,5,0,0:0:0:0:
272,176,17556,2,0,L|208:240,1,70
272,96,17869,5,0,0:0:0:0:
272,96,18025,2,0,L|208:32,1,70
88,72,18338,1,0,0:0:0:0:
96,80,18494,1,0,0:0:0:0:
88,88,18650,1,0,0:0:0:0:
80,80,18806,1,0,0:0:0:0:
168,192,18963,5,0,0:0:0:0:
184,192,19041,1,0,0:0:0:0:
200,192,19119,1,0,0:0:0:0:
216,192,19197,1,0,0:0:0:0:
232,192,19275,1,0,0:0:0:0:
272,192,19431,2,0,L|312:192,4,35
344,192,19900,6,0,P|344:280|272:320,1,175,0|0,0:0|0:0,0:0:0:0:
208,320,20838,2,0,L|160:320,12,35
144,192,22088,1,4,0:0:0:0:
144,192,22400,1,4,0:0:0:0:
400,296,23025,6,0,P|456:248|440:168,1,140
424,120,23494,1,0,0:0:0:0:
360,152,23650,2,0,P|304:200|320:280,2,140
424,120,24431,2,0,B|368:48|368:48|248:48|248:48|168:96,1,280
128,112,25213,5,8,0:0:0:0:
128,112,25369,1,8,0:0:0:0:
128,112,25525,2,0,P|72:168|112:232,2,140
256,176,26463,2,0,P|256:256|200:288,1,140
192,216,26931,1,0,0:0:0:0:
192,216,27088,2,0,P|192:136|248:104,1,140
424,192,27713,6,0,L|472:256,1,70,8|8,0:0|0:0,0:0:0:0:
400,280,28025,2,0,L|448:344,1,70,0|8,0:0|0:0,0:0:0:0:
442,336,28338,1,0,0:0:0:0:
304,296,28650,2,0,P|240:280|224:208,2,140
304,224,29431,2,0,P|392:152|336:72,1,210
216,48,30213,6,0,L|136:112,1,70
104,280,30681,2,0,L|184:216,1,70
352,240,31150,2,0,L|272:304,1,70
264,88,31619,5,0,0:0:0:0:
232,88,31697,1,0,0:0:0:0:
200,88,31775,1,0,0:0:0:0:
120,144,31931,2,0,L|40:192,1,70
176,224,32244,2,0,L|136:304,1,70
272,264,32556,2,0,L|272:352,1,70
408,312,33025,6,0,L|472:248,1,70
456,264,33338,2,0,L|392:200,1,70
408,216,33650,2,0,L|472:152,1,70
456,168,33963,2,0,L|392:104,1,70
408,120,34275,2,0,L|472:56,1,70
392,40,34588,1,0,0:0:0:0:
256,80,34900,1,0,0:0:0:0:
120,40,35213,1,0,0:0:0:0:
168,248,35525,5,0,0:0:0:0:
248,184,35681,1,0,0:0:0:0:
272,288,35838,1,0,0:0:0:0:
352,216,35994,1,0,0:0:0:0:
384,320,36150,2,0,P|448:264|448:192,2,140
312,320,36931,2,0,B|208:320|208:320|192:256|192:256|64:256,1,280
80,328,37713,1,0,0:0:0:0:
80,328,37869,1,0,0:0:0:0:
80,192,38025,6,0,P|72:120|152:80,1,140
168,152,38494,1,0,0:0:0:0:
224,88,38650,2,0,P|264:152|232:224,1,140
208,288,39119,2,0,P|272:320|352:312,1,140
408,272,39588,2,0,P|384:192|416:136,1,140
200,64,40213,5,0,0:0:0:0:
200,64,40369,1,0,0:0:0:0:
128,280,40681,1,0,0:0:0:0:
128,280,40838,1,0,0:0:0:0:
344,208,41150,1,0,0:0:0:0:
344,208,41306,1,0,0:0:0:0:
416,56,41619,6,2,P|407:95|375:119,1,70,2|2,0:0|0:0,0:0:0:0:
304,104,41931,2,2,P|272:136|272:160,1,70,2|2,0:0|0:0,0:0:0:0:
344,200,42244,2,2,P|336:240|304:264,1,70,2|2,0:0|0:0,0:0:0:0:
232,240,42556,2,2,P|200:272|200:296,1,70,2|0,0:0|0:0,0:0:0:0:
120,320,42869,1,0,0:0:0:0:
64,256,43025,1,0,0:0:0:0:
112,192,43181,1,0,0:0:0:0:
88,112,43338,1,0,0:0:0:0:
248,72,43650,6,0,P|400:104|432:216,1,280,2|8,0:0|0:0,0:0:0:0:
360,256,44431,1,0,0:0:0:0:
304,320,44588,2,0,P|208:328|152:288,1,140,2|8,0:0|0:0,0:0:0:0:
88,328,45056,1,0,0:0:0:0:
48,256,45213,2,0,P|80:176|64:112,1,140,2|8,0:0|0:0,0:0:0:0:
56,40,45681,1,0,0:0:0:0:
136,56,45838,2,0,P|224:72|272:136,1,140,2|8,0:0|0:0,0:0:0:0:
208,264,46463,1,0,0:0:0:0:
256,192,46619,1,0,0:0:0:0:
304,264,46775,1,0,0:0:0:0:
384,112,47088,6,0,P|256:72|152:176,1,280,2|2,0:0|0:0,0:0:0:0:
112,264,47869,2,0,P|192:232|256:240,1,140,0|2,0:0|0:0,0:0:0:0:
240,320,48338,2,0,P|328:328|384:296,1,140,2|2,0:0|0:0,0:0:0:0:
440,152,48963,1,0,0:0:0:0:
416,72,49119,1,0,0:0:0:0:
336,48,49275,1,0,0:0:0:0:
168,64,49588,6,0,B|104:104|104:104|136:168|136:168|80:200|80:200|120:264,1,280,2|2,0:0|0:0,0:0:0:0:
280,208,50525,1,2,0:0:0:0:
360,216,50681,2,0,P|328:152|264:136,1,140,2|0,0:0|0:0,0:0:0:0:
208,192,51150,2,0,P|145:175|113:111,1,140,2|0,0:0|0:0,0:0:0:0:
176,56,51619,1,0,0:0:0:0:
248,96,51775,1,0,0:0:0:0:
408,48,52088,6,4,L|408:216,1,140
344,280,52713,5,0,0:0:0:0:
304,248,52869,1,0,0:0:0:0:
264,208,53025,1,0,0:0:0:0:
224,168,53181,1,0,0:0:0:0:
184,128,53338,1,0,0:0:0:0:
40,216,53650,6,0,P|80:328|232:368,1,280,2|0,0:0|0:0,0:0:0:0:
304,352,54431,1,0,0:0:0:0:
384,320,54588,1,0,0:0:0:0:
448,264,54744,1,0,0:0:0:0:
488,192,54900,1,0,0:0:0:0:
328,232,55213,6,0,P|232:256|160:224,1,175,2|0,0:0|0:0,0:0:0:0:
136,200,55681,2,0,P|112:128|192:40,1,175,2|0,0:0|0:0,0:0:0:0:
200,32,56150,2,0,P|288:48|344:96,1,140,2|0,0:0|0:0,0:0:0:0:
368,152,56619,1,2,0:0:0:0:
368,152,56775,1,2,0:0:0:0:
368,320,57088,6,0,P|272:320|232:288,1,140,2|2,0:0|0:0,0:0:0:0:
88,232,57713,2,0,P|200:160|296:176,2,210,4|4|4,0:0|0:0|0:0,0:0:0:0:
128,72,58963,1,2,0:0:0:0:
200,32,59119,1,2,0:0:0:0:
272,72,59275,1,2,0:0:0:0:
424,136,59588,6,0,P|384:208|424:280,1,140,2|0,0:0|0:0,0:0:0:0:
352,328,60056,1,2,0:0:0:0:
264,328,60213,2,0,P|264:208|176:168,2,210,4|4|4,0:0|0:0|0:0,0:0:0:0:
432,136,61619,6,0,L|432:216,1,70
352,280,61931,2,0,L|352:200,1,70
272,136,62244,2,0,L|272:216,1,70
192,280,62556,2,0,L|192:200,1,70,0|2,0:0|0:0,0:0:0:0:
88,192,62869,5,2,0:0:0:0:
160,144,63025,1,2,0:0:0:0:
88,96,63181,2,2,P|176:48|240:64,1,140
288,96,63650,1,2,0:0:0:0:
360,48,63806,1,2,0:0:0:0:
360,176,63963,5,0,0:0:0:0:
336,256,64119,1,0,0:0:0:0:
272,312,64275,1,0,0:0:0:0:
192,344,64431,2,0,P|120:304|96:240,1,140
112,88,65056,1,0,0:0:0:0:
216,80,65213,6,0,L|312:80,1,70,2|0,0:0|0:0,0:0:0:0:
288,184,65525,2,0,L|192:184,1,70,2|0,0:0|0:0,0:0:0:0:
216,288,65838,2,0,L|296:288,1,70,2|0,0:0|0:0,0:0:0:0:
368,288,66150,1,0,0:0:0:0:
456,96,66463,5,0,0:0:0:0:
384,144,66619,1,0,0:0:0:0:
312,104,66775,1,0,0:0:0:0:
232,128,66931,2,0,P|152:112|88:160,1,140
48,200,67400,1,0,0:0:0:0:
112,256,67556,1,0,0:0:0:0:
192,224,67713,2,0,L|192:296,1,70,2|0,0:0|0:0,0:0:0:0:
272,176,68025,2,0,L|272:248,1,70,2|0,0:0|0:0,0:0:0:0:
360,136,68338,2,0,L|360:216,1,70,2|0,0:0|0:0,0:0:0:0:
360,288,68650,1,0,0:0:0:0:
192,312,68963,6,0,P|144:288|120:256,1,70
72,216,69275,1,0,0:0:0:0:
136,160,69431,2,0,P|120:120|88:96,1,70
160,48,69744,1,0,0:0:0:0:
232,88,69900,2,0,P|312:112|384:88,1,140
424,160,70369,5,0,0:0:0:0:
368,224,70525,2,0,P|352:264|320:288,2,70
296,184,70994,2,0,P|224:152|144:176,1,140
128,240,71463,5,0,0:0:0:0:
160,320,71619,2,0,P|200:296|248:296,1,70
304,312,71931,1,0,0:0:0:0:
384,344,72088,1,0,0:0:0:0:
432,272,72244,2,0,P|448:192|416:152,1,105
424,136,72556,2,0,P|392:96|320:80,1,105
304,72,72869,2,0,P|240:80|192:112,1,105
192,136,73181,2,0,P|176:176|184:240,1,105
224,240,73494,2,0,L|264:240,4,35
168,304,73963,5,0,0:0:0:0:
88,280,74119,1,0,0:0:0:0:
40,208,74275,1,0,0:0:0:0:
56,128,74431,2,0,P|112:72|184:72,1,140
152,152,74900,1,0,0:0:0:0:
152,152,75056,1,0,0:0:0:0:
256,152,75213,6,0,L|344:152,1,70,2|0,0:0|0:0,0:0:0:0:
256,232,75525,2,0,L|352:232,1,87.5,2|0,0:0|0:0,0:0:0:0:
256,312,75838,2,0,L|376:312,1,105.000004005432,2|0,0:0|0:0,0:0:0:0:
448,312,76150,1,0,0:0:0:0:
312,152,76463,5,0,0:0:0:0:
248,96,76619,1,0,0:0:0:0:
168,72,76775,1,0,0:0:0:0:
88,104,76931,2,0,P|104:152|88:240,2,140
168,72,77713,1,4,0:0:0:0:
456,248,78338,6,0,P|424:208|400:200,1,70,0|0,0:0|0:0,0:0:0:0:
320,256,78650,2,0,P|256:232|248:208,1,70,0|0,0:0|0:0,0:0:0:0:
296,136,78963,2,0,P|256:112|216:112,1,70,0|0,0:0|0:0,0:0:0:0:
152,176,79275,2,0,P|96:136|96:112,1,70,0|0,0:0|0:0,0:0:0:0:
160,56,79588,6,0,P|216:32|304:32,1,140
368,64,80056,1,0,0:0:0:0:
424,128,80213,2,0,P|352:152|272:120,1,140
208,152,80681,1,0,0:0:0:0:
128,120,80838,2,0,P|88:192|96:272,1,140
144,312,81306,1,0,0:0:0:0:
232,304,81463,2,0,P|248:216|360:160,2,210
392,248,82713,1,0,0:0:0:0:
352,40,83025,6,0,L|280:128,1,105.000004005432,2|0,0:0|0:0,0:0:0:0:
136,80,83338,2,0,L|240:152,1,105.000004005432,2|0,0:0|0:0,0:0:0:0:
160,280,83650,2,0,L|232:192,1,105.000004005432,2|0,0:0|0:0,0:0:0:0:
376,240,83963,2,0,L|272:168,1,105.000004005432,2|0,0:0|0:0,0:0:0:0:
216,136,84275,5,0,0:0:0:0:
216,136,84431,1,0,0:0:0:0:
112,136,84588,2,0,L|32:136,2,70
216,136,85056,2,0,L|312:136,2,70
424,136,85681,1,4,0:0:0:0:
