osu file format v12

[General]
AudioFilename: Iori Nozumi -Black + White.mp3
AudioLeadIn: 0
PreviewTime: 62690
Countdown: 0
SampleSet: Soft
StackLeniency: 0.7
Mode: 0
LetterboxInBreaks: 0

[Editor]
DistanceSpacing: 1.1
BeatDivisor: 4
GridSize: 4

[Metadata]
Title:Black + White (TV Size)
TitleUnicode:Black † White (TV Size)
Artist:Nomizu Iori
ArtistUnicode:野水いおり
Creator:Makyu
Version:Black + White
Source:Mondaiji tachi ga Isekai kara Kuru soudesuyo?
Tags:Gero 0gre sakamaki izayoi kudou asuka kasukabe you kuro usagi black rabbit asanuma shintarou nakajima megumi bridcut sarah emi
BeatmapID:220760
BeatmapSetID:79042

[Difficulty]
HPDrainRate:9
CircleSize:4
OverallDifficulty:8
ApproachRate:9
SliderMultiplier:2
SliderTickRate:2

[Events]
//Background and Video events
0,0,"123.png",0,0
//Break Periods
//Storyboard Layer 0 (Background)
//Storyboard Layer 1 (Fail)
//Storyboard Layer 2 (Pass)
//Storyboard Layer 3 (Foreground)
//Storyboard Sound Samples
//Background Colour Transformations
3,100,163,162,255

[TimingPoints]
220,312.5,4,2,1,40,1,0
11157,-100,4,2,1,100,0,0
57095,-100,4,2,1,50,0,0
57720,-100,4,2,1,100,0,0
63970,-83.3333333333333,4,2,1,100,0,1
73188,-83.3333333333333,4,2,1,90,0,0
73970,-83.3333333333333,4,2,1,100,0,1
83970,-100,4,2,1,90,0,0

[Colours]
Combo1 : 169,27,27
Combo2 : 226,197,27
Combo3 : 94,41,201

[HitObjects]
256,192,8345,12,0,10845,0:0:0:0:
256,192,11157,5,8,0:0:0:0:
76,316,11470,6,0,P|32:268|12:200,1,100,4|0,0:0|0:0,0:0:0:0:
41,95,11782,2,0,P|76:128|104:172,1,100,8|0,0:0|0:0,0:0:0:0:
156,272,12095,2,0,P|208:156|144:72,1,200,0|8,0:0|0:0,0:0:0:0:
288,100,12563,5,0,0:0:0:0:
360,184,12720,2,0,P|396:144|404:84,2,100,0|0|8,0:0|0:0|0:0,0:0:0:0:
272,248,13188,1,0,0:0:0:0:
256,356,13345,1,0,0:0:0:0:
364,340,13501,1,0,0:0:0:0:
448,268,13657,2,0,P|392:252|348:260,1,100,8|0,0:0|0:0,0:0:0:0:
448,268,13970,6,0,P|452:168|372:80,1,200,0|8,0:0|0:0,0:0:0:0:
296,40,14438,2,0,P|209:77|79:77,1,200
57,290,14907,2,0,P|81:224|186:156,1,200,8|0,0:0|0:0,0:0:0:0:
191,298,15376,6,0,P|164:348|130:373,1,100,0|8,0:0|0:0,0:0:0:0:
192,299,15688,1,0,0:0:0:0:
272,228,15845,2,0,P|312:136|240:44,1,200,0|8,0:0|0:0,0:0:0:0:
440,192,16470,6,0,P|428:240|372:296,1,100,4|0,0:0|0:0,0:0:0:0:
222,346,16782,2,0,P|248:308|296:264,1,100,8|0,0:0|0:0,0:0:0:0:
340,176,17095,2,0,P|284:92|172:108,1,200,0|8,0:0|0:0,0:0:0:0:
224,200,17563,5,0,0:0:0:0:
116,212,17720,2,0,L|-12:144,2,100,0|0|8,0:0|0:0|0:0,0:0:0:0:
39,290,18188,1,0,0:0:0:0:
131,351,18345,1,0,0:0:0:0:
222,290,18501,1,0,0:0:0:0:
323,247,18657,2,0,P|360:286|383:342,1,100,8|0,0:0|0:0,0:0:0:0:
323,247,18970,6,0,P|410:195|526:225,1,200,4|8,0:0|0:0,0:0:0:0:
503,209,19438,2,0,P|439:114|345:60,1,200,4|8,0:0|0:0,0:0:0:0:
368,68,19907,1,4,0:0:0:0:
256,192,20063,12,4,22095,0:0:0:0:
255,191,22407,5,4,0:0:0:0:
47,117,22720,5,8,0:0:0:0:
126,192,22876,1,8,0:0:0:0:
175,93,23032,2,0,P|227:93|281:121,1,100,0|8,0:0|0:0,0:0:0:0:
372,71,23345,2,0,P|455:115|452:212,1,200,0|0,0:0|0:0,0:0:0:0:
404,308,23813,1,0,0:0:0:0:
342,216,23970,2,0,P|251:264|268:366,2,200
421,140,24751,2,0,P|335:140|292:33,1,200
180,71,25220,5,8,0:0:0:0:
180,71,25376,1,8,0:0:0:0:
199,178,25532,2,0,P|252:155|301:101,1,100,0|8,0:0|0:0,0:0:0:0:
180,71,25845,2,0,P|107:144|111:245,1,200
322,189,26470,2,0,P|277:275|164:349,1,200
148,236,26938,1,0,0:0:0:0:
86,327,27095,2,0,P|34:229|81:150,1,200
285,106,27720,5,8,0:0:0:0:
285,106,27876,1,8,0:0:0:0:
363,182,28032,2,0,L|439:83,2,100,0|8|0,0:0|0:0|0:0,0:0:0:0:
153,113,28657,1,0,0:0:0:0:
254,308,28970,2,0,P|200:250|227:132,1,200
294,57,29438,1,0,0:0:0:0:
471,156,29907,1,8,0:0:0:0:
256,193,30220,6,0,P|134:186|87:260,1,200,4|8,0:0|0:0,0:0:0:0:
256,193,30688,2,0,P|378:200|425:126,1,200,4|8,0:0|0:0,0:0:0:0:
426,256,31157,2,0,P|383:349|266:332,1,200,4|0,0:0|0:0,0:0:0:0:
320,246,31626,5,8,0:0:0:0:
214,276,31782,1,8,0:0:0:0:
214,276,31860,1,0,0:0:0:0:
214,276,31938,1,0,0:0:0:0:
99,263,32095,2,0,P|59:222|28:172,1,100,8|0,0:0|0:0,0:0:0:0:
35,19,32407,2,0,P|71:51|98:96,1,100
178,172,32720,5,8,0:0:0:0:
178,172,32876,1,8,0:0:0:0:
226,73,33032,2,0,P|263:116|299:165,1,100,0|8,0:0|0:0,0:0:0:0:
368,74,33345,2,0,P|390:174|304:253,1,200
224,265,33813,1,0,0:0:0:0:
224,265,33970,2,0,P|275:284|316:333,1,100
200,361,34282,1,0,0:0:0:0:
200,361,34438,2,0,P|130:317|129:209,1,200
196,120,34907,1,0,0:0:0:0:
396,28,35220,5,8,0:0:0:0:
396,28,35376,1,8,0:0:0:0:
468,108,35532,2,0,P|437:157|383:204,1,100,0|8,0:0|0:0,0:0:0:0:
300,168,35845,2,0,P|357:271|462:277,2,200
46,192,36782,1,0,0:0:0:0:
46,192,36938,2,0,P|89:96|201:80,1,200
284,68,37407,1,0,0:0:0:0:
254,278,37720,5,8,0:0:0:0:
254,278,37876,1,8,0:0:0:0:
161,337,38032,2,0,P|113:317|68:263,1,100,0|8,0:0|0:0,0:0:0:0:
174,226,38345,2,0,P|220:148|322:151,1,200
458,342,38970,2,0,P|435:181|320:149,1,300
319,149,39595,1,0,0:0:0:0:
144,285,39907,5,8,0:0:0:0:
340,122,40220,2,0,P|265:70|147:55,1,200,4|8,0:0|0:0,0:0:0:0:
314,342,40688,2,0,P|383:267|408:155,1,200,4|8,0:0|0:0,0:0:0:0:
122,149,41157,2,0,P|162:247|250:311,1,200,4|0,0:0|0:0,0:0:0:0:
125,71,41626,5,8,0:0:0:0:
49,150,41782,1,8,0:0:0:0:
49,150,41860,1,8,0:0:0:0:
49,150,41938,1,8,0:0:0:0:
126,323,42095,2,0,P|87:295|50:260,1,100
206,247,42407,2,0,P|254:277|284:308,1,100,0|0,0:0|0:0,0:0:0:0:
254,147,42720,6,0,P|294:113|372:98,1,100,4|0,0:0|0:0,0:0:0:0:
446,116,43032,1,8,0:0:0:0:
367,192,43188,1,0,0:0:0:0:
444,270,43345,1,0,0:0:0:0:
189,87,43657,2,0,P|167:169|67:207,1,200,8|0,0:0|0:0,0:0:0:0:
302,109,44282,2,0,P|281:211|353:299,1,200,8|0,0:0|0:0,0:0:0:0:
331,286,44907,1,8,0:0:0:0:
254,79,45220,6,0,P|149:100|130:208,1,200,0|8,0:0|0:0,0:0:0:0:
262,304,45688,2,0,P|372:292|399:218,1,200,0|0,0:0|0:0,0:0:0:0:
257,193,46157,2,0,B|86:336,1,200,8|0,0:0|0:0,0:0:0:0:
254,79,46782,1,8,0:0:0:0:
90,223,47095,6,0,P|144:292|257:330,1,200,0|8,0:0|0:0,0:0:0:0:
466,308,47720,2,0,P|398:221|305:191,1,200,4|8,0:0|0:0,0:0:0:0:
46,76,48188,2,0,P|114:163|207:193,1,200,0|0,0:0|0:0,0:0:0:0:
257,361,48657,2,0,L|256:151,1,200,8|0,0:0|0:0,0:0:0:0:
337,365,49282,1,8,0:0:0:0:
422,161,49595,6,0,P|368:92|255:54,1,200,0|8,0:0|0:0,0:0:0:0:
183,258,50220,2,0,P|163:134|93:61,1,200,0|8,0:0|0:0,0:0:0:0:
329,258,50688,2,0,P|349:134|419:61,1,200,0|0,0:0|0:0,0:0:0:0:
421,185,51157,2,0,P|430:300|336:356,1,200,8|0,0:0|0:0,0:0:0:0:
256,161,51782,1,8,0:0:0:0:
139,349,52095,2,0,P|82:300|91:185,1,200,0|8,0:0|0:0,0:0:0:0:
264,46,52720,5,4,0:0:0:0:
197,133,52876,1,0,0:0:0:0:
194,242,53032,1,8,0:0:0:0:
251,335,53188,1,0,0:0:0:0:
362,326,53345,2,0,P|401:282|412:223,1,100
343,175,53657,6,0,P|372:62|459:44,1,200,8|0,0:0|0:0,0:0:0:0:
460,149,54126,2,0,P|471:198|458:265,1,100,0|8,0:0|0:0,0:0:0:0:
358,275,54438,1,0,0:0:0:0:
276,349,54595,1,0,0:0:0:0:
167,331,54751,2,0,P|151:295|91:246,1,100,0|8,0:0|0:0,0:0:0:0:
317,188,55220,6,0,P|422:220|479:312,1,200,0|8,0:0|0:0,0:0:0:0:
195,188,55688,2,0,P|90:220|33:312,1,200
39,290,56157,1,8,0:0:0:0:
166,110,56470,2,0,L|42:68,1,100
76,188,56782,1,8,0:0:0:0:
291,74,57095,5,8,0:0:0:0:
259,179,57251,1,8,0:0:0:0:
322,268,57407,1,8,0:0:0:0:
216,297,57563,1,8,0:0:0:0:
216,297,57720,1,4,0:0:0:0:
44,361,58345,6,0,P|80:315|108:265,1,100,8|0,0:0|0:0,0:0:0:0:
211,269,58657,2,0,P|290:314|421:320,1,200,4|0,0:0|0:0,0:0:0:0:
492,272,59126,1,8,0:0:0:0:
492,272,59282,1,0,0:0:0:0:
232,177,59595,1,8,0:0:0:0:
450,199,59907,2,0,L|490:85,1,100,8|8,0:0|0:0,0:0:0:0:
378,139,60220,6,0,P|342:219|212:238,1,200,4|8,0:0|0:0,0:0:0:0:
44,256,60688,2,0,P|89:156|214:156,1,200,4|8,0:0|0:0,0:0:0:0:
440,44,61157,2,0,P|391:108|278:118,1,200,4|0,0:0|0:0,0:0:0:0:
337,24,61626,5,8,0:0:0:0:
183,70,61782,1,8,0:0:0:0:
183,70,61860,1,8,0:0:0:0:
183,70,61938,2,0,L|178:189,1,100,8|0,0:0|0:0,0:0:0:0:
256,322,62251,2,0,L|291:226,1,100,8|0,0:0|0:0,0:0:0:0:
147,315,62563,1,8,0:0:0:0:
256,192,62720,12,0,63813,0:0:0:0:
86,192,63970,6,0,P|143:168|199:122,1,119.999996337891,4|0,0:0|0:0,0:0:0:0:
308,76,64282,1,8,0:0:0:0:
401,169,64438,2,0,P|333:292|221:320,1,239.999992675781
119,314,64907,1,8,0:0:0:0:
210,213,65063,1,0,0:0:0:0:
153,92,65220,6,0,P|213:117|269:157,1,119.999996337891,0|0,0:0|0:0,0:0:0:0:
202,295,65532,2,0,P|170:239|120:186,1,119.999996337891,8|0,0:0|0:0,0:0:0:0:
299,254,65845,2,0,P|324:306|392:365,1,119.999996337891,0|0,0:0|0:0,0:0:0:0:
500,256,66157,1,8,0:0:0:0:
412,157,66313,1,0,0:0:0:0:
412,157,66470,6,0,P|372:106|299:84,1,119.999996337891
212,158,66782,1,8,0:0:0:0:
88,111,66938,1,0,0:0:0:0:
100,243,67095,2,0,P|75:296|33:349,2,119.999996337891,0|0|8,0:0|0:0|0:0,0:0:0:0:
164,356,67563,1,0,0:0:0:0:
232,245,67720,2,0,P|343:188|340:59,2,239.999992675781,0|8|0,0:0|0:0|0:0,0:0:0:0:
232,245,68657,1,8,0:0:0:0:
436,77,68970,5,4,0:0:0:0:
312,122,69126,1,0,0:0:0:0:
312,122,69204,1,0,0:0:0:0:
312,122,69282,1,8,0:0:0:0:
181,138,69438,2,0,P|202:79|257:35,2,119.999996337891,4|0|0,0:0|0:0|0:0,0:0:0:0:
76,56,69907,1,8,0:0:0:0:
113,315,70220,5,4,0:0:0:0:
237,270,70376,1,0,0:0:0:0:
237,270,70454,1,0,0:0:0:0:
237,270,70532,1,8,0:0:0:0:
368,254,70688,2,0,P|347:313|292:357,2,119.999996337891,4|0|0,0:0|0:0|0:0,0:0:0:0:
407,127,71157,1,8,0:0:0:0:
159,91,71470,6,0,P|98:123|48:177,1,119.999996337891,4|0,0:0|0:0,0:0:0:0:
61,158,71704,1,0,0:0:0:0:
61,158,71782,1,8,0:0:0:0:
188,192,71938,1,4,0:0:0:0:
76,264,72095,1,0,0:0:0:0:
206,281,72251,2,0,P|259:237|270:174,2,119.999996337891,0|8|4,0:0|0:0|0:0,0:0:0:0:
404,106,72876,2,4,P|295:62|145:95,1,239.999992675781
365,263,73501,5,0,0:0:0:0:
267,174,73657,1,8,0:0:0:0:
267,174,73735,1,0,0:0:0:0:
267,174,73813,1,0,0:0:0:0:
184,278,73970,2,0,P|122:234|106:163,1,119.999996337891,4|0,0:0|0:0,0:0:0:0:
107,24,74282,2,0,P|152:50|198:100,1,119.999996337891,8|0,0:0|0:0,0:0:0:0:
330,103,74595,1,0,0:0:0:0:
429,189,74751,1,0,0:0:0:0:
451,59,74907,1,8,0:0:0:0:
451,59,75063,1,0,0:0:0:0:
429,189,75220,6,0,P|390:233|322:264,1,119.999996337891
86,267,75532,2,0,P|125:223|193:192,1,119.999996337891,8|0,0:0|0:0,0:0:0:0:
380,192,75845,2,0,P|341:236|273:267,1,119.999996337891
204,365,76157,1,8,0:0:0:0:
112,118,76470,6,0,P|171:111|241:55,1,119.999996337891,4|0,0:0|0:0,0:0:0:0:
176,202,76782,1,8,0:0:0:0:
299,155,76938,1,0,0:0:0:0:
249,278,77095,2,0,P|209:323|146:352,2,119.999996337891,0|0|8,0:0|0:0|0:0,0:0:0:0:
249,278,77563,1,0,0:0:0:0:
249,278,77720,1,0,0:0:0:0:
256,65,78032,1,8,0:0:0:0:
256,192,78345,12,4,81470,0:0:0:0:
256,54,81782,5,8,0:0:0:0:
256,54,81938,1,4,0:0:0:0:
257,325,82251,1,8,0:0:0:0:
257,325,82407,1,4,0:0:0:0:
226,192,82720,1,8,0:0:0:0:
101,111,83032,6,0,P|124:169|137:247,1,119.999996337891
250,159,83345,1,0,0:0:0:0:
368,217,83501,1,0,0:0:0:0:
371,85,83657,2,0,P|439:103|492:185,1,119.999996337891,8|0,0:0|0:0,0:0:0:0:
468,247,83970,6,0,P|431:284|349:303,1,100,4|8,0:0|0:0,0:0:0:0:
279,323,84282,1,8,0:0:0:0:
169,317,84438,1,4,0:0:0:0:
76,256,84595,2,0,P|125:226|201:215,1,100,8|0,0:0|0:0,0:0:0:0:
272,188,84907,1,4,0:0:0:0:
380,170,85063,1,8,0:0:0:0:
473,111,85220,2,0,P|426:88|369:77,1,100,8|4,0:0|0:0,0:0:0:0:
183,236,85688,1,12,0:0:0:0:
