osu file format v12

[General]
AudioFilename: Black + White.mp3
AudioLeadIn: 0
PreviewTime: 62709
Countdown: 0
SampleSet: Normal
StackLeniency: 0.7
Mode: 0
LetterboxInBreaks: 0
WidescreenStoryboard: 0

[Editor]
Bookmarks: 40209,85834
DistanceSpacing: 1.2
BeatDivisor: 4
GridSize: 4

[Metadata]
Title:Black + White (TV EDIT)
TitleUnicode:Black † White (TV EDIT)
Artist:Nomizu Iori
ArtistUnicode:野水いおり
Creator:Sekai-nyan
Version:Insane
Source:問題児たちが異世界から来るそうですよ?
Tags:Sekai Umi Laurier Natsu opening Mondaiji tachi ga Isekai kara Kuru soudesuyo? Sakamaki Izayoi Kudou Asuka Kasukabe You Kuro Usagi Black Rabbit
BeatmapID:328035
BeatmapSetID:129915

[Difficulty]
HPDrainRate:7
CircleSize:4
OverallDifficulty:8
ApproachRate:9
SliderMultiplier:1.8
SliderTickRate:2

[Events]
//Background and Video events
Video,-320,"Black + White (TV Size).avi"
0,0,"Sekai.jpg",0,0
//Break Periods
//Storyboard Layer 0 (Background)
//Storyboard Layer 1 (Fail)
//Storyboard Layer 2 (Pass)
//Storyboard Layer 3 (Foreground)
//Storyboard Sound Samples
//Background Colour Transformations
3,100,163,162,255

[TimingPoints]
11459,312.5,4,1,1,70,1,0
22709,-133.333333333333,4,2,2,70,0,0
30209,-100,4,2,1,70,0,0
32709,-133.333333333333,4,2,2,70,0,0
40209,-100,4,2,1,70,0,0
41615,-100,4,1,1,70,0,0
42709,-100,4,2,1,70,0,0
62709,-100,4,2,1,50,0,0
63959,-100,4,1,1,70,0,1
72709,-83.3333333333333,4,1,1,70,0,1
73021,-66.6666666666667,4,1,1,70,0,1
73334,-100,4,1,1,70,0,1
82084,-83.3333333333333,4,1,1,70,0,1
82396,-66.6666666666667,4,1,1,70,0,1
82709,-100,4,1,1,70,0,1
83959,-100,4,1,1,70,0,0
85677,-133.333333333333,4,1,1,70,0,0
85834,-100,4,1,1,20,0,0
86146,-100,4,1,1,5,0,0

[Colours]
Combo1 : 255,132,161
Combo2 : 255,231,165
Combo3 : 153,39,64
Combo4 : 253,212,226
Combo5 : 219,207,243
Combo6 : 252,0,138

[HitObjects]
112,320,11146,1,0,0:0:0:0:
112,320,11459,6,0,P|80:272|80:216,1,90,4|2,0:1|0:0,0:0:0:0:
192,192,11771,1,8,0:0:0:0:
400,320,11927,6,0,P|432:272|432:216,1,90,0|2,0:0|0:0,0:0:0:0:
320,192,12239,1,0,0:0:0:0:
112,64,12396,6,0,P|80:112|80:168,1,90,8|2,0:0|0:0,0:0:0:0:
192,192,12708,1,0,0:0:0:0:
400,64,12865,6,0,P|432:112|432:168,1,90,0|10,0:0|0:0,0:0:0:0:
320,192,13177,1,2,0:0:0:0:
256,320,13334,5,0,0:0:0:0:
192,192,13490,2,0,P|144:184|88:208,1,90,2|8,0:0|0:0,0:0:0:0:
320,192,13802,1,2,0:0:0:0:
400,64,13959,6,0,P|440:112|408:232,1,180,6|10,0:0|0:0,0:0:0:0:
91,220,14427,2,0,P|65:137|112:64,1,180,2|2,0:0|0:0,0:0:0:0:
400,64,14896,2,0,P|440:112|408:232,1,180,10|2,0:0|0:0,0:0:0:0:
320,192,15365,5,0,0:0:0:0:
216,256,15521,2,0,P|168:272|144:304,1,90,10|0,0:0|0:0,0:0:0:0:
320,192,15834,2,0,P|288:144|240:136,1,90,0|2,0:0|0:0,0:0:0:0:
320,312,16146,1,8,0:0:0:0:
320,192,16302,1,2,0:0:0:0:
160,152,16459,6,0,L|64:152,1,90,4|2,0:0|0:0,0:0:0:0:
208,32,16771,1,8,0:0:0:0:
160,152,16927,1,0,0:0:0:0:
320,192,17084,5,2,0:0:0:0:
320,312,17240,2,0,P|368:304|416:328,1,90,0|8,0:0|0:0,0:0:0:0:
320,192,17552,1,2,0:0:0:0:
208,32,17709,5,0,0:0:0:0:
160,152,17865,2,0,P|118:167|75:157,1,90,0|10,0:0|0:0,0:0:0:0:
208,32,18177,1,2,0:0:0:0:
288,112,18334,6,0,P|344:104|384:128,1,90,0|2,0:0|0:0,0:0:0:0:
448,192,18646,1,8,0:0:0:0:
392,296,18802,1,2,0:0:0:0:
448,192,18959,6,0,P|472:112|416:24,1,180,6|8,0:0|0:0,0:0:0:0:
64,192,19427,2,0,P|40:272|96:360,1,180,6|0,0:0|0:0,0:0:0:0:
448,192,19896,1,4,0:0:0:0:
256,192,19974,12,0,21771,0:0:0:0:
256,344,22084,5,4,0:0:0:0:
256,48,22396,1,4,0:0:0:0:
256,344,22709,5,4,1:0:0:0:
256,344,22865,1,0,1:0:0:0:
304,264,23021,2,0,P|312:200|384:160,1,135.000005149842,8|8,0:0|0:0,0:0:0:0:
432,120,23490,1,0,0:0:0:0:
384,56,23646,2,0,L|312:56,1,67.5000025749208,8|0,0:0|0:0,0:0:0:0:
432,120,23959,6,0,L|512:120,1,67.5000025749208,8|0,0:0|0:0,0:0:0:0:
384,56,24271,2,0,P|319:39|253:53,1,135.000005149842,8|8,0:0|0:0,0:0:0:0:
56,104,24740,1,0,0:0:0:0:
32,184,24896,2,0,P|16:240|32:272,1,67.5000025749208,8|0,0:0|0:0,0:0:0:0:
128,188,25209,5,0,1:0:0:0:
128,188,25365,1,0,1:0:0:0:
200,288,25521,1,8,0:0:0:0:
256,188,25677,1,0,1:0:0:0:
320,128,25834,2,0,L|376:88,1,67.5000025749208,8|0,0:0|0:0,0:0:0:0:
320,256,26146,2,0,L|376:296,1,67.5000025749208,8|0,0:0|0:0,0:0:0:0:
200,288,26459,6,0,P|144:272|72:312,1,135.000005149842,8|8,0:0|0:0,0:0:0:0:
320,128,26927,2,0,P|384:143|442:111,1,135.000005149842,0|0,0:0|0:0,0:0:0:0:
256,48,27396,1,8,0:0:0:0:
184,128,27552,1,0,0:0:0:0:
256,224,27709,6,0,L|256:304,1,67.5000025749208,0|0,1:0|1:0,0:0:0:0:
184,128,28021,1,8,0:0:0:0:
120,272,28177,2,0,L|120:192,1,67.5000025749208,0|8,1:0|0:0,0:0:0:0:
57,133,28490,1,0,0:0:0:0:
112,56,28646,2,0,P|72:40|32:48,1,67.5000025749208,8|0,0:0|0:0,0:0:0:0:
184,128,28959,6,0,P|240:152|312:104,1,135.000005149842,8|8,0:0|0:0,0:0:0:0:
368,64,29427,1,0,0:0:0:0:
416,136,29584,2,0,P|440:176|400:264,1,135.000005149842,8|8,0:0|0:1,0:0:0:0:
352,304,30052,1,0,0:0:0:0:
256,248,30209,6,0,P|208:224|96:272,1,180,4|0,0:0|1:0,0:0:0:0:
352,304,30677,2,0,P|376:256|328:144,1,180,4|0,0:0|1:0,0:0:0:0:
104,264,31146,2,0,P|206:292|263:237,1,180,4|0,0:0|0:0,0:0:0:0:
40,160,31615,5,0,0:0:0:0:
104,104,31771,2,0,L|144:64,3,45,4|0|0|0,0:0|0:0|0:0|0:0,0:0:0:0:
176,56,32084,1,8,0:0:0:0:
256,192,32240,1,0,0:0:0:0:
336,56,32396,1,8,0:0:0:0:
176,56,32552,1,0,0:0:0:0:
256,192,32709,5,4,1:0:0:0:
256,192,32865,1,0,1:0:0:0:
184,296,33021,1,8,0:0:0:0:
112,192,33177,1,0,1:0:0:0:
256,192,33334,2,0,L|320:152,1,67.5000025749208,8|0,0:0|0:0,0:0:0:0:
184,296,33646,2,0,L|120:336,1,67.5000025749208,8|0,0:0|0:0,0:0:0:0:
112,192,33959,6,0,P|88:152|120:64,1,135.000005149842,8|8,0:0|0:0,0:0:0:0:
256,192,34427,2,0,P|280:232|248:320,1,135.000005149842,0|0,0:0|0:0,0:0:0:0:
192,120,34896,1,8,0:0:0:0:
256,56,35052,1,0,0:0:0:0:
320,120,35209,6,0,L|392:120,1,67.5000025749208,0|0,1:0|1:0,0:0:0:0:
256,56,35521,1,8,0:0:0:0:
192,120,35677,2,0,L|112:120,1,67.5000025749208,0|8,1:0|0:0,0:0:0:0:
64,168,35990,1,0,0:0:0:0:
48,248,36146,2,0,P|40:296|56:336,1,67.5000025749208,8|0,0:0|0:0,0:0:0:0:
64,168,36459,6,0,P|24:160|-16:184,1,67.5000025749208,8|0,0:0|0:0,0:0:0:0:
128,216,36771,1,8,0:0:0:0:
200,248,36927,2,0,P|240:244|268:216,1,67.5000025749208,0|8,0:0|0:0,0:0:0:0:
340,300,37240,1,0,0:0:0:0:
356,192,37396,2,0,P|376:168|424:160,1,67.5000025749208,8|0,0:0|0:0,0:0:0:0:
256,56,37709,5,0,1:0:0:0:
256,56,37865,1,0,1:0:0:0:
256,192,38021,1,8,0:0:0:0:
144,104,38177,2,0,P|104:96|56:112,1,67.5000025749208,0|8,1:0|0:0,0:0:0:0:
16,176,38490,1,0,0:0:0:0:
72,256,38646,2,0,P|112:248|152:264,1,67.5000025749208,8|0,0:0|0:0,0:0:0:0:
200,304,38959,6,0,P|216:248|168:184,1,135.000005149842,8|8,0:0|0:0,0:0:0:0:
328,96,39427,1,0,0:0:0:0:
400,56,39584,2,0,L|464:32,1,67.5000025749208,8|0,0:0|0:0,0:0:0:0:
400,144,39896,2,0,L|464:168,1,67.5000025749208,8|0,0:1|0:0,0:0:0:0:
328,96,40209,6,0,P|240:64|152:96,1,180,4|0,0:0|1:0,0:0:0:0:
160,294,40677,2,0,P|245:319|328:288,1,180,4|0,0:0|1:0,0:0:0:0:
328,96,41146,2,0,P|240:64|152:96,1,180,4|0,0:0|1:0,0:0:0:0:
72,152,41615,6,0,L|48:192,2,45,0|0|0,0:0|0:0|0:0,0:0:0:0:
208,192,41927,2,0,L|232:152,2,45,0|0|8,0:0|0:0|0:0,0:0:0:0:
336,256,42240,1,0,0:0:0:0:
456,336,42396,1,8,0:0:0:0:
472,192,42552,1,0,0:0:0:0:
328,96,42709,6,0,P|392:112|424:96,1,90,4|0,0:0|0:0,0:0:0:0:
256,40,43021,2,0,P|208:32|168:48,1,90,8|0,0:0|0:0,0:0:0:0:
328,96,43334,2,0,P|344:32|328:0,1,90,0|0,0:0|0:0,0:0:0:0:
256,136,43646,1,8,0:0:0:0:
288,216,43802,1,0,0:0:0:0:
336,288,43959,6,0,L|384:368,1,90,0|0,0:0|0:0,0:0:0:0:
232,288,44271,2,0,L|184:368,1,90,8|0,0:0|0:0,0:0:0:0:
336,288,44584,2,0,P|368:240|360:192,1,90,0|0,0:0|0:0,0:0:0:0:
256,136,44896,2,0,P|216:168|200:216,1,90,8|0,0:0|0:0,0:0:0:0:
432,320,45209,6,0,P|472:240|440:144,1,180,0|8,0:0|0:0,0:0:0:0:
192,56,45677,2,0,P|125:116|121:217,1,180,0|0,0:0|0:0,0:0:0:0:
432,320,46146,2,0,P|472:240|440:144,1,180,8|0,0:0|0:0,0:0:0:0:
384,64,46615,5,0,0:0:0:0:
328,136,46771,2,0,P|280:144|232:112,1,90,8|0,0:0|0:0,0:0:0:0:
107,49,47084,2,0,P|150:40|192:56,1,90,0|0,0:0|0:0,0:0:0:0:
328,136,47396,1,8,0:0:0:0:
384,64,47552,1,0,0:0:0:0:
449,156,47709,6,0,P|471:241|432:320,1,180,4|8,0:0|0:0,0:0:0:0:
176,288,48177,2,0,P|261:265|339:305,1,180,0|0,0:0|0:0,0:0:0:0:
70,283,48646,2,0,P|47:198|88:120,1,180,8|0,0:0|0:0,0:0:0:0:
160,176,49115,5,0,0:0:0:0:
152,72,49271,2,0,P|120:44|56:48,1,90,8|0,0:0|0:0,0:0:0:0:
160,176,49584,1,0,0:0:0:0:
224,88,49740,1,0,0:0:0:0:
280,184,49896,2,0,P|320:208|384:192,1,90,8|0,0:0|0:0,0:0:0:0:
160,176,50209,6,0,P|144:240|232:336,1,180,0|8,0:0|0:0,0:0:0:0:
448,240,50677,2,0,P|464:176|376:80,1,180,0|0,0:0|0:0,0:0:0:0:
160,176,51146,2,0,P|144:240|232:336,1,180,8|0,0:0|0:0,0:0:0:0:
64,192,51615,1,0,0:0:0:0:
104,112,51771,2,0,P|152:88|208:104,1,90,8|0,0:0|0:0,0:0:0:0:
296,192,52084,1,0,0:0:0:0:
352,112,52240,1,0,0:0:0:0:
400,192,52396,2,0,P|416:240|384:288,1,90,8|0,0:0|0:0,0:0:0:0:
464,120,52709,5,4,0:0:0:0:
424,40,52865,1,0,0:0:0:0:
352,112,53021,2,0,L|240:112,1,90,8|0,0:0|0:0,0:0:0:0:
104,112,53334,1,0,0:0:0:0:
192,56,53490,1,0,0:0:0:0:
184,176,53646,2,0,P|200:224|168:288,1,90,8|0,0:0|0:0,0:0:0:0:
104,112,53959,6,0,P|56:104|24:72,1,90,0|0,0:0|0:0,0:0:0:0:
184,176,54271,1,8,0:0:0:0:
272,160,54427,1,0,0:0:0:0:
352,112,54584,2,0,L|448:80,1,90,0|0,0:0|0:0,0:0:0:0:
352,200,54896,2,0,L|448:232,1,90,8|0,0:0|0:0,0:0:0:0:
184,176,55209,5,0,0:0:0:0:
128,248,55365,1,0,0:0:0:0:
192,320,55521,2,0,P|232:304|296:320,1,90,8|0,0:0|0:0,0:0:0:0:
56,176,55834,1,0,0:0:0:0:
96,88,55990,2,0,P|144:88|184:64,1,90,0|8,0:0|0:0,0:0:0:0:
184,176,56302,1,0,0:0:0:0:
288,256,56459,5,0,0:0:0:0:
336,160,56615,2,0,P|376:144|456:160,1,90,0|8,0:0|0:0,0:0:0:0:
288,256,56927,1,0,0:0:0:0:
176,224,57084,2,0,P|136:240|56:224,1,90,8|0,0:0|0:0,0:0:0:0:
96,88,57396,1,8,0:0:0:0:
176,48,57552,1,0,0:0:0:0:
176,48,57630,1,0,0:0:0:0:
176,48,57709,5,4,0:0:0:0:
336,160,57865,2,0,L|432:160,1,90,0|0,0:0|0:0,0:0:0:0:
392,264,58177,1,0,0:0:0:0:
288,256,58334,2,0,L|176:256,1,90,8|0,0:0|0:0,0:0:0:0:
336,160,58646,2,0,L|432:160,1,90,4|0,0:0|0:0,0:0:0:0:
248,104,58959,5,0,0:0:0:0:
176,48,59115,2,0,P|152:88|168:144,1,90,8|0,0:0|0:0,0:0:0:0:
248,104,59427,1,0,0:0:0:0:
317,241,59584,2,0,P|341:203|336:160,1,90,8|0,0:0|0:0,0:0:0:0:
176,48,59896,1,8,0:0:0:0:
200,176,60052,1,0,0:0:0:0:
248,104,60209,6,0,P|296:72|344:80,1,90,4|0,0:0|0:0,0:0:0:0:
200,176,60521,1,8,0:0:0:0:
72,328,60677,2,0,P|32:288|24:240,1,90,4|0,0:0|0:0,0:0:0:0:
24,168,60990,1,8,0:0:0:0:
200,176,61146,2,0,P|256:184|296:160,1,90,4|0,0:0|0:0,0:0:0:0:
443,145,61459,5,8,0:0:0:0:
400,320,61615,1,8,0:0:0:0:
357,170,61771,1,8,0:0:0:0:
508,207,61927,1,8,0:0:0:0:
335,257,62084,1,8,0:0:0:0:
443,145,62240,1,8,0:0:0:0:
486,295,62396,1,8,0:0:0:0:
400,320,62552,1,8,0:0:0:0:
357,170,62709,6,0,P|352:112|320:80,1,90,2|0,2:1|0:0,0:0:0:0:
256,272,63021,1,2,2:1:0:0:
256,272,63177,2,0,L|256:324,8,45,0|0|0|0|0|0|0|0|4,0:0|0:0|0:0|0:0|0:0|0:0|0:0|0:0|0:0,0:0:0:0:
256,64,63959,5,4,0:0:0:0:
200,144,64115,2,0,P|176:192|192:240,1,90,2|8,0:0|0:0,0:0:0:0:
256,64,64427,2,0,P|208:48|160:64,1,90,2|0,0:0|0:0,0:0:0:0:
288,160,64740,1,0,0:0:0:0:
352,232,64896,2,0,P|368:280|336:336,1,90,10|0,0:0|0:0,0:0:0:0:
368,120,65209,6,0,P|400:144|464:136,1,90,2|0,0:0|0:0,0:0:0:0:
256,64,65521,2,0,P|200:40|152:48,1,90,2|0,0:0|0:0,0:0:0:0:
182,182,65834,2,0,P|188:235|235:262,1,90,2|0,0:0|0:0,0:0:0:0:
368,120,66146,1,8,0:0:0:0:
352,232,66302,1,0,0:0:0:0:
416,328,66459,6,0,L|528:328,1,90,4|2,0:0|0:0,0:0:0:0:
352,232,66771,1,8,0:0:0:0:
256,328,66927,1,2,0:0:0:0:
152,232,67084,1,0,0:0:0:0:
256,144,67240,1,0,0:0:0:0:
152,232,67396,1,10,0:0:0:0:
128,96,67552,1,0,0:0:0:0:
256,144,67709,6,0,L|352:144,1,90,2|0,0:0|0:0,0:0:0:0:
152,232,68021,2,0,L|48:232,1,90,10|0,0:0|0:0,0:0:0:0:
256,144,68334,2,0,L|352:144,1,90,2|0,0:0|0:0,0:0:0:0:
152,231,68646,2,0,P|129:270|130:314,1,90,8|0,0:0|0:0,0:0:0:0:
168,144,68958,5,6,0:0:0:0:
224,352,69115,1,0,0:0:0:0:
224,352,69193,1,0,0:0:0:0:
224,352,69271,1,8,0:0:0:0:
304,248,69427,1,6,0:0:0:0:
376,360,69584,1,0,0:0:0:0:
384,232,69740,2,0,P|360:184|304:160,1,90,0|8,0:0|0:0,0:0:0:0:
368,64,70052,6,0,P|320:56|278:64,1,90,0|6,0:0|0:0,0:0:0:0:
168,60,70364,1,4,0:0:0:0:
168,60,70443,1,0,0:0:0:0:
168,60,70521,1,8,0:0:0:0:
80,160,70677,2,0,P|120:176|184:160,1,90,6|0,0:0|0:0,0:0:0:0:
256,240,70990,1,0,0:0:0:0:
344,344,71146,1,8,0:0:0:0:
232,320,71302,6,0,P|232:272|262:235,1,90,0|6,0:0|0:0,0:0:0:0:
384,232,71614,1,0,0:0:0:0:
384,232,71693,1,0,0:0:0:0:
384,232,71771,1,8,0:0:0:0:
344,344,71927,2,0,P|396:364|440:344,1,90,6|0,0:0|0:0,0:0:0:0:
256,240,72240,1,2,0:0:0:0:
256,240,72318,1,0,0:0:0:0:
256,240,72396,1,8,0:0:0:0:
384,232,72552,6,0,P|440:221|475:188,1,90,6|0,0:0|0:0,0:0:0:0:
384,232,72865,6,0,P|432:200|454:148,1,107.999996704102,2|0,0:0|0:0,0:0:0:0:
384,232,73177,6,0,P|416:184|418:104,1,135.000005149842,6|0,0:0|0:0,0:0:0:0:
408,84,73412,1,0,0:0:0:0:
393,56,73490,1,0,0:0:0:0:
370,34,73568,1,0,0:0:0:0:
342,21,73646,1,8,0:0:0:0:
311,17,73724,1,0,0:0:0:0:
280,24,73802,1,2,0:0:0:0:
253,41,73880,1,0,0:0:0:0:
233,65,73958,5,4,0:0:0:0:
384,232,74115,1,2,0:0:0:0:
296,256,74271,2,0,P|256:256|208:304,1,90,8|2,0:0|0:0,0:0:0:0:
384,232,74584,2,0,P|408:192|400:144,1,90,0|2,0:0|0:0,0:0:0:0:
392,64,74896,1,10,0:0:0:0:
392,64,75052,1,0,0:0:0:0:
176,112,75209,6,0,L|56:112,1,90,6|0,0:0|0:0,0:0:0:0:
264,192,75521,2,0,L|360:192,1,90,10|0,0:0|0:0,0:0:0:0:
216,288,75834,2,0,L|96:288,1,90,2|0,0:0|0:0,0:0:0:0:
24,240,76146,2,0,P|8:192|32:144,1,90,8|2,0:0|0:0,0:0:0:0:
216,96,76459,5,4,0:0:0:0:
288,40,76615,1,2,0:0:0:0:
360,96,76771,2,0,P|408:104|456:72,1,90,8|2,0:0|0:0,0:0:0:0:
216,96,77084,2,0,P|168:88|120:120,1,90,0|2,0:0|0:0,0:0:0:0:
56,152,77396,1,10,0:0:0:0:
24,240,77552,1,0,0:0:0:0:
256,320,77709,6,0,P|288:264|272:208,1,90,6|0,0:0|0:0,0:0:0:0:
360,192,78021,1,8,0:0:0:0:
256,64,78177,2,0,P|288:120|272:176,1,90,0|2,0:0|0:0,0:0:0:0:
208,192,78490,1,0,0:0:0:0:
136,136,78646,2,0,L|56:88,1,90,10|8,0:0|0:0,0:0:0:0:
136,248,78959,6,0,L|56:296,1,90,6|0,0:0|0:0,0:0:0:0:
208,192,79271,1,8,0:0:0:0:
360,192,79427,1,2,0:0:0:0:
432,136,79584,2,0,L|512:88,1,90,0|2,0:0|0:0,0:0:0:0:
432,248,79897,2,0,L|512:296,1,90,8|2,0:0|0:0,0:0:0:0:
336,96,80209,6,0,P|256:64|152:104,1,180,4|10,0:0|0:0,0:0:0:0:
169,294,80677,2,0,P|253:320|336:288,1,180,10|0,0:0|0:0,0:0:0:0:
336,96,81146,2,0,P|256:64|152:104,1,180,10|6,0:0|0:0,0:0:0:0:
96,144,81615,1,0,0:0:0:0:
112,264,81771,6,0,P|84:306|88:357,1,90,8|6,0:0|0:0,0:0:0:0:
112,264,82084,6,0,P|136:308|223:331,1,107.999996704102,0|8,0:0|0:0,0:0:0:0:
112,264,82396,6,0,P|168:280|248:208,1,135.000005149842,6|0,0:0|0:0,0:0:0:0:
336,96,82709,5,4,0:0:0:0:
256,304,83021,1,8,0:0:0:0:
256,304,83177,1,0,0:0:0:0:
184,208,83334,2,0,P|104:168|8:224,1,180,0|8,0:0|0:0,0:0:0:0:
256,112,83802,1,0,0:0:0:0:
400,168,83959,6,0,P|432:208|424:264,1,90,4|2,0:0|0:0,0:0:0:0:
256,304,84271,1,8,0:0:0:0:
320,216,84427,5,4,0:0:0:0:
184,208,84584,2,0,L|64:208,1,90,2|8,0:0|0:0,0:0:0:0:
256,112,84896,5,4,0:0:0:0:
320,216,85052,1,2,0:0:0:0:
392,112,85209,1,8,0:0:0:0:
256,112,85365,6,0,P|216:88|128:120,1,135,4|0,0:0|0:0,0:0:0:0:
120,136,85677,6,0,B|64:152|40:192|40:192|80:232|72:288,1,202.500007724762
