osu file format v12

[General]
AudioFilename: Black + White.mp3
AudioLeadIn: 0
PreviewTime: 62709
Countdown: 0
SampleSet: Normal
StackLeniency: 0.7
Mode: 0
LetterboxInBreaks: 0
WidescreenStoryboard: 0

[Editor]
Bookmarks: 22084,40209,85834
DistanceSpacing: 1.2
BeatDivisor: 4
GridSize: 4

[Metadata]
Title:Black + White (TV EDIT)
TitleUnicode:Black † White (TV EDIT)
Artist:Nomizu Iori
ArtistUnicode:野水いおり
Creator:Sekai-nyan
Version:Easy
Source:問題児たちが異世界から来るそうですよ?
Tags:Sekai Umi Laurier Natsu opening Mondaiji tachi ga Isekai kara Kuru soudesuyo? Sakamaki Izayoi Kudou Asuka Kasukabe You Kuro Usagi Black Rabbit
BeatmapID:328345
BeatmapSetID:129915

[Difficulty]
HPDrainRate:2
CircleSize:2
OverallDifficulty:2
ApproachRate:3
SliderMultiplier:0.799999999999999
SliderTickRate:1

[Events]
//Background and Video events
Video,-320,"Black + White (TV Size).avi"
0,0,"1.jpg",0,0
//Break Periods
//Storyboard Layer 0 (Background)
//Storyboard Layer 1 (Fail)
//Storyboard Layer 2 (Pass)
//Storyboard Layer 3 (Foreground)
//Storyboard Sound Samples
//Background Colour Transformations
3,100,163,162,255

[TimingPoints]
11459,312.5,4,1,1,70,1,0
19896,-100,4,1,1,40,0,0
22709,-100,4,2,2,70,0,0
30209,-100,4,2,1,70,0,0
32709,-100,4,2,2,70,0,0
40209,-100,4,2,1,70,0,0
41615,-100,4,1,1,70,0,0
42709,-100,4,2,1,70,0,0
61459,-100,4,2,1,50,0,0
63959,-100,4,1,1,70,0,1
83021,-100,4,2,1,70,0,1
83334,-100,4,1,1,70,0,1
83959,-100,4,1,1,70,0,0
85834,-100,4,1,1,20,0,0
86146,-100,4,1,1,5,0,0

[Colours]
Combo1 : 255,132,161
Combo2 : 255,231,165
Combo3 : 153,39,64
Combo4 : 253,212,226
Combo5 : 219,207,243
Combo6 : 252,0,138

[HitObjects]
256,320,11146,1,0,0:0:0:0:
208,240,11459,2,0,P|176:176|216:96,1,160,4|2,0:1|0:0,0:0:0:0:
280,32,12396,1,8,0:0:0:0:
328,112,12709,2,0,P|368:144|480:120,1,160,0|2,0:0|0:0,0:0:0:0:
360,280,13959,6,0,L|448:368,2,120,6|2|10,0:0|0:0|0:0,0:0:0:0:
296,208,15209,2,0,P|224:192|224:328,1,240,8|8,0:0|0:0,0:0:0:0:
304,312,16459,6,0,P|376:272|392:192,1,160,12|10,0:0|0:0,0:0:0:0:
400,104,17395,1,8,0:0:0:0:
312,60,17709,1,0,0:0:0:0:
224,96,18021,2,0,P|152:128|80:96,1,160,10|8,0:0|0:0,0:0:0:0:
24,176,18959,6,0,B|24:224|64:256|64:256|40:288,1,120,2|2,0:0|0:0,0:0:0:0:
168,360,19896,2,2,P|344:360|272:80,1,559.999999999999,4|4,0:0|0:0,0:0:0:0:
120,192,22709,6,0,P|156:204|200:192,1,79.9999999999999,4|8,1:0|0:0,0:0:0:0:
296,192,23334,1,8,0:0:0:0:
488,192,23959,2,0,P|504:244|472:312,2,120,8|0|8,0:0|0:0|0:0,0:0:0:0:
472,96,25209,6,0,P|424:112|396:148,1,79.9999999999999,0|8,1:0|0:0,0:0:0:0:
312,96,25834,1,8,0:0:0:0:
144,192,26459,2,0,P|96:176|16:204,2,120,8|0|8,0:0|0:0|0:0,0:0:0:0:
192,272,27709,6,0,P|228:236|232:180,1,79.9999999999999,0|8,1:0|0:0,0:0:0:0:
328,192,28334,1,8,0:0:0:0:
448,336,28959,2,0,L|320:336,2,120,8|0|8,0:0|0:0|0:1,0:0:0:0:
464,240,30209,6,0,P|480:192|440:108,2,120,4|4|4,0:0|0:0|0:0,0:0:0:0:
384,184,31459,2,0,B|244:184|244:184|168:96,1,240,0|4,0:0|0:0,0:0:0:0:
88,88,32709,6,0,P|60:124|56:168,1,79.9999999999999,4|8,1:0|0:0,0:0:0:0:
48,256,33334,1,8,0:0:0:0:
232,304,33959,2,0,B|300:304|300:304|344:256,2,120,8|0|8,0:0|0:0|0:0,0:0:0:0:
140,332,35209,6,0,P|136:288|168:232,1,79.9999999999999,0|8,1:0|0:0,0:0:0:0:
220,192,35834,1,8,0:0:0:0:
372,76,36459,2,0,P|404:120|396:188,2,120,8|0|8,0:0|0:0|0:0,0:0:0:0:
308,148,37709,6,0,L|224:148,1,79.9999999999999,0|8,1:0|0:0,0:0:0:0:
132,148,38334,1,8,0:0:0:0:
256,292,38959,2,0,L|384:292,2,120,8|0|8,0:0|0:0|0:1,0:0:0:0:
172,340,40209,6,0,P|156:296|204:212,2,120,4|4|4,0:0|0:0|0:0,0:0:0:0:
80,368,41459,2,0,P|64:320|132:148,1,240,0|8,1:0|0:3,0:0:0:0:
184,72,42709,5,4,0:0:0:0:
256,140,43021,2,0,B|308:124|360:168|424:136,1,160,8|8,0:0|0:0,0:0:0:0:
460,224,43959,2,0,P|456:304|396:356,1,160,0|0,0:0|0:0,0:0:0:0:
368,264,44896,1,8,0:0:0:0:
272,256,45209,6,0,P|212:244|148:276,2,120,0|0|8,0:0|0:0|0:0,0:0:0:0:
392,112,46771,1,8,0:0:0:0:
308,64,47084,2,0,P|248:52|200:72,1,79.9999999999999,0|8,0:0|0:0,0:0:0:0:
136,56,47709,6,0,P|144:104|208:144,2,120,4|0|8,0:0|0:0|0:0,0:0:0:0:
296,160,49271,1,8,0:0:0:0:
352,236,49584,2,0,P|360:280|336:328,1,79.9999999999999,0|8,0:0|0:0,0:0:0:0:
264,268,50209,6,0,P|216:240|124:264,2,120,0|0|8,0:0|0:0|0:0,0:0:0:0:
84,332,51771,2,0,P|40:292|32:252,1,79.9999999999999,8|0,0:0|0:0,0:0:0:0:
36,176,52396,1,8,0:0:0:0:
88,96,52709,5,4,0:0:0:0:
176,64,53021,2,0,P|248:24|332:40,1,160,8|8,0:0|0:0,0:0:0:0:
304,224,54271,2,0,L|400:224,1,79.9999999999999,8|0,0:0|0:0,0:0:0:0:
424,136,54896,1,8,0:0:0:0:
480,216,55209,6,0,P|504:264|484:332,2,120,0|0|8,0:0|0:0|0:0,0:0:0:0:
340,64,56771,2,0,L|256:64,1,79.9999999999999,8|8,0:0|0:0,0:0:0:0:
164,64,57396,1,8,0:0:0:0:
84,116,57709,6,0,P|48:184|96:280,2,160,4|8|0,0:0|0:0|0:0,0:0:0:0:
272,72,59584,2,0,P|312:64|360:80,1,79.9999999999999,0|8,0:0|0:0,0:0:0:0:
416,144,60209,6,0,P|440:200|424:256,2,120,4|4|4,0:0|0:0|0:0,0:0:0:0:
336,200,61459,2,0,P|227:275|347:330,1,320,8|0,0:0|0:0,0:0:0:0:
68,52,63959,6,0,P|32:120|64:200,1,160,4|0,0:0|0:0,0:0:0:0:
204,320,65209,5,2,0:0:0:0:
256,240,65521,1,10,0:0:0:0:
308,320,65834,1,2,0:0:0:0:
144,224,66459,6,0,P|256:128|368:224,1,320,4|2,0:0|0:0,0:0:0:0:
420,304,68021,2,0,P|495:318|524:303,2,79.9999999999999,10|2|8,0:0|0:0|0:0,0:0:0:0:
472,220,68959,5,6,0:0:0:0:
392,44,69584,1,0,0:0:0:0:
296,32,69896,1,8,0:0:0:0:
256,120,70209,2,0,P|212:136|120:112,2,120,6|6|8,0:0|0:0|0:0,0:0:0:0:
260,216,71459,6,0,P|312:208|388:232,2,120,6|6|8,0:0|0:0|0:0,0:0:0:0:
212,228,72552,2,0,P|156:228|136:48,1,280,6|8,0:0|0:0,0:0:0:0:
232,64,73959,6,0,P|304:96|376:40,1,160,6|0,0:0|0:0,0:0:0:0:
408,248,75209,2,0,P|376:276|308:276,2,79.9999999999999,6|10|2,0:0|0:0|0:0,0:0:0:0:
256,136,76459,5,4,0:0:0:0:
192,208,76771,2,0,P|156:260|168:336,1,120,8|2,0:0|0:0,0:0:0:0:
44,224,77709,1,6,0:0:0:0:
88,36,78334,1,0,0:0:0:0:
256,140,78959,6,0,P|296:152|244:68,1,240,6|8,0:0|0:0,0:0:0:0:
176,92,80209,2,0,P|112:136|24:120,1,160
168,264,81459,6,0,P|120:288|96:360,2,120,6|0|2,0:0|0:0|0:0,0:0:0:0:
232,336,82709,2,0,P|264:264|232:192,1,160,4|8,0:0|0:0,0:0:0:0:
168,264,83646,1,8,0:0:0:0:
80,224,83959,6,0,L|-8:224,1,79.9999999999999,4|8,0:0|0:0,0:0:0:0:
32,136,84584,2,0,L|116:136,1,79.9999999999999,0|4,0:0|0:0,0:0:0:0:
144,48,85209,2,0,L|24:48,2,120
