osu file format v12

[General]
AudioFilename: [01] Passionate.mp3
AudioLeadIn: 2000
PreviewTime: 218182
Countdown: 0
SampleSet: None
StackLeniency: 0.7
Mode: 3
LetterboxInBreaks: 0
SpecialStyle: 0
WidescreenStoryboard: 1

[Editor]
DistanceSpacing: 0.8
BeatDivisor: 4
GridSize: 8
TimelineZoom: 1.8

[Metadata]
Title:* * * Passionate
TitleUnicode:* * * Passionate
Artist:Nomizu Iori
ArtistUnicode:Nomizu Iori
Creator:Remillion Cross
Version:7K Hard Collab
Source:Kore wa Zombie Desu Ka ? OF THE DEAD
Tags:j-pop eucliwood hellscythe zombie passion
BeatmapID:411844
BeatmapSetID:122162

[Difficulty]
HPDrainRate:6
CircleSize:7
OverallDifficulty:6
ApproachRate:5
SliderMultiplier:1.4
SliderTickRate:1

[Events]
//Background and Video events
0,0,"Eucliwood.Hellscythe.full.409196.jpg",0,0
//Break Periods
//Storyboard Layer 0 (Background)
//Storyboard Layer 1 (Fail)
//Storyboard Layer 2 (Pass)
//Storyboard Layer 3 (Foreground)
//Storyboard Sound Samples
//Background Colour Transformations
3,100,163,162,255

[TimingPoints]
310,425.531914893617,4,2,0,40,1,0
59884,-100,4,2,0,40,0,1
90522,-100,4,2,0,40,0,0
136480,-100,4,2,0,40,0,1
167118,-100,4,2,0,40,0,0
197756,-133.333333333333,4,2,0,40,0,0
210522,-111.111111111111,4,2,0,40,0,0
211373,-100,4,2,0,40,0,0
218182,-100,4,2,0,40,0,1
248820,-100,4,2,0,40,0,0

[HitObjects]
109,192,310,5,0,0:0:0:0:
402,192,310,1,0,0:0:0:0:
256,192,310,1,0,0:0:0:0:
402,192,735,1,0,0:0:0:0:
109,192,948,1,0,0:0:0:0:
402,192,1161,1,0,0:0:0:0:
109,192,1373,1,0,0:0:0:0:
36,192,1586,1,0,0:0:0:0:
475,192,1586,1,0,0:0:0:0:
36,192,1692,1,0,0:0:0:0:
475,192,1692,1,0,0:0:0:0:
402,192,2012,1,0,0:0:0:0:
256,192,2012,1,0,0:0:0:0:
109,192,2012,1,0,0:0:0:0:
109,192,2437,1,0,0:0:0:0:
402,192,2650,1,0,0:0:0:0:
109,192,2863,1,0,0:0:0:0:
402,192,3075,1,0,0:0:0:0:
36,192,3288,1,0,0:0:0:0:
475,192,3288,1,0,0:0:0:0:
36,192,3395,1,0,0:0:0:0:
475,192,3395,1,0,0:0:0:0:
182,192,3714,1,0,0:0:0:0:
329,192,3714,1,0,0:0:0:0:
36,192,4139,1,0,0:0:0:0:
475,192,4139,1,0,0:0:0:0:
36,192,4246,1,0,0:0:0:0:
475,192,4246,1,0,0:0:0:0:
182,192,4565,1,0,0:0:0:0:
329,192,4565,1,0,0:0:0:0:
256,192,5203,128,0,5416:0:0:0:0:
402,192,5416,1,0,0:0:0:0:
109,192,5416,1,0,0:0:0:0:
36,192,5735,1,0,0:0:0:0:
475,192,5735,1,0,0:0:0:0:
36,192,6054,1,0,0:0:0:0:
475,192,6054,1,0,0:0:0:0:
109,192,6373,1,0,0:0:0:0:
402,192,6373,1,0,0:0:0:0:
109,192,6692,1,0,0:0:0:0:
402,192,6692,1,0,0:0:0:0:
182,192,6905,1,0,0:0:0:0:
329,192,6905,1,0,0:0:0:0:
36,192,7118,128,0,9246:0:0:0:0:
109,192,7118,1,0,0:0:0:0:
475,192,7118,1,0,0:0:0:0:
182,192,7331,1,0,0:0:0:0:
402,192,7331,1,0,0:0:0:0:
256,192,7544,1,0,0:0:0:0:
329,192,7756,1,0,0:0:0:0:
475,192,7756,1,0,0:0:0:0:
109,192,7969,1,0,0:0:0:0:
329,192,8182,1,0,0:0:0:0:
182,192,8182,1,0,0:0:0:0:
475,192,8395,1,0,0:0:0:0:
329,192,8607,1,0,0:0:0:0:
109,192,8607,1,0,0:0:0:0:
256,192,8820,1,0,0:0:0:0:
402,192,8820,1,0,0:0:0:0:
329,192,9033,1,0,0:0:0:0:
182,192,9033,1,0,0:0:0:0:
475,192,9246,128,0,9671:0:0:0:0:
402,192,9246,1,0,0:0:0:0:
256,192,9458,1,0,0:0:0:0:
36,192,9458,1,0,0:0:0:0:
329,192,9671,128,0,10097:0:0:0:0:
109,192,9671,1,0,0:0:0:0:
182,192,9884,1,0,0:0:0:0:
475,192,9884,1,0,0:0:0:0:
182,192,10097,128,0,10522:0:0:0:0:
36,192,10097,1,0,0:0:0:0:
475,192,10309,1,0,0:0:0:0:
329,192,10309,1,0,0:0:0:0:
36,192,10522,128,0,12224:0:0:0:0:
109,192,10522,1,0,0:0:0:0:
402,192,10735,1,0,0:0:0:0:
256,192,10735,1,0,0:0:0:0:
475,192,10948,1,0,0:0:0:0:
182,192,11161,1,0,0:0:0:0:
329,192,11161,1,0,0:0:0:0:
402,192,11373,1,0,0:0:0:0:
256,192,11586,1,0,0:0:0:0:
475,192,11586,1,0,0:0:0:0:
182,192,11799,1,0,0:0:0:0:
329,192,12012,1,0,0:0:0:0:
109,192,12012,1,0,0:0:0:0:
475,192,12224,1,0,0:0:0:0:
402,192,12331,1,0,0:0:0:0:
329,192,12437,1,0,0:0:0:0:
256,192,12544,1,0,0:0:0:0:
182,192,12650,1,0,0:0:0:0:
36,192,12650,1,0,0:0:0:0:
256,192,12756,1,0,0:0:0:0:
329,192,12863,1,0,0:0:0:0:
402,192,12969,1,0,0:0:0:0:
36,192,13075,1,0,0:0:0:0:
475,192,13075,1,0,0:0:0:0:
109,192,13182,1,0,0:0:0:0:
182,192,13288,1,0,0:0:0:0:
475,192,13288,1,0,0:0:0:0:
329,192,13501,1,0,0:0:0:0:
109,192,13607,1,0,0:0:0:0:
256,192,13714,1,0,0:0:0:0:
36,192,13820,1,0,0:0:0:0:
475,192,13927,1,0,0:0:0:0:
182,192,13927,1,0,0:0:0:0:
329,192,14139,1,0,0:0:0:0:
109,192,14139,1,0,0:0:0:0:
182,192,14352,1,0,0:0:0:0:
402,192,14458,1,0,0:0:0:0:
329,192,14565,1,0,0:0:0:0:
36,192,14565,1,0,0:0:0:0:
256,192,14671,1,0,0:0:0:0:
475,192,14778,1,0,0:0:0:0:
329,192,14990,1,0,0:0:0:0:
109,192,14990,1,0,0:0:0:0:
256,192,15203,1,0,0:0:0:0:
329,192,15309,1,0,0:0:0:0:
402,192,15416,1,0,0:0:0:0:
36,192,15416,1,0,0:0:0:0:
256,192,15522,1,0,0:0:0:0:
329,192,15629,1,0,0:0:0:0:
182,192,15841,1,0,0:0:0:0:
402,192,15841,1,0,0:0:0:0:
36,192,16054,1,0,0:0:0:0:
109,192,16161,1,0,0:0:0:0:
182,192,16267,1,0,0:0:0:0:
402,192,16267,1,0,0:0:0:0:
109,192,16373,1,0,0:0:0:0:
475,192,16480,128,0,17331:0:0:0:0:
36,192,16480,1,0,0:0:0:0:
256,192,16480,1,0,0:0:0:0:
256,192,16692,1,0,0:0:0:0:
36,192,16692,1,0,0:0:0:0:
109,192,16905,1,0,0:0:0:0:
329,192,16905,1,0,0:0:0:0:
329,192,17118,1,0,0:0:0:0:
109,192,17118,1,0,0:0:0:0:
182,192,17331,1,0,0:0:0:0:
256,192,17544,1,0,0:0:0:0:
36,192,17544,1,0,0:0:0:0:
182,192,17756,1,0,0:0:0:0:
109,192,17863,1,0,0:0:0:0:
329,192,17969,1,0,0:0:0:0:
475,192,17969,1,0,0:0:0:0:
256,192,18075,1,0,0:0:0:0:
402,192,18182,1,0,0:0:0:0:
256,192,18395,1,0,0:0:0:0:
109,192,18395,1,0,0:0:0:0:
36,192,18607,1,0,0:0:0:0:
109,192,18714,1,0,0:0:0:0:
329,192,18820,1,0,0:0:0:0:
475,192,18820,1,0,0:0:0:0:
256,192,18927,1,0,0:0:0:0:
109,192,19033,1,0,0:0:0:0:
256,192,19246,1,0,0:0:0:0:
36,192,19246,1,0,0:0:0:0:
182,192,19458,1,0,0:0:0:0:
475,192,19458,1,0,0:0:0:0:
329,192,19671,1,0,0:0:0:0:
475,192,19671,1,0,0:0:0:0:
182,192,19778,1,0,0:0:0:0:
329,192,19990,1,0,0:0:0:0:
182,192,20097,1,0,0:0:0:0:
36,192,20097,1,0,0:0:0:0:
109,192,20310,1,0,0:0:0:0:
329,192,20416,1,0,0:0:0:0:
182,192,20522,1,0,0:0:0:0:
475,192,20629,1,0,0:0:0:0:
36,192,20735,128,0,22437:0:0:0:0:
109,192,20735,1,0,0:0:0:0:
329,192,20735,1,0,0:0:0:0:
256,192,20948,1,0,0:0:0:0:
182,192,20948,1,0,0:0:0:0:
475,192,21054,1,0,0:0:0:0:
182,192,21267,1,0,0:0:0:0:
402,192,21373,1,0,0:0:0:0:
329,192,21373,1,0,0:0:0:0:
182,192,21586,1,0,0:0:0:0:
475,192,21586,1,0,0:0:0:0:
329,192,21799,1,0,0:0:0:0:
109,192,21799,1,0,0:0:0:0:
475,192,21905,1,0,0:0:0:0:
182,192,22118,1,0,0:0:0:0:
329,192,22224,1,0,0:0:0:0:
475,192,22224,1,0,0:0:0:0:
475,192,22437,128,0,24139:0:0:0:0:
182,192,22437,1,0,0:0:0:0:
256,192,22437,1,0,0:0:0:0:
329,192,22650,1,0,0:0:0:0:
109,192,22650,1,0,0:0:0:0:
36,192,22756,1,0,0:0:0:0:
402,192,22969,1,0,0:0:0:0:
182,192,23075,1,0,0:0:0:0:
329,192,23075,1,0,0:0:0:0:
109,192,23288,1,0,0:0:0:0:
329,192,23288,1,0,0:0:0:0:
256,192,23501,1,0,0:0:0:0:
36,192,23501,1,0,0:0:0:0:
109,192,23607,1,0,0:0:0:0:
329,192,23820,1,0,0:0:0:0:
329,192,23927,1,0,0:0:0:0:
182,192,23927,1,0,0:0:0:0:
36,192,24139,1,0,0:0:0:0:
402,192,24139,1,0,0:0:0:0:
256,192,24139,128,0,25416:0:0:0:0:
329,192,24352,1,0,0:0:0:0:
109,192,24352,1,0,0:0:0:0:
109,192,24458,1,0,0:0:0:0:
475,192,24671,1,0,0:0:0:0:
182,192,24778,1,0,0:0:0:0:
475,192,24778,1,0,0:0:0:0:
109,192,24990,1,0,0:0:0:0:
329,192,24990,1,0,0:0:0:0:
475,192,25203,1,0,0:0:0:0:
36,192,25309,1,0,0:0:0:0:
475,192,25416,1,0,0:0:0:0:
182,192,25522,1,0,0:0:0:0:
329,192,25629,1,0,0:0:0:0:
182,192,25735,1,0,0:0:0:0:
109,192,25841,1,0,0:0:0:0:
402,192,25841,1,0,0:0:0:0:
109,192,26161,1,0,0:0:0:0:
402,192,26161,1,0,0:0:0:0:
36,192,26480,1,0,0:0:0:0:
475,192,26480,1,0,0:0:0:0:
402,192,26692,1,0,0:0:0:0:
109,192,26692,1,0,0:0:0:0:
182,192,26905,1,0,0:0:0:0:
329,192,26905,1,0,0:0:0:0:
109,192,27118,1,0,0:0:0:0:
402,192,27118,1,0,0:0:0:0:
402,192,27224,128,0,27544:0:0:0:0:
109,192,27224,128,0,27544:0:0:0:0:
36,192,27544,1,0,0:0:0:0:
475,192,27544,1,0,0:0:0:0:
182,192,27756,1,0,0:0:0:0:
402,192,27756,1,0,0:0:0:0:
36,192,27969,1,0,0:0:0:0:
182,192,28075,1,0,0:0:0:0:
109,192,28182,1,0,0:0:0:0:
329,192,28182,1,0,0:0:0:0:
256,192,28288,1,0,0:0:0:0:
182,192,28395,1,0,0:0:0:0:
402,192,28607,1,0,0:0:0:0:
256,192,28607,1,0,0:0:0:0:
182,192,28820,1,0,0:0:0:0:
329,192,28927,1,0,0:0:0:0:
109,192,29033,1,0,0:0:0:0:
402,192,29033,1,0,0:0:0:0:
182,192,29139,1,0,0:0:0:0:
475,192,29246,1,0,0:0:0:0:
36,192,29246,1,0,0:0:0:0:
109,192,29458,1,0,0:0:0:0:
329,192,29458,1,0,0:0:0:0:
182,192,29671,1,0,0:0:0:0:
109,192,29778,1,0,0:0:0:0:
329,192,29884,1,0,0:0:0:0:
475,192,29884,1,0,0:0:0:0:
109,192,29990,1,0,0:0:0:0:
182,192,30097,1,0,0:0:0:0:
36,192,30097,1,0,0:0:0:0:
109,192,30309,1,0,0:0:0:0:
256,192,30309,1,0,0:0:0:0:
182,192,30522,1,0,0:0:0:0:
329,192,30522,1,0,0:0:0:0:
256,192,30735,1,0,0:0:0:0:
402,192,30735,1,0,0:0:0:0:
36,192,30948,128,0,31586:0:0:0:0:
475,192,30948,1,0,0:0:0:0:
329,192,31054,1,0,0:0:0:0:
475,192,31161,1,0,0:0:0:0:
329,192,31267,1,0,0:0:0:0:
402,192,31373,1,0,0:0:0:0:
256,192,31480,1,0,0:0:0:0:
402,192,31586,1,0,0:0:0:0:
109,192,31586,1,0,0:0:0:0:
475,192,31586,128,0,32012:0:0:0:0:
36,192,32012,1,0,0:0:0:0:
329,192,32012,1,0,0:0:0:0:
182,192,32224,1,0,0:0:0:0:
329,192,32331,1,0,0:0:0:0:
402,192,32437,1,0,0:0:0:0:
109,192,32437,1,0,0:0:0:0:
182,192,32544,1,0,0:0:0:0:
329,192,32650,1,0,0:0:0:0:
182,192,32863,1,0,0:0:0:0:
36,192,32863,1,0,0:0:0:0:
256,192,32969,1,0,0:0:0:0:
329,192,33075,1,0,0:0:0:0:
256,192,33182,1,0,0:0:0:0:
109,192,33288,1,0,0:0:0:0:
182,192,33395,1,0,0:0:0:0:
475,192,33501,1,0,0:0:0:0:
329,192,33501,1,0,0:0:0:0:
256,192,33714,1,0,0:0:0:0:
475,192,33927,128,0,34352:0:0:0:0:
36,192,33927,1,0,0:0:0:0:
182,192,34033,1,0,0:0:0:0:
402,192,34139,1,0,0:0:0:0:
256,192,34246,1,0,0:0:0:0:
36,192,34352,128,0,36054:0:0:0:0:
109,192,34352,1,0,0:0:0:0:
182,192,34565,1,0,0:0:0:0:
329,192,34565,1,0,0:0:0:0:
475,192,34778,1,0,0:0:0:0:
256,192,34990,1,0,0:0:0:0:
402,192,34990,1,0,0:0:0:0:
182,192,35203,1,0,0:0:0:0:
256,192,35416,1,0,0:0:0:0:
109,192,35416,1,0,0:0:0:0:
329,192,35629,1,0,0:0:0:0:
402,192,35841,1,0,0:0:0:0:
182,192,35841,1,0,0:0:0:0:
256,192,36054,128,0,37756:0:0:0:0:
475,192,36054,1,0,0:0:0:0:
402,192,36267,1,0,0:0:0:0:
109,192,36267,1,0,0:0:0:0:
475,192,36480,1,0,0:0:0:0:
182,192,36692,1,0,0:0:0:0:
36,192,36692,1,0,0:0:0:0:
402,192,36905,1,0,0:0:0:0:
182,192,37118,1,0,0:0:0:0:
475,192,37118,1,0,0:0:0:0:
109,192,37331,1,0,0:0:0:0:
36,192,37544,1,0,0:0:0:0:
402,192,37544,1,0,0:0:0:0:
475,192,37756,128,0,39458:0:0:0:0:
182,192,37756,1,0,0:0:0:0:
109,192,37969,1,0,0:0:0:0:
329,192,37969,1,0,0:0:0:0:
36,192,38182,1,0,0:0:0:0:
182,192,38395,1,0,0:0:0:0:
402,192,38395,1,0,0:0:0:0:
329,192,38607,1,0,0:0:0:0:
256,192,38820,1,0,0:0:0:0:
109,192,38820,1,0,0:0:0:0:
402,192,39033,1,0,0:0:0:0:
182,192,39246,1,0,0:0:0:0:
329,192,39246,1,0,0:0:0:0:
109,192,39458,1,0,0:0:0:0:
329,192,39458,1,0,0:0:0:0:
182,192,39565,1,0,0:0:0:0:
256,192,39671,1,0,0:0:0:0:
329,192,39778,1,0,0:0:0:0:
402,192,39884,1,0,0:0:0:0:
329,192,39990,1,0,0:0:0:0:
256,192,40097,1,0,0:0:0:0:
182,192,40203,1,0,0:0:0:0:
109,192,40310,1,0,0:0:0:0:
402,192,40310,1,0,0:0:0:0:
182,192,40522,1,0,0:0:0:0:
329,192,40522,1,0,0:0:0:0:
475,192,40629,1,0,0:0:0:0:
36,192,40629,1,0,0:0:0:0:
109,192,40735,1,0,0:0:0:0:
402,192,40735,1,0,0:0:0:0:
329,192,40841,1,0,0:0:0:0:
182,192,40841,1,0,0:0:0:0:
182,192,40948,1,0,0:0:0:0:
329,192,40948,1,0,0:0:0:0:
36,192,41161,1,0,0:0:0:0:
475,192,41267,1,0,0:0:0:0:
329,192,41267,1,0,0:0:0:0:
256,192,41480,1,0,0:0:0:0:
36,192,41692,1,0,0:0:0:0:
475,192,41799,1,0,0:0:0:0:
329,192,41799,1,0,0:0:0:0:
36,192,42224,128,0,42437:0:0:0:0:
475,192,42224,128,0,42437:0:0:0:0:
256,192,42224,1,0,0:0:0:0:
182,192,42437,1,0,0:0:0:0:
329,192,42437,1,0,0:0:0:0:
475,192,42863,1,0,0:0:0:0:
36,192,42969,1,0,0:0:0:0:
182,192,42969,1,0,0:0:0:0:
256,192,43182,1,0,0:0:0:0:
475,192,43395,1,0,0:0:0:0:
36,192,43501,1,0,0:0:0:0:
182,192,43501,1,0,0:0:0:0:
36,192,43927,128,0,44139:0:0:0:0:
475,192,43927,128,0,44139:0:0:0:0:
256,192,43927,1,0,0:0:0:0:
256,192,44139,1,0,0:0:0:0:
182,192,44565,128,0,45416:0:0:0:0:
109,192,44565,1,0,0:0:0:0:
256,192,44778,1,0,0:0:0:0:
402,192,44778,1,0,0:0:0:0:
36,192,44990,1,0,0:0:0:0:
256,192,45203,1,0,0:0:0:0:
36,192,45203,1,0,0:0:0:0:
329,192,45416,128,0,46267:0:0:0:0:
475,192,45416,1,0,0:0:0:0:
402,192,45629,1,0,0:0:0:0:
182,192,45629,1,0,0:0:0:0:
36,192,45841,1,0,0:0:0:0:
109,192,46054,1,0,0:0:0:0:
256,192,46054,1,0,0:0:0:0:
182,192,46267,128,0,47118:0:0:0:0:
475,192,46267,1,0,0:0:0:0:
402,192,46480,1,0,0:0:0:0:
36,192,46480,1,0,0:0:0:0:
109,192,46692,1,0,0:0:0:0:
475,192,46692,1,0,0:0:0:0:
36,192,46905,1,0,0:0:0:0:
402,192,46905,1,0,0:0:0:0:
36,192,47118,1,0,0:0:0:0:
109,192,47224,1,0,0:0:0:0:
182,192,47331,1,0,0:0:0:0:
402,192,47437,1,0,0:0:0:0:
329,192,47544,1,0,0:0:0:0:
256,192,47650,1,0,0:0:0:0:
182,192,47756,1,0,0:0:0:0:
329,192,47863,1,0,0:0:0:0:
36,192,47969,1,0,0:0:0:0:
475,192,47969,1,0,0:0:0:0:
256,192,48075,1,0,0:0:0:0:
256,192,48288,1,0,0:0:0:0:
475,192,48501,1,0,0:0:0:0:
36,192,48501,1,0,0:0:0:0:
256,192,48607,1,0,0:0:0:0:
475,192,49033,128,0,49246:0:0:0:0:
36,192,49033,128,0,49246:0:0:0:0:
256,192,49033,1,0,0:0:0:0:
329,192,49246,1,0,0:0:0:0:
182,192,49246,1,0,0:0:0:0:
256,192,49671,1,0,0:0:0:0:
36,192,49778,1,0,0:0:0:0:
475,192,49778,1,0,0:0:0:0:
256,192,49990,1,0,0:0:0:0:
256,192,50203,1,0,0:0:0:0:
36,192,50310,1,0,0:0:0:0:
475,192,50310,1,0,0:0:0:0:
109,192,50522,1,0,0:0:0:0:
329,192,50629,1,0,0:0:0:0:
109,192,50735,1,0,0:0:0:0:
329,192,50841,1,0,0:0:0:0:
475,192,50948,1,0,0:0:0:0:
402,192,50948,1,0,0:0:0:0:
109,192,51054,1,0,0:0:0:0:
36,192,51054,1,0,0:0:0:0:
402,192,51161,1,0,0:0:0:0:
475,192,51161,1,0,0:0:0:0:
182,192,51267,1,0,0:0:0:0:
109,192,51267,1,0,0:0:0:0:
329,192,51373,1,0,0:0:0:0:
475,192,51373,1,0,0:0:0:0:
329,192,51480,1,0,0:0:0:0:
475,192,51480,1,0,0:0:0:0:
36,192,51692,1,0,0:0:0:0:
475,192,51692,1,0,0:0:0:0:
256,192,51905,1,0,0:0:0:0:
109,192,51905,1,0,0:0:0:0:
109,192,52012,1,0,0:0:0:0:
256,192,52012,1,0,0:0:0:0:
182,192,52224,1,0,0:0:0:0:
329,192,52224,1,0,0:0:0:0:
182,192,52331,1,0,0:0:0:0:
329,192,52331,1,0,0:0:0:0:
109,192,52544,1,0,0:0:0:0:
402,192,52544,1,0,0:0:0:0:
402,192,52756,1,0,0:0:0:0:
109,192,52756,1,0,0:0:0:0:
402,192,52863,1,0,0:0:0:0:
109,192,52863,1,0,0:0:0:0:
36,192,53075,1,0,0:0:0:0:
475,192,53075,1,0,0:0:0:0:
36,192,53927,1,0,0:0:0:0:
475,192,53927,1,0,0:0:0:0:
36,192,54246,1,0,0:0:0:0:
475,192,54246,1,0,0:0:0:0:
36,192,54565,1,0,0:0:0:0:
475,192,54565,1,0,0:0:0:0:
109,192,54778,1,0,0:0:0:0:
182,192,54884,1,0,0:0:0:0:
256,192,54990,1,0,0:0:0:0:
402,192,55097,1,0,0:0:0:0:
329,192,55203,1,0,0:0:0:0:
256,192,55310,1,0,0:0:0:0:
109,192,55416,1,0,0:0:0:0:
475,192,55416,1,0,0:0:0:0:
182,192,55522,1,0,0:0:0:0:
256,192,55629,1,0,0:0:0:0:
475,192,55735,1,0,0:0:0:0:
402,192,55841,1,0,0:0:0:0:
329,192,55948,1,0,0:0:0:0:
256,192,56054,1,0,0:0:0:0:
475,192,56054,1,0,0:0:0:0:
36,192,56161,1,0,0:0:0:0:
109,192,56267,1,0,0:0:0:0:
182,192,56373,1,0,0:0:0:0:
256,192,56480,1,0,0:0:0:0:
475,192,56586,1,0,0:0:0:0:
329,192,56692,1,0,0:0:0:0:
36,192,56692,1,0,0:0:0:0:
109,192,56799,1,0,0:0:0:0:
256,192,56905,1,0,0:0:0:0:
402,192,57012,1,0,0:0:0:0:
182,192,57118,1,0,0:0:0:0:
329,192,57224,1,0,0:0:0:0:
109,192,57331,1,0,0:0:0:0:
402,192,57331,1,0,0:0:0:0:
256,192,57331,1,0,0:0:0:0:
329,192,57650,1,0,0:0:0:0:
182,192,57650,1,0,0:0:0:0:
182,192,57969,1,0,0:0:0:0:
329,192,57969,1,0,0:0:0:0:
109,192,58182,1,0,0:0:0:0:
402,192,58182,1,0,0:0:0:0:
256,192,58182,1,0,0:0:0:0:
109,192,59033,1,0,0:0:0:0:
402,192,59139,1,0,0:0:0:0:
109,192,59246,1,0,0:0:0:0:
402,192,59352,1,0,0:0:0:0:
256,192,59458,128,0,59884:0:0:0:0:
109,192,59458,1,0,0:0:0:0:
36,192,59884,128,0,61586:0:0:0:0:
109,192,59884,1,0,0:0:0:0:
402,192,59884,1,0,0:0:0:0:
256,192,60097,1,0,0:0:0:0:
109,192,60097,1,0,0:0:0:0:
402,192,60309,1,0,0:0:0:0:
402,192,60522,1,0,0:0:0:0:
182,192,60522,1,0,0:0:0:0:
109,192,60735,1,0,0:0:0:0:
182,192,60948,1,0,0:0:0:0:
402,192,60948,1,0,0:0:0:0:
256,192,61161,1,0,0:0:0:0:
329,192,61373,1,0,0:0:0:0:
475,192,61373,1,0,0:0:0:0:
256,192,61586,1,0,0:0:0:0:
182,192,61586,128,0,62863:0:0:0:0:
402,192,61799,1,0,0:0:0:0:
36,192,61799,1,0,0:0:0:0:
329,192,62012,1,0,0:0:0:0:
256,192,62224,1,0,0:0:0:0:
475,192,62224,1,0,0:0:0:0:
36,192,62437,1,0,0:0:0:0:
256,192,62650,1,0,0:0:0:0:
402,192,62650,1,0,0:0:0:0:
109,192,62863,1,0,0:0:0:0:
36,192,62863,128,0,63288:0:0:0:0:
256,192,63075,1,0,0:0:0:0:
475,192,63075,1,0,0:0:0:0:
329,192,63288,128,0,64990:0:0:0:0:
402,192,63288,1,0,0:0:0:0:
256,192,63501,1,0,0:0:0:0:
36,192,63501,1,0,0:0:0:0:
402,192,63714,1,0,0:0:0:0:
182,192,63927,1,0,0:0:0:0:
475,192,63927,1,0,0:0:0:0:
256,192,64139,1,0,0:0:0:0:
182,192,64352,1,0,0:0:0:0:
36,192,64352,1,0,0:0:0:0:
109,192,64565,1,0,0:0:0:0:
182,192,64778,1,0,0:0:0:0:
475,192,64778,1,0,0:0:0:0:
109,192,64990,1,0,0:0:0:0:
182,192,65097,1,0,0:0:0:0:
256,192,65203,1,0,0:0:0:0:
329,192,65309,1,0,0:0:0:0:
36,192,65416,1,0,0:0:0:0:
109,192,65522,1,0,0:0:0:0:
182,192,65629,1,0,0:0:0:0:
256,192,65735,1,0,0:0:0:0:
109,192,65841,1,0,0:0:0:0:
402,192,65841,1,0,0:0:0:0:
109,192,66054,1,0,0:0:0:0:
402,192,66054,1,0,0:0:0:0:
36,192,66267,1,0,0:0:0:0:
475,192,66267,1,0,0:0:0:0:
109,192,66373,1,0,0:0:0:0:
402,192,66373,1,0,0:0:0:0:
329,192,66480,1,0,0:0:0:0:
182,192,66480,1,0,0:0:0:0:
402,192,66586,1,0,0:0:0:0:
109,192,66586,1,0,0:0:0:0:
475,192,66692,1,0,0:0:0:0:
36,192,66692,1,0,0:0:0:0:
182,192,66905,1,0,0:0:0:0:
402,192,66905,1,0,0:0:0:0:
402,192,67012,1,0,0:0:0:0:
109,192,67224,1,0,0:0:0:0:
256,192,67331,1,0,0:0:0:0:
109,192,67331,1,0,0:0:0:0:
36,192,67544,1,0,0:0:0:0:
475,192,67544,1,0,0:0:0:0:
329,192,67756,1,0,0:0:0:0:
109,192,67756,1,0,0:0:0:0:
402,192,67863,1,0,0:0:0:0:
109,192,68075,1,0,0:0:0:0:
182,192,68182,1,0,0:0:0:0:
475,192,68182,1,0,0:0:0:0:
329,192,68288,1,0,0:0:0:0:
109,192,68395,1,0,0:0:0:0:
402,192,68395,1,0,0:0:0:0:
329,192,68607,1,0,0:0:0:0:
475,192,68607,1,0,0:0:0:0:
256,192,68714,1,0,0:0:0:0:
109,192,68927,1,0,0:0:0:0:
182,192,69033,1,0,0:0:0:0:
402,192,69033,1,0,0:0:0:0:
109,192,69246,1,0,0:0:0:0:
475,192,69246,1,0,0:0:0:0:
329,192,69458,1,0,0:0:0:0:
182,192,69458,1,0,0:0:0:0:
109,192,69565,1,0,0:0:0:0:
402,192,69778,1,0,0:0:0:0:
329,192,69884,1,0,0:0:0:0:
182,192,69884,1,0,0:0:0:0:
402,192,70097,1,0,0:0:0:0:
256,192,70097,128,0,71799:0:0:0:0:
182,192,70310,1,0,0:0:0:0:
36,192,70310,1,0,0:0:0:0:
329,192,70416,1,0,0:0:0:0:
475,192,70629,1,0,0:0:0:0:
329,192,70735,1,0,0:0:0:0:
109,192,70735,1,0,0:0:0:0:
475,192,70948,1,0,0:0:0:0:
36,192,70948,1,0,0:0:0:0:
182,192,71161,1,0,0:0:0:0:
475,192,71161,1,0,0:0:0:0:
109,192,71267,1,0,0:0:0:0:
402,192,71480,1,0,0:0:0:0:
109,192,71586,1,0,0:0:0:0:
329,192,71586,1,0,0:0:0:0:
36,192,71799,1,0,0:0:0:0:
475,192,71799,1,0,0:0:0:0:
256,192,72012,1,0,0:0:0:0:
109,192,72012,1,0,0:0:0:0:
329,192,72118,1,0,0:0:0:0:
182,192,72331,1,0,0:0:0:0:
329,192,72437,1,0,0:0:0:0:
475,192,72437,1,0,0:0:0:0:
109,192,72650,1,0,0:0:0:0:
182,192,72756,1,0,0:0:0:0:
256,192,72863,1,0,0:0:0:0:
329,192,72969,1,0,0:0:0:0:
475,192,73075,1,0,0:0:0:0:
402,192,73182,1,0,0:0:0:0:
329,192,73288,1,0,0:0:0:0:
256,192,73395,1,0,0:0:0:0:
36,192,73501,128,0,75203:0:0:0:0:
182,192,73501,1,0,0:0:0:0:
256,192,73714,1,0,0:0:0:0:
475,192,73714,1,0,0:0:0:0:
109,192,73927,1,0,0:0:0:0:
329,192,74139,1,0,0:0:0:0:
182,192,74139,1,0,0:0:0:0:
402,192,74352,1,0,0:0:0:0:
182,192,74565,1,0,0:0:0:0:
475,192,74565,1,0,0:0:0:0:
329,192,74778,1,0,0:0:0:0:
475,192,74990,1,0,0:0:0:0:
256,192,74990,1,0,0:0:0:0:
475,192,75203,128,0,76480:0:0:0:0:
402,192,75203,1,0,0:0:0:0:
329,192,75416,1,0,0:0:0:0:
109,192,75416,1,0,0:0:0:0:
36,192,75629,1,0,0:0:0:0:
256,192,75841,1,0,0:0:0:0:
402,192,75841,1,0,0:0:0:0:
109,192,76054,1,0,0:0:0:0:
256,192,76267,1,0,0:0:0:0:
36,192,76267,1,0,0:0:0:0:
329,192,76480,128,0,76905:0:0:0:0:
182,192,76480,1,0,0:0:0:0:
256,192,76692,1,0,0:0:0:0:
36,192,76692,1,0,0:0:0:0:
36,192,76905,128,0,78607:0:0:0:0:
402,192,76905,1,0,0:0:0:0:
256,192,77118,1,0,0:0:0:0:
475,192,77118,1,0,0:0:0:0:
109,192,77331,1,0,0:0:0:0:
256,192,77544,1,0,0:0:0:0:
402,192,77544,1,0,0:0:0:0:
182,192,77756,1,0,0:0:0:0:
256,192,77969,1,0,0:0:0:0:
402,192,77969,1,0,0:0:0:0:
109,192,78182,1,0,0:0:0:0:
256,192,78395,1,0,0:0:0:0:
475,192,78395,1,0,0:0:0:0:
475,192,78607,1,0,0:0:0:0:
402,192,78714,1,0,0:0:0:0:
329,192,78820,1,0,0:0:0:0:
402,192,78927,1,0,0:0:0:0:
182,192,79033,1,0,0:0:0:0:
256,192,79139,1,0,0:0:0:0:
329,192,79246,1,0,0:0:0:0:
402,192,79352,1,0,0:0:0:0:
256,192,79458,1,0,0:0:0:0:
182,192,79565,1,0,0:0:0:0:
109,192,79671,1,0,0:0:0:0:
36,192,79778,1,0,0:0:0:0:
109,192,79884,1,0,0:0:0:0:
182,192,80097,1,0,0:0:0:0:
329,192,80097,1,0,0:0:0:0:
329,192,80203,1,0,0:0:0:0:
182,192,80203,1,0,0:0:0:0:
109,192,80310,1,0,0:0:0:0:
402,192,80310,1,0,0:0:0:0:
256,192,80522,1,0,0:0:0:0:
475,192,80522,1,0,0:0:0:0:
256,192,80629,1,0,0:0:0:0:
109,192,80841,1,0,0:0:0:0:
256,192,80948,1,0,0:0:0:0:
109,192,80948,1,0,0:0:0:0:
36,192,81161,128,0,81586:0:0:0:0:
475,192,81161,1,0,0:0:0:0:
329,192,81161,1,0,0:0:0:0:
182,192,81373,1,0,0:0:0:0:
402,192,81373,1,0,0:0:0:0:
182,192,81480,1,0,0:0:0:0:
402,192,81586,128,0,82012:0:0:0:0:
329,192,81692,1,0,0:0:0:0:
256,192,81799,1,0,0:0:0:0:
36,192,81799,1,0,0:0:0:0:
182,192,82012,1,0,0:0:0:0:
329,192,82012,1,0,0:0:0:0:
109,192,82012,128,0,82331:0:0:0:0:
256,192,82224,1,0,0:0:0:0:
475,192,82224,1,0,0:0:0:0:
402,192,82331,128,0,82650:0:0:0:0:
256,192,82331,1,0,0:0:0:0:
109,192,82544,1,0,0:0:0:0:
36,192,82650,1,0,0:0:0:0:
182,192,82650,128,0,82863:0:0:0:0:
329,192,82650,1,0,0:0:0:0:
475,192,82863,1,0,0:0:0:0:
36,192,82863,1,0,0:0:0:0:
182,192,83075,1,0,0:0:0:0:
329,192,83075,1,0,0:0:0:0:
109,192,83182,1,0,0:0:0:0:
475,192,83395,1,0,0:0:0:0:
182,192,83501,1,0,0:0:0:0:
402,192,83501,1,0,0:0:0:0:
109,192,83714,128,0,85416:0:0:0:0:
36,192,83714,1,0,0:0:0:0:
475,192,83714,1,0,0:0:0:0:
182,192,83927,1,0,0:0:0:0:
402,192,83927,1,0,0:0:0:0:
475,192,84033,1,0,0:0:0:0:
256,192,84246,1,0,0:0:0:0:
329,192,84352,1,0,0:0:0:0:
475,192,84352,1,0,0:0:0:0:
182,192,84458,1,0,0:0:0:0:
256,192,84565,1,0,0:0:0:0:
36,192,84565,1,0,0:0:0:0:
475,192,84778,1,0,0:0:0:0:
329,192,84778,1,0,0:0:0:0:
256,192,84884,1,0,0:0:0:0:
402,192,85097,1,0,0:0:0:0:
182,192,85203,1,0,0:0:0:0:
329,192,85203,1,0,0:0:0:0:
402,192,85310,1,0,0:0:0:0:
256,192,85416,128,0,87118:0:0:0:0:
36,192,85416,1,0,0:0:0:0:
475,192,85416,1,0,0:0:0:0:
329,192,85629,1,0,0:0:0:0:
109,192,85629,1,0,0:0:0:0:
402,192,85735,1,0,0:0:0:0:
36,192,85948,1,0,0:0:0:0:
182,192,86054,1,0,0:0:0:0:
402,192,86054,1,0,0:0:0:0:
109,192,86161,1,0,0:0:0:0:
36,192,86267,1,0,0:0:0:0:
402,192,86267,1,0,0:0:0:0:
182,192,86480,1,0,0:0:0:0:
475,192,86480,1,0,0:0:0:0:
402,192,86586,1,0,0:0:0:0:
475,192,86799,1,0,0:0:0:0:
475,192,86905,1,0,0:0:0:0:
36,192,86905,1,0,0:0:0:0:
402,192,87118,128,0,88820:0:0:0:0:
36,192,87118,1,0,0:0:0:0:
475,192,87118,1,0,0:0:0:0:
109,192,87331,1,0,0:0:0:0:
256,192,87331,1,0,0:0:0:0:
256,192,87437,1,0,0:0:0:0:
109,192,87437,1,0,0:0:0:0:
329,192,87650,1,0,0:0:0:0:
182,192,87650,1,0,0:0:0:0:
182,192,87756,1,0,0:0:0:0:
329,192,87756,1,0,0:0:0:0:
36,192,87969,1,0,0:0:0:0:
256,192,87969,1,0,0:0:0:0:
329,192,88182,1,0,0:0:0:0:
109,192,88182,1,0,0:0:0:0:
329,192,88395,1,0,0:0:0:0:
256,192,88448,1,0,0:0:0:0:
182,192,88501,1,0,0:0:0:0:
36,192,88607,1,0,0:0:0:0:
109,192,88714,1,0,0:0:0:0:
182,192,88820,1,0,0:0:0:0:
329,192,88820,1,0,0:0:0:0:
36,192,89246,1,0,0:0:0:0:
475,192,89246,1,0,0:0:0:0:
109,192,89671,1,0,0:0:0:0:
402,192,89671,1,0,0:0:0:0:
182,192,90097,1,0,0:0:0:0:
329,192,90097,1,0,0:0:0:0:
329,192,90522,1,0,0:0:0:0:
36,192,90522,1,0,0:0:0:0:
475,192,90522,128,0,92650:0:0:0:0:
109,192,90735,1,0,0:0:0:0:
402,192,90735,1,0,0:0:0:0:
256,192,90948,1,0,0:0:0:0:
36,192,91161,1,0,0:0:0:0:
329,192,91161,1,0,0:0:0:0:
182,192,91373,1,0,0:0:0:0:
109,192,91586,1,0,0:0:0:0:
329,192,91586,1,0,0:0:0:0:
256,192,91799,1,0,0:0:0:0:
402,192,92012,1,0,0:0:0:0:
36,192,92012,1,0,0:0:0:0:
182,192,92224,1,0,0:0:0:0:
109,192,92437,1,0,0:0:0:0:
329,192,92437,1,0,0:0:0:0:
109,192,92650,128,0,93075:0:0:0:0:
402,192,92650,1,0,0:0:0:0:
329,192,92863,1,0,0:0:0:0:
36,192,92863,1,0,0:0:0:0:
402,192,93075,128,0,93501:0:0:0:0:
256,192,93075,1,0,0:0:0:0:
109,192,93288,1,0,0:0:0:0:
329,192,93288,1,0,0:0:0:0:
36,192,93501,128,0,93927:0:0:0:0:
182,192,93501,1,0,0:0:0:0:
475,192,93714,1,0,0:0:0:0:
329,192,93714,1,0,0:0:0:0:
182,192,93927,1,0,0:0:0:0:
256,192,94033,1,0,0:0:0:0:
329,192,94139,1,0,0:0:0:0:
36,192,94139,1,0,0:0:0:0:
182,192,94352,1,0,0:0:0:0:
109,192,94565,1,0,0:0:0:0:
402,192,94565,1,0,0:0:0:0:
256,192,94778,1,0,0:0:0:0:
36,192,94990,1,0,0:0:0:0:
475,192,94990,1,0,0:0:0:0:
475,192,95203,1,0,0:0:0:0:
36,192,95203,1,0,0:0:0:0:
475,192,95416,1,0,0:0:0:0:
36,192,95416,1,0,0:0:0:0:
402,192,95629,1,0,0:0:0:0:
182,192,95735,1,0,0:0:0:0:
402,192,95841,1,0,0:0:0:0:
182,192,95948,1,0,0:0:0:0:
329,192,96054,1,0,0:0:0:0:
109,192,96161,1,0,0:0:0:0:
329,192,96267,1,0,0:0:0:0:
109,192,96373,1,0,0:0:0:0:
475,192,96480,1,0,0:0:0:0:
402,192,96586,1,0,0:0:0:0:
329,192,96692,1,0,0:0:0:0:
256,192,96799,1,0,0:0:0:0:
36,192,96905,1,0,0:0:0:0:
329,192,96905,1,0,0:0:0:0:
109,192,97012,1,0,0:0:0:0:
402,192,97012,1,0,0:0:0:0:
182,192,97118,1,0,0:0:0:0:
475,192,97118,1,0,0:0:0:0:
109,192,97224,1,0,0:0:0:0:
402,192,97224,1,0,0:0:0:0:
36,192,97331,1,0,0:0:0:0:
329,192,97331,1,0,0:0:0:0:
475,192,97331,128,0,99458:0:0:0:0:
109,192,97544,1,0,0:0:0:0:
256,192,97544,1,0,0:0:0:0:
329,192,97756,1,0,0:0:0:0:
36,192,97969,1,0,0:0:0:0:
329,192,97969,1,0,0:0:0:0:
182,192,98182,1,0,0:0:0:0:
109,192,98395,1,0,0:0:0:0:
402,192,98395,1,0,0:0:0:0:
256,192,98607,1,0,0:0:0:0:
36,192,98820,1,0,0:0:0:0:
402,192,98820,1,0,0:0:0:0:
256,192,99033,1,0,0:0:0:0:
256,192,99246,1,0,0:0:0:0:
109,192,99246,1,0,0:0:0:0:
36,192,99458,128,0,99884:0:0:0:0:
329,192,99458,1,0,0:0:0:0:
109,192,99671,1,0,0:0:0:0:
475,192,99671,1,0,0:0:0:0:
402,192,99884,128,0,100310:0:0:0:0:
329,192,99884,1,0,0:0:0:0:
256,192,100097,1,0,0:0:0:0:
36,192,100097,1,0,0:0:0:0:
109,192,100310,128,0,100735:0:0:0:0:
182,192,100310,1,0,0:0:0:0:
475,192,100522,1,0,0:0:0:0:
256,192,100522,1,0,0:0:0:0:
329,192,100735,1,0,0:0:0:0:
402,192,100841,1,0,0:0:0:0:
475,192,100948,1,0,0:0:0:0:
182,192,100948,1,0,0:0:0:0:
36,192,101161,1,0,0:0:0:0:
329,192,101373,1,0,0:0:0:0:
109,192,101373,1,0,0:0:0:0:
475,192,101586,1,0,0:0:0:0:
256,192,101692,1,0,0:0:0:0:
402,192,101799,1,0,0:0:0:0:
182,192,101905,1,0,0:0:0:0:
329,192,102012,1,0,0:0:0:0:
36,192,102012,1,0,0:0:0:0:
182,192,102224,1,0,0:0:0:0:
329,192,102224,1,0,0:0:0:0:
182,192,102331,1,0,0:0:0:0:
329,192,102331,1,0,0:0:0:0:
36,192,102437,1,0,0:0:0:0:
475,192,102437,1,0,0:0:0:0:
36,192,102756,1,0,0:0:0:0:
475,192,102756,1,0,0:0:0:0:
402,192,103075,1,0,0:0:0:0:
109,192,103075,1,0,0:0:0:0:
36,192,103288,1,0,0:0:0:0:
475,192,103288,1,0,0:0:0:0:
475,192,103501,1,0,0:0:0:0:
36,192,103501,1,0,0:0:0:0:
109,192,103714,1,0,0:0:0:0:
402,192,103714,1,0,0:0:0:0:
109,192,103820,128,0,104139:0:0:0:0:
402,192,103820,128,0,104139:0:0:0:0:
475,192,104139,1,0,0:0:0:0:
36,192,104139,1,0,0:0:0:0:
182,192,104352,1,0,0:0:0:0:
402,192,104352,1,0,0:0:0:0:
109,192,104565,1,0,0:0:0:0:
329,192,104671,1,0,0:0:0:0:
182,192,104778,1,0,0:0:0:0:
36,192,104778,1,0,0:0:0:0:
475,192,104884,1,0,0:0:0:0:
329,192,104990,1,0,0:0:0:0:
36,192,105203,1,0,0:0:0:0:
475,192,105203,1,0,0:0:0:0:
182,192,105416,1,0,0:0:0:0:
402,192,105522,1,0,0:0:0:0:
109,192,105629,1,0,0:0:0:0:
329,192,105629,1,0,0:0:0:0:
182,192,105735,1,0,0:0:0:0:
256,192,105841,1,0,0:0:0:0:
36,192,106054,1,0,0:0:0:0:
329,192,106054,1,0,0:0:0:0:
109,192,106267,1,0,0:0:0:0:
182,192,106373,1,0,0:0:0:0:
256,192,106480,1,0,0:0:0:0:
475,192,106480,1,0,0:0:0:0:
182,192,106586,1,0,0:0:0:0:
109,192,106692,1,0,0:0:0:0:
402,192,106692,1,0,0:0:0:0:
109,192,106905,1,0,0:0:0:0:
402,192,106905,1,0,0:0:0:0:
329,192,107118,1,0,0:0:0:0:
36,192,107118,1,0,0:0:0:0:
36,192,107331,1,0,0:0:0:0:
329,192,107331,1,0,0:0:0:0:
475,192,107544,1,0,0:0:0:0:
329,192,107544,1,0,0:0:0:0:
36,192,107650,1,0,0:0:0:0:
182,192,107650,1,0,0:0:0:0:
329,192,107756,1,0,0:0:0:0:
475,192,107756,1,0,0:0:0:0:
36,192,107863,1,0,0:0:0:0:
182,192,107863,1,0,0:0:0:0:
329,192,107969,1,0,0:0:0:0:
475,192,107969,1,0,0:0:0:0:
36,192,108075,1,0,0:0:0:0:
182,192,108075,1,0,0:0:0:0:
475,192,108182,128,0,108607:0:0:0:0:
329,192,108182,1,0,0:0:0:0:
36,192,108607,1,0,0:0:0:0:
256,192,108607,1,0,0:0:0:0:
109,192,108820,1,0,0:0:0:0:
402,192,108927,1,0,0:0:0:0:
109,192,109033,1,0,0:0:0:0:
256,192,109033,1,0,0:0:0:0:
402,192,109139,1,0,0:0:0:0:
109,192,109246,1,0,0:0:0:0:
402,192,109458,1,0,0:0:0:0:
256,192,109458,1,0,0:0:0:0:
182,192,109671,1,0,0:0:0:0:
402,192,109778,1,0,0:0:0:0:
109,192,109884,1,0,0:0:0:0:
256,192,109884,1,0,0:0:0:0:
475,192,109990,1,0,0:0:0:0:
329,192,110097,1,0,0:0:0:0:
109,192,110203,1,0,0:0:0:0:
256,192,110310,1,0,0:0:0:0:
475,192,110310,1,0,0:0:0:0:
36,192,110522,1,0,0:0:0:0:
475,192,110629,1,0,0:0:0:0:
109,192,110735,1,0,0:0:0:0:
402,192,110841,1,0,0:0:0:0:
256,192,110948,1,0,0:0:0:0:
36,192,110948,128,0,112650:0:0:0:0:
182,192,111161,1,0,0:0:0:0:
475,192,111161,1,0,0:0:0:0:
402,192,111373,1,0,0:0:0:0:
182,192,111586,1,0,0:0:0:0:
329,192,111586,1,0,0:0:0:0:
109,192,111799,1,0,0:0:0:0:
256,192,112012,1,0,0:0:0:0:
402,192,112012,1,0,0:0:0:0:
182,192,112224,1,0,0:0:0:0:
329,192,112437,1,0,0:0:0:0:
475,192,112437,1,0,0:0:0:0:
475,192,112650,128,0,114352:0:0:0:0:
402,192,112650,1,0,0:0:0:0:
256,192,112863,1,0,0:0:0:0:
36,192,112863,1,0,0:0:0:0:
329,192,113075,1,0,0:0:0:0:
109,192,113288,1,0,0:0:0:0:
256,192,113288,1,0,0:0:0:0:
402,192,113501,1,0,0:0:0:0:
182,192,113714,1,0,0:0:0:0:
329,192,113714,1,0,0:0:0:0:
36,192,113927,1,0,0:0:0:0:
109,192,114139,1,0,0:0:0:0:
256,192,114139,1,0,0:0:0:0:
36,192,114352,1,0,0:0:0:0:
402,192,114352,128,0,114565:0:0:0:0:
109,192,114458,1,0,0:0:0:0:
182,192,114565,1,0,0:0:0:0:
475,192,114565,128,0,114778:0:0:0:0:
256,192,114671,1,0,0:0:0:0:
109,192,114778,1,0,0:0:0:0:
402,192,114778,128,0,114990:0:0:0:0:
182,192,114884,1,0,0:0:0:0:
256,192,114990,1,0,0:0:0:0:
475,192,114990,128,0,115203:0:0:0:0:
329,192,115097,1,0,0:0:0:0:
182,192,115203,1,0,0:0:0:0:
36,192,115203,128,0,115416:0:0:0:0:
256,192,115310,1,0,0:0:0:0:
329,192,115416,1,0,0:0:0:0:
109,192,115416,128,0,115629:0:0:0:0:
402,192,115522,1,0,0:0:0:0:
256,192,115629,128,0,115841:0:0:0:0:
475,192,115629,1,0,0:0:0:0:
402,192,115735,1,0,0:0:0:0:
109,192,115841,128,0,116054:0:0:0:0:
475,192,115841,1,0,0:0:0:0:
402,192,115948,1,0,0:0:0:0:
256,192,116054,128,0,117756:0:0:0:0:
329,192,116054,1,0,0:0:0:0:
36,192,116267,1,0,0:0:0:0:
402,192,116267,1,0,0:0:0:0:
36,192,116373,1,0,0:0:0:0:
402,192,116373,1,0,0:0:0:0:
109,192,116586,1,0,0:0:0:0:
475,192,116586,1,0,0:0:0:0:
475,192,116692,1,0,0:0:0:0:
109,192,116692,1,0,0:0:0:0:
402,192,116905,1,0,0:0:0:0:
36,192,116905,1,0,0:0:0:0:
109,192,117118,1,0,0:0:0:0:
475,192,117118,1,0,0:0:0:0:
36,192,117331,1,0,0:0:0:0:
475,192,117331,1,0,0:0:0:0:
36,192,117437,1,0,0:0:0:0:
475,192,117437,1,0,0:0:0:0:
402,192,117544,1,0,0:0:0:0:
109,192,117544,1,0,0:0:0:0:
36,192,117756,1,0,0:0:0:0:
475,192,117756,1,0,0:0:0:0:
109,192,117863,1,0,0:0:0:0:
402,192,117863,1,0,0:0:0:0:
256,192,118075,1,0,0:0:0:0:
36,192,118288,1,0,0:0:0:0:
475,192,118288,1,0,0:0:0:0:
109,192,118395,1,0,0:0:0:0:
402,192,118395,1,0,0:0:0:0:
256,192,118607,128,0,119033:0:0:0:0:
402,192,118820,1,0,0:0:0:0:
109,192,118820,1,0,0:0:0:0:
109,192,118927,1,0,0:0:0:0:
402,192,118927,1,0,0:0:0:0:
36,192,119033,1,0,0:0:0:0:
475,192,119033,1,0,0:0:0:0:
109,192,119458,1,0,0:0:0:0:
402,192,119458,1,0,0:0:0:0:
36,192,119565,1,0,0:0:0:0:
475,192,119565,1,0,0:0:0:0:
256,192,119778,1,0,0:0:0:0:
109,192,119990,1,0,0:0:0:0:
402,192,119990,1,0,0:0:0:0:
36,192,120097,1,0,0:0:0:0:
475,192,120097,1,0,0:0:0:0:
109,192,120310,1,0,0:0:0:0:
402,192,120310,1,0,0:0:0:0:
402,192,120416,1,0,0:0:0:0:
109,192,120416,1,0,0:0:0:0:
36,192,120629,1,0,0:0:0:0:
475,192,120629,1,0,0:0:0:0:
36,192,120735,1,0,0:0:0:0:
475,192,120735,1,0,0:0:0:0:
109,192,120948,1,0,0:0:0:0:
402,192,120948,1,0,0:0:0:0:
182,192,121161,128,0,122012:0:0:0:0:
475,192,121161,1,0,0:0:0:0:
36,192,121373,1,0,0:0:0:0:
402,192,121373,1,0,0:0:0:0:
475,192,121586,1,0,0:0:0:0:
256,192,121799,1,0,0:0:0:0:
402,192,121799,1,0,0:0:0:0:
36,192,122012,1,0,0:0:0:0:
475,192,122012,1,0,0:0:0:0:
402,192,122012,128,0,122863:0:0:0:0:
109,192,122224,1,0,0:0:0:0:
329,192,122224,1,0,0:0:0:0:
36,192,122437,1,0,0:0:0:0:
329,192,122650,1,0,0:0:0:0:
182,192,122650,1,0,0:0:0:0:
109,192,122863,1,0,0:0:0:0:
36,192,123075,1,0,0:0:0:0:
475,192,123075,1,0,0:0:0:0:
36,192,123288,1,0,0:0:0:0:
475,192,123288,1,0,0:0:0:0:
36,192,123501,1,0,0:0:0:0:
475,192,123501,1,0,0:0:0:0:
256,192,123714,128,0,123927:0:0:0:0:
36,192,123927,1,0,0:0:0:0:
109,192,124033,1,0,0:0:0:0:
256,192,124139,1,0,0:0:0:0:
182,192,124246,1,0,0:0:0:0:
329,192,124352,1,0,0:0:0:0:
402,192,124458,1,0,0:0:0:0:
475,192,124565,1,0,0:0:0:0:
36,192,124565,1,0,0:0:0:0:
182,192,124671,1,0,0:0:0:0:
329,192,124671,1,0,0:0:0:0:
36,192,124884,1,0,0:0:0:0:
475,192,124884,1,0,0:0:0:0:
182,192,125097,1,0,0:0:0:0:
329,192,125097,1,0,0:0:0:0:
36,192,125203,1,0,0:0:0:0:
475,192,125203,1,0,0:0:0:0:
402,192,125416,128,0,125522:0:0:0:0:
109,192,125522,128,0,125629:0:0:0:0:
402,192,125629,128,0,125735:0:0:0:0:
109,192,125735,128,0,125841:0:0:0:0:
475,192,125841,1,0,0:0:0:0:
36,192,125841,1,0,0:0:0:0:
109,192,126267,1,0,0:0:0:0:
475,192,126267,1,0,0:0:0:0:
36,192,126373,1,0,0:0:0:0:
475,192,126373,1,0,0:0:0:0:
256,192,126586,1,0,0:0:0:0:
36,192,126799,1,0,0:0:0:0:
402,192,126799,1,0,0:0:0:0:
36,192,126905,1,0,0:0:0:0:
475,192,126905,1,0,0:0:0:0:
182,192,127118,1,0,0:0:0:0:
329,192,127224,1,0,0:0:0:0:
182,192,127331,1,0,0:0:0:0:
329,192,127437,1,0,0:0:0:0:
36,192,127544,1,0,0:0:0:0:
475,192,127544,1,0,0:0:0:0:
402,192,127650,1,0,0:0:0:0:
109,192,127650,1,0,0:0:0:0:
36,192,127863,1,0,0:0:0:0:
475,192,127863,1,0,0:0:0:0:
109,192,127969,1,0,0:0:0:0:
402,192,127969,1,0,0:0:0:0:
109,192,128075,1,0,0:0:0:0:
402,192,128075,1,0,0:0:0:0:
36,192,128288,1,0,0:0:0:0:
475,192,128288,1,0,0:0:0:0:
256,192,128501,1,0,0:0:0:0:
402,192,128501,1,0,0:0:0:0:
256,192,128607,1,0,0:0:0:0:
402,192,128607,1,0,0:0:0:0:
109,192,128820,1,0,0:0:0:0:
256,192,128820,1,0,0:0:0:0:
256,192,128927,1,0,0:0:0:0:
109,192,128927,1,0,0:0:0:0:
36,192,129139,1,0,0:0:0:0:
475,192,129139,1,0,0:0:0:0:
256,192,129352,1,0,0:0:0:0:
402,192,129352,1,0,0:0:0:0:
256,192,129458,1,0,0:0:0:0:
402,192,129458,1,0,0:0:0:0:
36,192,129671,1,0,0:0:0:0:
475,192,129671,1,0,0:0:0:0:
36,192,130522,1,0,0:0:0:0:
475,192,130522,1,0,0:0:0:0:
475,192,130841,1,0,0:0:0:0:
36,192,130841,1,0,0:0:0:0:
109,192,131161,1,0,0:0:0:0:
402,192,131161,1,0,0:0:0:0:
475,192,131373,1,0,0:0:0:0:
36,192,131373,1,0,0:0:0:0:
402,192,131480,1,0,0:0:0:0:
329,192,131586,1,0,0:0:0:0:
256,192,131692,1,0,0:0:0:0:
329,192,131799,1,0,0:0:0:0:
402,192,131905,1,0,0:0:0:0:
36,192,132012,1,0,0:0:0:0:
256,192,132012,1,0,0:0:0:0:
109,192,132118,1,0,0:0:0:0:
182,192,132224,1,0,0:0:0:0:
329,192,132331,1,0,0:0:0:0:
256,192,132437,1,0,0:0:0:0:
329,192,132544,1,0,0:0:0:0:
475,192,132650,1,0,0:0:0:0:
109,192,132650,1,0,0:0:0:0:
256,192,132756,1,0,0:0:0:0:
182,192,132863,1,0,0:0:0:0:
329,192,132969,1,0,0:0:0:0:
256,192,133075,1,0,0:0:0:0:
182,192,133182,1,0,0:0:0:0:
36,192,133288,1,0,0:0:0:0:
402,192,133288,1,0,0:0:0:0:
329,192,133395,1,0,0:0:0:0:
475,192,133501,1,0,0:0:0:0:
402,192,133607,1,0,0:0:0:0:
329,192,133714,1,0,0:0:0:0:
182,192,133820,1,0,0:0:0:0:
256,192,133927,1,0,0:0:0:0:
36,192,133927,1,0,0:0:0:0:
109,192,134246,1,0,0:0:0:0:
329,192,134246,1,0,0:0:0:0:
182,192,134565,1,0,0:0:0:0:
402,192,134565,1,0,0:0:0:0:
475,192,134778,1,0,0:0:0:0:
36,192,134778,1,0,0:0:0:0:
109,192,135629,1,0,0:0:0:0:
402,192,135735,1,0,0:0:0:0:
109,192,135841,1,0,0:0:0:0:
402,192,135948,1,0,0:0:0:0:
109,192,136054,1,0,0:0:0:0:
256,192,136054,128,0,136480:0:0:0:0:
36,192,136480,1,0,0:0:0:0:
402,192,136480,1,0,0:0:0:0:
475,192,136480,128,0,138182:0:0:0:0:
109,192,136692,1,0,0:0:0:0:
329,192,136692,1,0,0:0:0:0:
182,192,136905,1,0,0:0:0:0:
36,192,137118,1,0,0:0:0:0:
329,192,137118,1,0,0:0:0:0:
256,192,137331,1,0,0:0:0:0:
402,192,137544,1,0,0:0:0:0:
109,192,137544,1,0,0:0:0:0:
256,192,137756,1,0,0:0:0:0:
36,192,137969,1,0,0:0:0:0:
182,192,137969,1,0,0:0:0:0:
109,192,138182,1,0,0:0:0:0:
402,192,138288,1,0,0:0:0:0:
109,192,138395,1,0,0:0:0:0:
402,192,138501,1,0,0:0:0:0:
36,192,138607,1,0,0:0:0:0:
329,192,138714,1,0,0:0:0:0:
36,192,138820,1,0,0:0:0:0:
329,192,138927,1,0,0:0:0:0:
109,192,139033,1,0,0:0:0:0:
402,192,139139,1,0,0:0:0:0:
109,192,139246,1,0,0:0:0:0:
402,192,139352,1,0,0:0:0:0:
36,192,139458,1,0,0:0:0:0:
182,192,139565,1,0,0:0:0:0:
109,192,139671,1,0,0:0:0:0:
256,192,139778,1,0,0:0:0:0:
182,192,139884,1,0,0:0:0:0:
475,192,139884,128,0,141586:0:0:0:0:
402,192,140097,1,0,0:0:0:0:
36,192,140097,1,0,0:0:0:0:
109,192,140309,1,0,0:0:0:0:
182,192,140522,1,0,0:0:0:0:
329,192,140522,1,0,0:0:0:0:
109,192,140735,1,0,0:0:0:0:
36,192,140948,1,0,0:0:0:0:
329,192,140948,1,0,0:0:0:0:
182,192,141161,1,0,0:0:0:0:
402,192,141373,1,0,0:0:0:0:
109,192,141373,1,0,0:0:0:0:
256,192,141586,1,0,0:0:0:0:
109,192,141692,1,0,0:0:0:0:
329,192,141799,1,0,0:0:0:0:
182,192,141905,1,0,0:0:0:0:
402,192,142012,1,0,0:0:0:0:
256,192,142118,1,0,0:0:0:0:
475,192,142224,1,0,0:0:0:0:
329,192,142331,1,0,0:0:0:0:
36,192,142437,1,0,0:0:0:0:
475,192,142437,1,0,0:0:0:0:
36,192,142650,1,0,0:0:0:0:
475,192,142650,1,0,0:0:0:0:
109,192,142863,1,0,0:0:0:0:
402,192,142863,1,0,0:0:0:0:
36,192,142969,1,0,0:0:0:0:
475,192,142969,1,0,0:0:0:0:
109,192,143075,1,0,0:0:0:0:
402,192,143075,1,0,0:0:0:0:
36,192,143182,1,0,0:0:0:0:
475,192,143182,1,0,0:0:0:0:
109,192,143288,1,0,0:0:0:0:
402,192,143288,1,0,0:0:0:0:
36,192,143501,1,0,0:0:0:0:
256,192,143501,1,0,0:0:0:0:
36,192,143607,1,0,0:0:0:0:
182,192,143820,1,0,0:0:0:0:
182,192,143927,1,0,0:0:0:0:
402,192,143927,1,0,0:0:0:0:
36,192,144139,1,0,0:0:0:0:
475,192,144139,1,0,0:0:0:0:
182,192,144352,1,0,0:0:0:0:
329,192,144352,1,0,0:0:0:0:
402,192,144458,1,0,0:0:0:0:
109,192,144671,1,0,0:0:0:0:
182,192,144778,1,0,0:0:0:0:
329,192,144778,1,0,0:0:0:0:
402,192,144884,1,0,0:0:0:0:
256,192,144990,1,0,0:0:0:0:
36,192,144990,1,0,0:0:0:0:
182,192,145203,1,0,0:0:0:0:
475,192,145203,1,0,0:0:0:0:
256,192,145309,1,0,0:0:0:0:
109,192,145522,1,0,0:0:0:0:
182,192,145629,1,0,0:0:0:0:
402,192,145629,1,0,0:0:0:0:
475,192,145841,1,0,0:0:0:0:
256,192,145841,1,0,0:0:0:0:
36,192,146054,1,0,0:0:0:0:
329,192,146054,1,0,0:0:0:0:
36,192,146161,1,0,0:0:0:0:
182,192,146373,1,0,0:0:0:0:
256,192,146480,1,0,0:0:0:0:
402,192,146480,1,0,0:0:0:0:
329,192,146692,128,0,148395:0:0:0:0:
36,192,146692,1,0,0:0:0:0:
475,192,146692,1,0,0:0:0:0:
109,192,146905,1,0,0:0:0:0:
182,192,147012,1,0,0:0:0:0:
402,192,147012,1,0,0:0:0:0:
109,192,147224,1,0,0:0:0:0:
36,192,147331,1,0,0:0:0:0:
475,192,147331,1,0,0:0:0:0:
109,192,147544,1,0,0:0:0:0:
402,192,147544,1,0,0:0:0:0:
36,192,147756,1,0,0:0:0:0:
475,192,147756,1,0,0:0:0:0:
109,192,147863,1,0,0:0:0:0:
182,192,147969,1,0,0:0:0:0:
402,192,148182,1,0,0:0:0:0:
36,192,148182,1,0,0:0:0:0:
109,192,148395,1,0,0:0:0:0:
475,192,148395,1,0,0:0:0:0:
402,192,148607,1,0,0:0:0:0:
182,192,148607,1,0,0:0:0:0:
402,192,148714,1,0,0:0:0:0:
182,192,148714,1,0,0:0:0:0:
36,192,148927,1,0,0:0:0:0:
256,192,148927,1,0,0:0:0:0:
36,192,149033,1,0,0:0:0:0:
256,192,149033,1,0,0:0:0:0:
109,192,149246,1,0,0:0:0:0:
475,192,149246,1,0,0:0:0:0:
329,192,149352,1,0,0:0:0:0:
182,192,149458,1,0,0:0:0:0:
475,192,149458,1,0,0:0:0:0:
36,192,149671,1,0,0:0:0:0:
256,192,149778,1,0,0:0:0:0:
109,192,149884,1,0,0:0:0:0:
329,192,149990,1,0,0:0:0:0:
182,192,150097,1,0,0:0:0:0:
475,192,150097,128,0,152650:0:0:0:0:
36,192,150309,1,0,0:0:0:0:
329,192,150309,1,0,0:0:0:0:
182,192,150522,1,0,0:0:0:0:
109,192,150735,1,0,0:0:0:0:
402,192,150735,1,0,0:0:0:0:
256,192,150948,1,0,0:0:0:0:
402,192,151161,1,0,0:0:0:0:
36,192,151161,1,0,0:0:0:0:
182,192,151373,1,0,0:0:0:0:
109,192,151586,1,0,0:0:0:0:
329,192,151586,1,0,0:0:0:0:
36,192,151799,1,0,0:0:0:0:
109,192,152012,1,0,0:0:0:0:
256,192,152012,1,0,0:0:0:0:
402,192,152224,1,0,0:0:0:0:
329,192,152437,1,0,0:0:0:0:
182,192,152437,1,0,0:0:0:0:
36,192,152650,128,0,152969:0:0:0:0:
256,192,152650,1,0,0:0:0:0:
109,192,152863,1,0,0:0:0:0:
402,192,152863,1,0,0:0:0:0:
402,192,152969,128,0,153288:0:0:0:0:
256,192,153075,1,0,0:0:0:0:
36,192,153288,1,0,0:0:0:0:
182,192,153288,1,0,0:0:0:0:
109,192,153501,128,0,155203:0:0:0:0:
329,192,153501,1,0,0:0:0:0:
475,192,153714,1,0,0:0:0:0:
182,192,153714,1,0,0:0:0:0:
329,192,153927,1,0,0:0:0:0:
36,192,154139,1,0,0:0:0:0:
402,192,154139,1,0,0:0:0:0:
256,192,154352,1,0,0:0:0:0:
182,192,154565,1,0,0:0:0:0:
402,192,154565,1,0,0:0:0:0:
475,192,154778,1,0,0:0:0:0:
402,192,154990,1,0,0:0:0:0:
256,192,154990,1,0,0:0:0:0:
475,192,155203,1,0,0:0:0:0:
402,192,155309,1,0,0:0:0:0:
329,192,155416,1,0,0:0:0:0:
182,192,155416,1,0,0:0:0:0:
36,192,155629,1,0,0:0:0:0:
109,192,155735,1,0,0:0:0:0:
182,192,155841,1,0,0:0:0:0:
329,192,155841,1,0,0:0:0:0:
475,192,156054,128,0,156373:0:0:0:0:
109,192,156054,1,0,0:0:0:0:
182,192,156161,1,0,0:0:0:0:
256,192,156267,1,0,0:0:0:0:
402,192,156267,1,0,0:0:0:0:
109,192,156373,128,0,156692:0:0:0:0:
329,192,156480,1,0,0:0:0:0:
182,192,156480,1,0,0:0:0:0:
402,192,156692,1,0,0:0:0:0:
256,192,156692,1,0,0:0:0:0:
329,192,156799,1,0,0:0:0:0:
182,192,156799,1,0,0:0:0:0:
402,192,156905,128,0,157756:0:0:0:0:
256,192,156905,1,0,0:0:0:0:
109,192,156905,1,0,0:0:0:0:
36,192,157118,1,0,0:0:0:0:
182,192,157118,1,0,0:0:0:0:
109,192,157224,1,0,0:0:0:0:
329,192,157437,1,0,0:0:0:0:
256,192,157544,1,0,0:0:0:0:
109,192,157544,1,0,0:0:0:0:
182,192,157650,1,0,0:0:0:0:
36,192,157756,128,0,158182:0:0:0:0:
256,192,157756,1,0,0:0:0:0:
475,192,157756,1,0,0:0:0:0:
109,192,157969,1,0,0:0:0:0:
329,192,157969,1,0,0:0:0:0:
182,192,158075,1,0,0:0:0:0:
475,192,158182,128,0,158607:0:0:0:0:
402,192,158288,1,0,0:0:0:0:
329,192,158395,1,0,0:0:0:0:
36,192,158395,1,0,0:0:0:0:
36,192,158607,128,0,158927:0:0:0:0:
182,192,158607,1,0,0:0:0:0:
402,192,158607,1,0,0:0:0:0:
329,192,158820,1,0,0:0:0:0:
109,192,158820,1,0,0:0:0:0:
402,192,158927,128,0,159246:0:0:0:0:
182,192,158927,1,0,0:0:0:0:
36,192,159139,1,0,0:0:0:0:
109,192,159246,1,0,0:0:0:0:
256,192,159246,1,0,0:0:0:0:
182,192,159352,1,0,0:0:0:0:
109,192,159458,128,0,160309:0:0:0:0:
256,192,159458,1,0,0:0:0:0:
475,192,159458,1,0,0:0:0:0:
402,192,159671,1,0,0:0:0:0:
182,192,159671,1,0,0:0:0:0:
475,192,159778,1,0,0:0:0:0:
36,192,159884,128,0,160309:0:0:0:0:
182,192,159990,1,0,0:0:0:0:
475,192,160097,1,0,0:0:0:0:
256,192,160097,1,0,0:0:0:0:
475,192,160309,128,0,162012:0:0:0:0:
402,192,160309,1,0,0:0:0:0:
182,192,160309,1,0,0:0:0:0:
36,192,160522,1,0,0:0:0:0:
256,192,160522,1,0,0:0:0:0:
36,192,160629,1,0,0:0:0:0:
109,192,160841,1,0,0:0:0:0:
182,192,160948,1,0,0:0:0:0:
329,192,160948,1,0,0:0:0:0:
402,192,161161,1,0,0:0:0:0:
36,192,161161,1,0,0:0:0:0:
182,192,161373,1,0,0:0:0:0:
329,192,161373,1,0,0:0:0:0:
109,192,161480,1,0,0:0:0:0:
402,192,161692,1,0,0:0:0:0:
329,192,161799,1,0,0:0:0:0:
36,192,161799,1,0,0:0:0:0:
109,192,162012,1,0,0:0:0:0:
402,192,162012,1,0,0:0:0:0:
36,192,162224,128,0,163714:0:0:0:0:
256,192,162224,1,0,0:0:0:0:
475,192,162224,1,0,0:0:0:0:
182,192,162331,1,0,0:0:0:0:
402,192,162544,1,0,0:0:0:0:
402,192,162650,1,0,0:0:0:0:
182,192,162650,1,0,0:0:0:0:
109,192,162863,1,0,0:0:0:0:
475,192,162863,1,0,0:0:0:0:
256,192,163075,1,0,0:0:0:0:
402,192,163075,1,0,0:0:0:0:
256,192,163182,1,0,0:0:0:0:
109,192,163395,1,0,0:0:0:0:
182,192,163501,1,0,0:0:0:0:
402,192,163501,1,0,0:0:0:0:
475,192,163714,128,0,164139:0:0:0:0:
256,192,163714,1,0,0:0:0:0:
402,192,163927,128,0,164139:0:0:0:0:
182,192,163927,1,0,0:0:0:0:
329,192,164139,128,0,164565:0:0:0:0:
109,192,164139,1,0,0:0:0:0:
402,192,164352,128,0,164565:0:0:0:0:
36,192,164352,1,0,0:0:0:0:
182,192,164565,128,0,164990:0:0:0:0:
109,192,164565,1,0,0:0:0:0:
256,192,164778,128,0,164990:0:0:0:0:
36,192,164778,1,0,0:0:0:0:
109,192,164990,1,0,0:0:0:0:
402,192,164990,1,0,0:0:0:0:
109,192,165097,1,0,0:0:0:0:
402,192,165097,1,0,0:0:0:0:
109,192,165203,1,0,0:0:0:0:
402,192,165203,1,0,0:0:0:0:
475,192,165416,128,0,165841:0:0:0:0:
329,192,165416,1,0,0:0:0:0:
36,192,165416,1,0,0:0:0:0:
36,192,165841,128,0,166267:0:0:0:0:
256,192,165841,1,0,0:0:0:0:
402,192,166267,128,0,166692:0:0:0:0:
182,192,166267,1,0,0:0:0:0:
329,192,166267,1,0,0:0:0:0:
182,192,166692,128,0,167118:0:0:0:0:
36,192,166692,1,0,0:0:0:0:
36,192,167118,128,0,167969:0:0:0:0:
109,192,167118,1,0,0:0:0:0:
402,192,167118,1,0,0:0:0:0:
475,192,167331,1,0,0:0:0:0:
402,192,167437,1,0,0:0:0:0:
329,192,167544,1,0,0:0:0:0:
256,192,167650,1,0,0:0:0:0:
109,192,167756,1,0,0:0:0:0:
182,192,167863,1,0,0:0:0:0:
475,192,167969,128,0,168820:0:0:0:0:
256,192,167969,1,0,0:0:0:0:
109,192,168182,1,0,0:0:0:0:
36,192,168395,1,0,0:0:0:0:
402,192,168395,1,0,0:0:0:0:
109,192,168501,1,0,0:0:0:0:
182,192,168607,1,0,0:0:0:0:
256,192,168714,1,0,0:0:0:0:
329,192,168820,128,0,169671:0:0:0:0:
402,192,168820,1,0,0:0:0:0:
36,192,168820,1,0,0:0:0:0:
109,192,168927,1,0,0:0:0:0:
182,192,169033,1,0,0:0:0:0:
256,192,169139,1,0,0:0:0:0:
36,192,169246,1,0,0:0:0:0:
475,192,169246,1,0,0:0:0:0:
109,192,169352,1,0,0:0:0:0:
182,192,169458,1,0,0:0:0:0:
256,192,169565,1,0,0:0:0:0:
36,192,169671,128,0,170522:0:0:0:0:
402,192,169671,1,0,0:0:0:0:
475,192,169778,1,0,0:0:0:0:
329,192,169884,1,0,0:0:0:0:
402,192,169990,1,0,0:0:0:0:
256,192,170097,1,0,0:0:0:0:
329,192,170203,1,0,0:0:0:0:
256,192,170309,1,0,0:0:0:0:
182,192,170416,1,0,0:0:0:0:
402,192,170522,128,0,170948:0:0:0:0:
109,192,170522,1,0,0:0:0:0:
475,192,170522,1,0,0:0:0:0:
182,192,170629,1,0,0:0:0:0:
256,192,170735,1,0,0:0:0:0:
36,192,170948,1,0,0:0:0:0:
329,192,170948,1,0,0:0:0:0:
109,192,170948,128,0,171373:0:0:0:0:
256,192,171054,1,0,0:0:0:0:
329,192,171161,1,0,0:0:0:0:
402,192,171267,1,0,0:0:0:0:
329,192,171373,128,0,171799:0:0:0:0:
475,192,171373,1,0,0:0:0:0:
182,192,171586,1,0,0:0:0:0:
109,192,171692,1,0,0:0:0:0:
182,192,171799,128,0,172224:0:0:0:0:
402,192,171799,1,0,0:0:0:0:
36,192,171799,1,0,0:0:0:0:
256,192,172012,1,0,0:0:0:0:
475,192,172224,128,0,172650:0:0:0:0:
402,192,172224,1,0,0:0:0:0:
36,192,172224,1,0,0:0:0:0:
329,192,172331,1,0,0:0:0:0:
256,192,172437,1,0,0:0:0:0:
182,192,172544,1,0,0:0:0:0:
36,192,172650,128,0,173075:0:0:0:0:
109,192,172650,1,0,0:0:0:0:
182,192,172756,1,0,0:0:0:0:
256,192,172863,1,0,0:0:0:0:
329,192,172969,1,0,0:0:0:0:
475,192,173075,128,0,173501:0:0:0:0:
402,192,173075,1,0,0:0:0:0:
256,192,173182,1,0,0:0:0:0:
329,192,173288,1,0,0:0:0:0:
182,192,173395,1,0,0:0:0:0:
36,192,173501,128,0,173927:0:0:0:0:
256,192,173501,1,0,0:0:0:0:
109,192,173607,1,0,0:0:0:0:
329,192,173714,1,0,0:0:0:0:
182,192,173820,1,0,0:0:0:0:
256,192,173927,128,0,175629:0:0:0:0:
475,192,173927,1,0,0:0:0:0:
109,192,173927,1,0,0:0:0:0:
36,192,174778,1,0,0:0:0:0:
109,192,174884,1,0,0:0:0:0:
182,192,174990,1,0,0:0:0:0:
109,192,175097,1,0,0:0:0:0:
36,192,175203,1,0,0:0:0:0:
475,192,175203,1,0,0:0:0:0:
402,192,175309,1,0,0:0:0:0:
329,192,175416,1,0,0:0:0:0:
402,192,175522,1,0,0:0:0:0:
475,192,175629,1,0,0:0:0:0:
36,192,175629,1,0,0:0:0:0:
36,192,176480,1,0,0:0:0:0:
256,192,176480,1,0,0:0:0:0:
475,192,176480,1,0,0:0:0:0:
109,192,176905,1,0,0:0:0:0:
402,192,176905,1,0,0:0:0:0:
36,192,177331,1,0,0:0:0:0:
109,192,177437,1,0,0:0:0:0:
182,192,177544,1,0,0:0:0:0:
475,192,177544,1,0,0:0:0:0:
109,192,177756,1,0,0:0:0:0:
182,192,177863,1,0,0:0:0:0:
256,192,177969,1,0,0:0:0:0:
475,192,177969,1,0,0:0:0:0:
36,192,178182,1,0,0:0:0:0:
182,192,178288,1,0,0:0:0:0:
109,192,178395,1,0,0:0:0:0:
402,192,178395,1,0,0:0:0:0:
256,192,178501,1,0,0:0:0:0:
182,192,178607,1,0,0:0:0:0:
182,192,178820,1,0,0:0:0:0:
475,192,178820,1,0,0:0:0:0:
109,192,178927,1,0,0:0:0:0:
36,192,179033,1,0,0:0:0:0:
109,192,179139,1,0,0:0:0:0:
182,192,179246,1,0,0:0:0:0:
475,192,179246,1,0,0:0:0:0:
36,192,179458,1,0,0:0:0:0:
109,192,179565,1,0,0:0:0:0:
182,192,179671,1,0,0:0:0:0:
402,192,179671,1,0,0:0:0:0:
256,192,179884,1,0,0:0:0:0:
182,192,179990,1,0,0:0:0:0:
109,192,180097,1,0,0:0:0:0:
475,192,180097,1,0,0:0:0:0:
182,192,180203,1,0,0:0:0:0:
109,192,180309,1,0,0:0:0:0:
182,192,180416,1,0,0:0:0:0:
256,192,180522,1,0,0:0:0:0:
36,192,180522,1,0,0:0:0:0:
329,192,180629,1,0,0:0:0:0:
402,192,180735,1,0,0:0:0:0:
109,192,180948,1,0,0:0:0:0:
475,192,180948,1,0,0:0:0:0:
182,192,181054,1,0,0:0:0:0:
256,192,181161,1,0,0:0:0:0:
182,192,181373,1,0,0:0:0:0:
475,192,181373,1,0,0:0:0:0:
256,192,181480,1,0,0:0:0:0:
329,192,181586,1,0,0:0:0:0:
256,192,181799,1,0,0:0:0:0:
36,192,181799,1,0,0:0:0:0:
329,192,181905,1,0,0:0:0:0:
402,192,182012,1,0,0:0:0:0:
329,192,182118,1,0,0:0:0:0:
109,192,182224,1,0,0:0:0:0:
475,192,182224,1,0,0:0:0:0:
182,192,182331,1,0,0:0:0:0:
256,192,182437,1,0,0:0:0:0:
36,192,182437,128,0,182544:0:0:0:0:
475,192,182544,128,0,182650:0:0:0:0:
109,192,182650,128,0,182756:0:0:0:0:
402,192,182756,128,0,182863:0:0:0:0:
182,192,182863,128,0,182969:0:0:0:0:
329,192,182969,128,0,183075:0:0:0:0:
109,192,183075,128,0,183182:0:0:0:0:
402,192,183182,128,0,183288:0:0:0:0:
36,192,183288,1,0,0:0:0:0:
475,192,183288,1,0,0:0:0:0:
36,192,183501,1,0,0:0:0:0:
475,192,183501,1,0,0:0:0:0:
182,192,183714,1,0,0:0:0:0:
182,192,183820,1,0,0:0:0:0:
329,192,183927,1,0,0:0:0:0:
329,192,184033,1,0,0:0:0:0:
36,192,184139,128,0,185841:0:0:0:0:
109,192,184139,1,0,0:0:0:0:
256,192,184139,1,0,0:0:0:0:
182,192,184352,1,0,0:0:0:0:
475,192,184352,1,0,0:0:0:0:
109,192,184565,1,0,0:0:0:0:
182,192,184778,1,0,0:0:0:0:
256,192,184884,1,0,0:0:0:0:
329,192,184990,1,0,0:0:0:0:
402,192,185097,1,0,0:0:0:0:
109,192,185203,1,0,0:0:0:0:
182,192,185309,1,0,0:0:0:0:
256,192,185416,1,0,0:0:0:0:
329,192,185522,1,0,0:0:0:0:
256,192,185629,1,0,0:0:0:0:
182,192,185735,1,0,0:0:0:0:
475,192,185841,128,0,187544:0:0:0:0:
109,192,185841,1,0,0:0:0:0:
402,192,185841,1,0,0:0:0:0:
36,192,186054,1,0,0:0:0:0:
256,192,186054,1,0,0:0:0:0:
329,192,186267,1,0,0:0:0:0:
109,192,186480,1,0,0:0:0:0:
256,192,186480,1,0,0:0:0:0:
36,192,186692,1,0,0:0:0:0:
109,192,186905,1,0,0:0:0:0:
402,192,186905,1,0,0:0:0:0:
182,192,187118,1,0,0:0:0:0:
256,192,187331,1,0,0:0:0:0:
402,192,187331,1,0,0:0:0:0:
109,192,187544,128,0,187969:0:0:0:0:
329,192,187544,1,0,0:0:0:0:
256,192,187756,1,0,0:0:0:0:
36,192,187756,1,0,0:0:0:0:
182,192,187969,1,0,0:0:0:0:
329,192,188182,1,0,0:0:0:0:
475,192,188182,1,0,0:0:0:0:
109,192,188395,128,0,188820:0:0:0:0:
182,192,188395,1,0,0:0:0:0:
329,192,188607,1,0,0:0:0:0:
36,192,188607,1,0,0:0:0:0:
256,192,188820,1,0,0:0:0:0:
182,192,189033,1,0,0:0:0:0:
475,192,189033,1,0,0:0:0:0:
36,192,189246,1,0,0:0:0:0:
109,192,189352,1,0,0:0:0:0:
182,192,189458,1,0,0:0:0:0:
256,192,189565,1,0,0:0:0:0:
329,192,189671,1,0,0:0:0:0:
256,192,189778,1,0,0:0:0:0:
182,192,189884,1,0,0:0:0:0:
36,192,190097,1,0,0:0:0:0:
475,192,190097,1,0,0:0:0:0:
109,192,190203,1,0,0:0:0:0:
182,192,190309,1,0,0:0:0:0:
256,192,190416,1,0,0:0:0:0:
329,192,190522,1,0,0:0:0:0:
182,192,190629,1,0,0:0:0:0:
256,192,190735,1,0,0:0:0:0:
36,192,190948,128,0,191267:0:0:0:0:
182,192,190948,1,0,0:0:0:0:
475,192,191161,1,0,0:0:0:0:
329,192,191161,1,0,0:0:0:0:
109,192,191267,128,0,191586:0:0:0:0:
256,192,191373,1,0,0:0:0:0:
36,192,191586,1,0,0:0:0:0:
329,192,191586,1,0,0:0:0:0:
475,192,191586,128,0,191905:0:0:0:0:
182,192,191799,1,0,0:0:0:0:
402,192,191905,128,0,192224:0:0:0:0:
109,192,192012,1,0,0:0:0:0:
256,192,192012,1,0,0:0:0:0:
36,192,192224,1,0,0:0:0:0:
402,192,192437,1,0,0:0:0:0:
109,192,192437,1,0,0:0:0:0:
36,192,192650,128,0,192969:0:0:0:0:
182,192,192650,1,0,0:0:0:0:
475,192,192863,1,0,0:0:0:0:
329,192,192863,1,0,0:0:0:0:
109,192,192969,128,0,193288:0:0:0:0:
182,192,193075,1,0,0:0:0:0:
329,192,193288,1,0,0:0:0:0:
36,192,193288,1,0,0:0:0:0:
475,192,193288,128,0,193607:0:0:0:0:
256,192,193501,1,0,0:0:0:0:
402,192,193607,128,0,193927:0:0:0:0:
182,192,193714,1,0,0:0:0:0:
329,192,193714,1,0,0:0:0:0:
36,192,193927,1,0,0:0:0:0:
109,192,194139,1,0,0:0:0:0:
475,192,194139,1,0,0:0:0:0:
36,192,194352,128,0,194671:0:0:0:0:
182,192,194352,1,0,0:0:0:0:
256,192,194565,1,0,0:0:0:0:
475,192,194565,1,0,0:0:0:0:
109,192,194671,128,0,194990:0:0:0:0:
475,192,194671,1,0,0:0:0:0:
329,192,194884,1,0,0:0:0:0:
329,192,194990,1,0,0:0:0:0:
36,192,194990,1,0,0:0:0:0:
475,192,195203,128,0,195522:0:0:0:0:
109,192,195203,1,0,0:0:0:0:
182,192,195416,1,0,0:0:0:0:
329,192,195416,1,0,0:0:0:0:
402,192,195522,128,0,195841:0:0:0:0:
36,192,195629,1,0,0:0:0:0:
109,192,195735,1,0,0:0:0:0:
182,192,195841,1,0,0:0:0:0:
256,192,195948,1,0,0:0:0:0:
475,192,196054,128,0,197756:0:0:0:0:
109,192,196054,1,0,0:0:0:0:
36,192,196054,128,0,196905:0:0:0:0:
402,192,196054,1,0,0:0:0:0:
36,192,197756,1,0,0:0:0:0:
475,192,199458,1,0,0:0:0:0:
109,192,200309,1,0,0:0:0:0:
475,192,200735,1,0,0:0:0:0:
36,192,201161,1,0,0:0:0:0:
329,192,202012,5,0,0:0:0:0:
182,192,202437,1,0,0:0:0:0:
475,192,202650,1,0,0:0:0:0:
36,192,202863,1,0,0:0:0:0:
475,192,203288,1,0,0:0:0:0:
256,192,203927,1,0,0:0:0:0:
109,192,204139,128,0,204565:0:0:0:0:
402,192,204565,1,0,0:0:0:0:
256,192,206267,1,0,0:0:0:0:
475,192,207118,1,0,0:0:0:0:
36,192,207544,1,0,0:0:0:0:
109,192,207969,1,0,0:0:0:0:
402,192,208288,1,0,0:0:0:0:
475,192,209671,1,0,0:0:0:0:
36,192,210522,1,0,0:0:0:0:
475,192,210841,1,0,0:0:0:0:
109,192,211161,1,0,0:0:0:0:
36,192,211373,1,0,0:0:0:0:
109,192,211480,1,0,0:0:0:0:
182,192,211586,1,0,0:0:0:0:
256,192,211692,1,0,0:0:0:0:
475,192,211799,1,0,0:0:0:0:
402,192,211905,1,0,0:0:0:0:
329,192,212012,1,0,0:0:0:0:
36,192,212012,1,0,0:0:0:0:
256,192,212118,1,0,0:0:0:0:
182,192,212224,1,0,0:0:0:0:
109,192,212331,1,0,0:0:0:0:
182,192,212437,1,0,0:0:0:0:
256,192,212544,1,0,0:0:0:0:
475,192,212650,1,0,0:0:0:0:
36,192,212650,1,0,0:0:0:0:
402,192,212756,1,0,0:0:0:0:
329,192,212863,1,0,0:0:0:0:
256,192,212969,1,0,0:0:0:0:
36,192,213075,1,0,0:0:0:0:
109,192,213182,1,0,0:0:0:0:
182,192,213288,1,0,0:0:0:0:
402,192,213288,1,0,0:0:0:0:
329,192,213395,1,0,0:0:0:0:
256,192,213501,1,0,0:0:0:0:
109,192,213607,1,0,0:0:0:0:
182,192,213714,1,0,0:0:0:0:
329,192,213820,1,0,0:0:0:0:
36,192,213927,1,0,0:0:0:0:
256,192,213927,1,0,0:0:0:0:
475,192,213927,1,0,0:0:0:0:
36,192,214246,1,0,0:0:0:0:
256,192,214246,1,0,0:0:0:0:
475,192,214246,1,0,0:0:0:0:
109,192,214565,1,0,0:0:0:0:
256,192,214565,1,0,0:0:0:0:
402,192,214565,1,0,0:0:0:0:
109,192,214778,1,0,0:0:0:0:
402,192,214778,1,0,0:0:0:0:
256,192,214778,128,0,215629:0:0:0:0:
36,192,216480,1,0,0:0:0:0:
109,192,216533,1,0,0:0:0:0:
182,192,216586,1,0,0:0:0:0:
256,192,216639,1,0,0:0:0:0:
329,192,216692,1,0,0:0:0:0:
402,192,216746,1,0,0:0:0:0:
475,192,216799,1,0,0:0:0:0:
402,192,216852,1,0,0:0:0:0:
329,192,216905,1,0,0:0:0:0:
256,192,216958,1,0,0:0:0:0:
182,192,217012,1,0,0:0:0:0:
109,192,217065,1,0,0:0:0:0:
36,192,217118,1,0,0:0:0:0:
109,192,217171,1,0,0:0:0:0:
182,192,217224,1,0,0:0:0:0:
256,192,217278,1,0,0:0:0:0:
329,192,217331,1,0,0:0:0:0:
402,192,217384,1,0,0:0:0:0:
475,192,217437,1,0,0:0:0:0:
402,192,217490,1,0,0:0:0:0:
329,192,217544,1,0,0:0:0:0:
256,192,217597,1,0,0:0:0:0:
182,192,217650,1,0,0:0:0:0:
109,192,217703,1,0,0:0:0:0:
36,192,217756,1,0,0:0:0:0:
402,192,217863,1,0,0:0:0:0:
109,192,217969,1,0,0:0:0:0:
402,192,218075,1,0,0:0:0:0:
329,192,218182,1,0,0:0:0:0:
182,192,218182,1,0,0:0:0:0:
36,192,218182,128,0,221161:0:0:0:0:
256,192,218395,1,0,0:0:0:0:
475,192,218395,1,0,0:0:0:0:
182,192,218607,1,0,0:0:0:0:
109,192,218820,1,0,0:0:0:0:
402,192,218820,1,0,0:0:0:0:
256,192,219033,1,0,0:0:0:0:
182,192,219246,1,0,0:0:0:0:
475,192,219246,1,0,0:0:0:0:
329,192,219458,1,0,0:0:0:0:
109,192,219671,1,0,0:0:0:0:
475,192,219671,1,0,0:0:0:0:
256,192,219884,1,0,0:0:0:0:
182,192,220097,1,0,0:0:0:0:
402,192,220097,1,0,0:0:0:0:
329,192,220309,1,0,0:0:0:0:
256,192,220522,1,0,0:0:0:0:
109,192,220522,1,0,0:0:0:0:
402,192,220735,1,0,0:0:0:0:
182,192,220948,1,0,0:0:0:0:
475,192,220948,1,0,0:0:0:0:
475,192,221161,128,0,221586:0:0:0:0:
329,192,221161,1,0,0:0:0:0:
36,192,221373,1,0,0:0:0:0:
402,192,221373,1,0,0:0:0:0:
109,192,221586,128,0,223288:0:0:0:0:
182,192,221586,1,0,0:0:0:0:
256,192,221799,1,0,0:0:0:0:
475,192,221799,1,0,0:0:0:0:
402,192,222012,1,0,0:0:0:0:
36,192,222224,1,0,0:0:0:0:
475,192,222224,1,0,0:0:0:0:
256,192,222437,1,0,0:0:0:0:
182,192,222650,1,0,0:0:0:0:
402,192,222650,1,0,0:0:0:0:
475,192,222863,1,0,0:0:0:0:
402,192,223075,1,0,0:0:0:0:
36,192,223075,1,0,0:0:0:0:
329,192,223288,1,0,0:0:0:0:
36,192,223288,1,0,0:0:0:0:
402,192,223395,1,0,0:0:0:0:
475,192,223501,1,0,0:0:0:0:
36,192,223501,1,0,0:0:0:0:
256,192,223607,1,0,0:0:0:0:
329,192,223714,1,0,0:0:0:0:
36,192,223714,1,0,0:0:0:0:
402,192,223820,1,0,0:0:0:0:
182,192,223927,1,0,0:0:0:0:
36,192,223927,1,0,0:0:0:0:
256,192,224033,1,0,0:0:0:0:
475,192,224139,128,0,224458:0:0:0:0:
329,192,224139,1,0,0:0:0:0:
36,192,224139,1,0,0:0:0:0:
402,192,224352,1,0,0:0:0:0:
109,192,224352,1,0,0:0:0:0:
109,192,224458,128,0,224778:0:0:0:0:
182,192,224565,1,0,0:0:0:0:
475,192,224565,1,0,0:0:0:0:
329,192,224778,1,0,0:0:0:0:
36,192,224778,1,0,0:0:0:0:
256,192,224884,1,0,0:0:0:0:
402,192,224990,128,0,225841:0:0:0:0:
182,192,224990,1,0,0:0:0:0:
36,192,224990,1,0,0:0:0:0:
109,192,225203,1,0,0:0:0:0:
256,192,225203,1,0,0:0:0:0:
109,192,225309,1,0,0:0:0:0:
36,192,225522,1,0,0:0:0:0:
109,192,225629,1,0,0:0:0:0:
329,192,225629,1,0,0:0:0:0:
182,192,225735,1,0,0:0:0:0:
36,192,225841,128,0,226267:0:0:0:0:
256,192,225841,1,0,0:0:0:0:
475,192,225841,1,0,0:0:0:0:
182,192,226054,1,0,0:0:0:0:
402,192,226054,1,0,0:0:0:0:
256,192,226161,1,0,0:0:0:0:
475,192,226267,128,0,226692:0:0:0:0:
109,192,226373,1,0,0:0:0:0:
182,192,226480,1,0,0:0:0:0:
402,192,226480,1,0,0:0:0:0:
256,192,226586,1,0,0:0:0:0:
109,192,226692,128,0,227544:0:0:0:0:
329,192,226692,1,0,0:0:0:0:
36,192,226692,1,0,0:0:0:0:
256,192,226905,1,0,0:0:0:0:
475,192,226905,1,0,0:0:0:0:
475,192,227012,1,0,0:0:0:0:
402,192,227224,1,0,0:0:0:0:
402,192,227331,1,0,0:0:0:0:
256,192,227331,1,0,0:0:0:0:
329,192,227437,1,0,0:0:0:0:
475,192,227544,128,0,228395:0:0:0:0:
329,192,227544,1,0,0:0:0:0:
182,192,227544,1,0,0:0:0:0:
36,192,227756,1,0,0:0:0:0:
402,192,227756,1,0,0:0:0:0:
109,192,227863,1,0,0:0:0:0:
329,192,228075,1,0,0:0:0:0:
256,192,228182,1,0,0:0:0:0:
109,192,228182,1,0,0:0:0:0:
329,192,228288,1,0,0:0:0:0:
36,192,228395,128,0,230097:0:0:0:0:
402,192,228395,1,0,0:0:0:0:
182,192,228607,1,0,0:0:0:0:
475,192,228607,1,0,0:0:0:0:
182,192,228714,1,0,0:0:0:0:
402,192,228927,1,0,0:0:0:0:
182,192,229033,1,0,0:0:0:0:
475,192,229033,1,0,0:0:0:0:
256,192,229139,1,0,0:0:0:0:
329,192,229246,1,0,0:0:0:0:
109,192,229246,1,0,0:0:0:0:
182,192,229458,1,0,0:0:0:0:
402,192,229458,1,0,0:0:0:0:
256,192,229565,1,0,0:0:0:0:
109,192,229671,1,0,0:0:0:0:
182,192,229778,1,0,0:0:0:0:
402,192,229884,1,0,0:0:0:0:
256,192,229884,1,0,0:0:0:0:
475,192,230097,1,0,0:0:0:0:
402,192,230203,1,0,0:0:0:0:
329,192,230309,1,0,0:0:0:0:
36,192,230309,1,0,0:0:0:0:
256,192,230416,1,0,0:0:0:0:
36,192,230416,1,0,0:0:0:0:
475,192,230522,1,0,0:0:0:0:
36,192,230629,1,0,0:0:0:0:
402,192,230629,1,0,0:0:0:0:
36,192,230735,1,0,0:0:0:0:
329,192,230735,1,0,0:0:0:0:
256,192,230841,1,0,0:0:0:0:
36,192,230948,1,0,0:0:0:0:
475,192,230948,128,0,231373:0:0:0:0:
109,192,231054,1,0,0:0:0:0:
182,192,231161,1,0,0:0:0:0:
256,192,231267,1,0,0:0:0:0:
109,192,231373,1,0,0:0:0:0:
36,192,231373,128,0,231799:0:0:0:0:
182,192,231480,1,0,0:0:0:0:
256,192,231586,1,0,0:0:0:0:
329,192,231692,1,0,0:0:0:0:
475,192,231799,128,0,234352:0:0:0:0:
402,192,231799,1,0,0:0:0:0:
182,192,231799,1,0,0:0:0:0:
256,192,232012,1,0,0:0:0:0:
36,192,232012,1,0,0:0:0:0:
109,192,232224,1,0,0:0:0:0:
182,192,232437,1,0,0:0:0:0:
402,192,232437,1,0,0:0:0:0:
256,192,232650,1,0,0:0:0:0:
329,192,232863,1,0,0:0:0:0:
36,192,232863,1,0,0:0:0:0:
182,192,233075,1,0,0:0:0:0:
109,192,233288,1,0,0:0:0:0:
402,192,233288,1,0,0:0:0:0:
256,192,233501,1,0,0:0:0:0:
109,192,233714,1,0,0:0:0:0:
402,192,233714,1,0,0:0:0:0:
182,192,233927,1,0,0:0:0:0:
109,192,234139,1,0,0:0:0:0:
329,192,234139,1,0,0:0:0:0:
36,192,234352,1,0,0:0:0:0:
256,192,234352,1,0,0:0:0:0:
109,192,234458,1,0,0:0:0:0:
182,192,234565,1,0,0:0:0:0:
402,192,234565,1,0,0:0:0:0:
256,192,234671,1,0,0:0:0:0:
109,192,234778,1,0,0:0:0:0:
475,192,234778,1,0,0:0:0:0:
182,192,234884,1,0,0:0:0:0:
256,192,234990,1,0,0:0:0:0:
36,192,234990,1,0,0:0:0:0:
329,192,235097,1,0,0:0:0:0:
109,192,235203,128,0,236905:0:0:0:0:
475,192,235203,1,0,0:0:0:0:
256,192,235203,1,0,0:0:0:0:
402,192,235416,1,0,0:0:0:0:
36,192,235416,1,0,0:0:0:0:
256,192,235629,1,0,0:0:0:0:
182,192,235841,1,0,0:0:0:0:
475,192,235841,1,0,0:0:0:0:
402,192,236054,1,0,0:0:0:0:
329,192,236267,1,0,0:0:0:0:
36,192,236267,1,0,0:0:0:0:
256,192,236480,1,0,0:0:0:0:
182,192,236692,1,0,0:0:0:0:
475,192,236692,1,0,0:0:0:0:
402,192,236905,1,0,0:0:0:0:
36,192,236905,1,0,0:0:0:0:
256,192,237012,1,0,0:0:0:0:
402,192,237118,1,0,0:0:0:0:
256,192,237224,1,0,0:0:0:0:
329,192,237331,1,0,0:0:0:0:
36,192,237331,1,0,0:0:0:0:
182,192,237437,1,0,0:0:0:0:
329,192,237544,1,0,0:0:0:0:
182,192,237650,1,0,0:0:0:0:
36,192,237756,128,0,238075:0:0:0:0:
329,192,237756,1,0,0:0:0:0:
256,192,237863,1,0,0:0:0:0:
182,192,237969,1,0,0:0:0:0:
475,192,238075,128,0,238395:0:0:0:0:
109,192,238075,1,0,0:0:0:0:
36,192,238182,1,0,0:0:0:0:
402,192,238182,1,0,0:0:0:0:
182,192,238288,1,0,0:0:0:0:
329,192,238395,1,0,0:0:0:0:
109,192,238395,1,0,0:0:0:0:
329,192,238501,1,0,0:0:0:0:
109,192,238501,1,0,0:0:0:0:
182,192,238607,128,0,239458:0:0:0:0:
402,192,238607,1,0,0:0:0:0:
36,192,238607,1,0,0:0:0:0:
329,192,238820,1,0,0:0:0:0:
475,192,238820,1,0,0:0:0:0:
475,192,238927,1,0,0:0:0:0:
36,192,239139,1,0,0:0:0:0:
109,192,239246,1,0,0:0:0:0:
402,192,239246,1,0,0:0:0:0:
256,192,239352,1,0,0:0:0:0:
475,192,239458,128,0,239884:0:0:0:0:
329,192,239458,1,0,0:0:0:0:
36,192,239458,1,0,0:0:0:0:
36,192,239671,1,0,0:0:0:0:
182,192,239671,1,0,0:0:0:0:
182,192,239778,1,0,0:0:0:0:
36,192,239884,128,0,240309:0:0:0:0:
256,192,239990,1,0,0:0:0:0:
256,192,240097,1,0,0:0:0:0:
402,192,240097,1,0,0:0:0:0:
109,192,240203,1,0,0:0:0:0:
402,192,240309,128,0,241161:0:0:0:0:
182,192,240309,1,0,0:0:0:0:
475,192,240309,1,0,0:0:0:0:
329,192,240522,1,0,0:0:0:0:
109,192,240522,1,0,0:0:0:0:
109,192,240629,1,0,0:0:0:0:
36,192,240841,1,0,0:0:0:0:
109,192,240948,1,0,0:0:0:0:
329,192,240948,1,0,0:0:0:0:
256,192,241054,1,0,0:0:0:0:
36,192,241161,128,0,242012:0:0:0:0:
182,192,241161,1,0,0:0:0:0:
475,192,241161,1,0,0:0:0:0:
256,192,241373,1,0,0:0:0:0:
402,192,241373,1,0,0:0:0:0:
475,192,241480,1,0,0:0:0:0:
109,192,241586,128,0,242012:0:0:0:0:
182,192,241692,1,0,0:0:0:0:
256,192,241799,1,0,0:0:0:0:
402,192,241799,1,0,0:0:0:0:
182,192,241905,1,0,0:0:0:0:
475,192,242012,128,0,243714:0:0:0:0:
182,192,242012,1,0,0:0:0:0:
329,192,242012,1,0,0:0:0:0:
36,192,242224,1,0,0:0:0:0:
256,192,242224,1,0,0:0:0:0:
36,192,242331,1,0,0:0:0:0:
109,192,242544,1,0,0:0:0:0:
182,192,242650,1,0,0:0:0:0:
329,192,242650,1,0,0:0:0:0:
109,192,242756,1,0,0:0:0:0:
36,192,242863,1,0,0:0:0:0:
402,192,242969,1,0,0:0:0:0:
329,192,243075,1,0,0:0:0:0:
182,192,243075,1,0,0:0:0:0:
109,192,243395,1,0,0:0:0:0:
182,192,243501,1,0,0:0:0:0:
329,192,243501,1,0,0:0:0:0:
109,192,243607,1,0,0:0:0:0:
36,192,243714,128,0,245416:0:0:0:0:
182,192,243714,1,0,0:0:0:0:
329,192,243714,1,0,0:0:0:0:
256,192,243927,1,0,0:0:0:0:
402,192,243927,1,0,0:0:0:0:
256,192,244033,1,0,0:0:0:0:
182,192,244246,1,0,0:0:0:0:
182,192,244352,1,0,0:0:0:0:
329,192,244352,1,0,0:0:0:0:
109,192,244458,1,0,0:0:0:0:
182,192,244565,1,0,0:0:0:0:
329,192,244778,1,0,0:0:0:0:
475,192,244778,1,0,0:0:0:0:
475,192,244884,1,0,0:0:0:0:
109,192,245097,1,0,0:0:0:0:
182,192,245203,1,0,0:0:0:0:
329,192,245203,1,0,0:0:0:0:
256,192,245309,1,0,0:0:0:0:
329,192,245416,1,0,0:0:0:0:
475,192,245522,1,0,0:0:0:0:
256,192,245629,1,0,0:0:0:0:
402,192,245735,1,0,0:0:0:0:
182,192,245841,1,0,0:0:0:0:
329,192,245948,1,0,0:0:0:0:
109,192,246054,1,0,0:0:0:0:
256,192,246161,1,0,0:0:0:0:
402,192,246267,1,0,0:0:0:0:
475,192,246267,1,0,0:0:0:0:
256,192,246373,1,0,0:0:0:0:
182,192,246373,1,0,0:0:0:0:
329,192,246480,1,0,0:0:0:0:
402,192,246480,1,0,0:0:0:0:
182,192,246586,1,0,0:0:0:0:
109,192,246586,1,0,0:0:0:0:
256,192,246692,1,0,0:0:0:0:
329,192,246692,1,0,0:0:0:0:
109,192,246799,1,0,0:0:0:0:
36,192,246799,1,0,0:0:0:0:
182,192,246905,1,0,0:0:0:0:
256,192,246905,1,0,0:0:0:0:
36,192,247012,1,0,0:0:0:0:
109,192,247012,1,0,0:0:0:0:
402,192,247118,128,0,247969:0:0:0:0:
256,192,247118,1,0,0:0:0:0:
475,192,247544,128,0,247969:0:0:0:0:
36,192,247544,1,0,0:0:0:0:
36,192,247969,128,0,248820:0:0:0:0:
256,192,247969,1,0,0:0:0:0:
109,192,248395,128,0,248820:0:0:0:0:
402,192,248395,1,0,0:0:0:0:
475,192,248820,1,0,0:0:0:0:
36,192,249033,1,0,0:0:0:0:
329,192,249033,1,0,0:0:0:0:
109,192,249139,1,0,0:0:0:0:
182,192,249246,1,0,0:0:0:0:
329,192,249352,1,0,0:0:0:0:
256,192,249458,1,0,0:0:0:0:
475,192,249458,1,0,0:0:0:0:
182,192,249565,1,0,0:0:0:0:
109,192,249671,1,0,0:0:0:0:
329,192,249884,1,0,0:0:0:0:
475,192,249884,1,0,0:0:0:0:
36,192,250097,1,0,0:0:0:0:
109,192,250203,1,0,0:0:0:0:
182,192,250309,1,0,0:0:0:0:
475,192,250309,1,0,0:0:0:0:
256,192,250416,1,0,0:0:0:0:
36,192,250522,1,0,0:0:0:0:
182,192,250629,1,0,0:0:0:0:
36,192,250735,1,0,0:0:0:0:
475,192,250735,1,0,0:0:0:0:
182,192,250841,1,0,0:0:0:0:
109,192,250948,1,0,0:0:0:0:
256,192,251054,1,0,0:0:0:0:
182,192,251161,1,0,0:0:0:0:
475,192,251161,1,0,0:0:0:0:
329,192,251267,1,0,0:0:0:0:
256,192,251373,1,0,0:0:0:0:
402,192,251480,1,0,0:0:0:0:
329,192,251586,1,0,0:0:0:0:
36,192,251586,1,0,0:0:0:0:
475,192,251692,1,0,0:0:0:0:
256,192,251799,1,0,0:0:0:0:
402,192,251905,1,0,0:0:0:0:
256,192,252012,1,0,0:0:0:0:
36,192,252012,1,0,0:0:0:0:
329,192,252118,1,0,0:0:0:0:
182,192,252224,1,0,0:0:0:0:
36,192,252224,1,0,0:0:0:0:
475,192,252437,1,0,0:0:0:0:
329,192,252437,1,0,0:0:0:0:
109,192,252650,1,0,0:0:0:0:
182,192,252756,1,0,0:0:0:0:
329,192,252863,1,0,0:0:0:0:
475,192,252863,1,0,0:0:0:0:
256,192,252969,1,0,0:0:0:0:
182,192,253075,1,0,0:0:0:0:
402,192,253288,1,0,0:0:0:0:
36,192,253288,1,0,0:0:0:0:
36,192,253501,1,0,0:0:0:0:
182,192,253607,1,0,0:0:0:0:
109,192,253714,1,0,0:0:0:0:
475,192,253714,1,0,0:0:0:0:
256,192,253820,1,0,0:0:0:0:
182,192,253927,1,0,0:0:0:0:
475,192,253927,1,0,0:0:0:0:
402,192,254033,1,0,0:0:0:0:
329,192,254139,1,0,0:0:0:0:
36,192,254139,1,0,0:0:0:0:
256,192,254246,1,0,0:0:0:0:
402,192,254352,1,0,0:0:0:0:
329,192,254458,1,0,0:0:0:0:
256,192,254565,1,0,0:0:0:0:
36,192,254565,1,0,0:0:0:0:
182,192,254671,1,0,0:0:0:0:
329,192,254778,1,0,0:0:0:0:
256,192,254884,1,0,0:0:0:0:
182,192,254990,1,0,0:0:0:0:
475,192,254990,1,0,0:0:0:0:
109,192,255097,1,0,0:0:0:0:
256,192,255203,1,0,0:0:0:0:
182,192,255309,1,0,0:0:0:0:
109,192,255416,1,0,0:0:0:0:
475,192,255416,1,0,0:0:0:0:
36,192,255522,1,0,0:0:0:0:
109,192,255629,1,0,0:0:0:0:
329,192,255629,128,0,257331:0:0:0:0:
36,192,255841,1,0,0:0:0:0:
475,192,255948,1,0,0:0:0:0:
36,192,256054,1,0,0:0:0:0:
475,192,256161,1,0,0:0:0:0:
36,192,256267,1,0,0:0:0:0:
475,192,256373,1,0,0:0:0:0:
36,192,256480,1,0,0:0:0:0:
475,192,256692,1,0,0:0:0:0:
109,192,256799,1,0,0:0:0:0:
475,192,256905,1,0,0:0:0:0:
109,192,257012,1,0,0:0:0:0:
475,192,257118,1,0,0:0:0:0:
109,192,257224,1,0,0:0:0:0:
475,192,257331,1,0,0:0:0:0:
36,192,257331,128,0,257437:0:0:0:0:
109,192,257437,128,0,257544:0:0:0:0:
182,192,257544,128,0,257650:0:0:0:0:
256,192,257650,128,0,257756:0:0:0:0:
475,192,257756,128,0,257863:0:0:0:0:
402,192,257863,128,0,257969:0:0:0:0:
329,192,257969,128,0,258075:0:0:0:0:
256,192,258075,128,0,258182:0:0:0:0:
475,192,258182,1,0,0:0:0:0:
36,192,258182,1,0,0:0:0:0:
36,192,258607,1,0,0:0:0:0:
475,192,258607,1,0,0:0:0:0:
256,192,258607,1,0,0:0:0:0:
109,192,259033,1,0,0:0:0:0:
402,192,259033,1,0,0:0:0:0:
109,192,259246,1,0,0:0:0:0:
329,192,259246,1,0,0:0:0:0:
475,192,259458,1,0,0:0:0:0:
402,192,259671,1,0,0:0:0:0:
36,192,259671,1,0,0:0:0:0:
109,192,259778,1,0,0:0:0:0:
182,192,259884,1,0,0:0:0:0:
109,192,260097,1,0,0:0:0:0:
329,192,260097,1,0,0:0:0:0:
402,192,260309,1,0,0:0:0:0:
475,192,260522,1,0,0:0:0:0:
109,192,260522,1,0,0:0:0:0:
182,192,260629,1,0,0:0:0:0:
256,192,260735,1,0,0:0:0:0:
36,192,260948,1,0,0:0:0:0:
329,192,260948,1,0,0:0:0:0:
182,192,261161,1,0,0:0:0:0:
475,192,261161,128,0,261586:0:0:0:0:
329,192,261373,1,0,0:0:0:0:
36,192,261373,1,0,0:0:0:0:
109,192,261480,1,0,0:0:0:0:
329,192,261586,128,0,262012:0:0:0:0:
182,192,261586,1,0,0:0:0:0:
109,192,261799,1,0,0:0:0:0:
402,192,261799,1,0,0:0:0:0:
182,192,262012,128,0,262437:0:0:0:0:
36,192,262012,1,0,0:0:0:0:
402,192,262118,1,0,0:0:0:0:
109,192,262224,1,0,0:0:0:0:
475,192,262224,1,0,0:0:0:0:
402,192,262331,1,0,0:0:0:0:
329,192,262437,1,0,0:0:0:0:
36,192,262650,128,0,264990:0:0:0:0:
182,192,262650,1,0,0:0:0:0:
475,192,262650,1,0,0:0:0:0:
109,192,262863,1,0,0:0:0:0:
256,192,262969,1,0,0:0:0:0:
182,192,263075,1,0,0:0:0:0:
475,192,263075,1,0,0:0:0:0:
329,192,263182,1,0,0:0:0:0:
256,192,263288,1,0,0:0:0:0:
475,192,263501,1,0,0:0:0:0:
109,192,263501,1,0,0:0:0:0:
329,192,263714,1,0,0:0:0:0:
475,192,263820,1,0,0:0:0:0:
256,192,263927,1,0,0:0:0:0:
109,192,263927,1,0,0:0:0:0:
402,192,264033,1,0,0:0:0:0:
256,192,264139,1,0,0:0:0:0:
109,192,264352,1,0,0:0:0:0:
475,192,264352,1,0,0:0:0:0:
329,192,264565,1,0,0:0:0:0:
402,192,264671,1,0,0:0:0:0:
329,192,264778,1,0,0:0:0:0:
109,192,264778,1,0,0:0:0:0:
256,192,264884,1,0,0:0:0:0:
475,192,264990,128,0,265097:0:0:0:0:
182,192,264990,1,0,0:0:0:0:
402,192,265097,128,0,265203:0:0:0:0:
329,192,265203,128,0,265310:0:0:0:0:
109,192,265203,1,0,0:0:0:0:
256,192,265310,128,0,265416:0:0:0:0:
36,192,265416,128,0,265522:0:0:0:0:
109,192,265522,128,0,265629:0:0:0:0:
182,192,265629,128,0,265735:0:0:0:0:
402,192,265629,1,0,0:0:0:0:
256,192,265735,128,0,265841:0:0:0:0:
475,192,265841,1,0,0:0:0:0:
36,192,265841,1,0,0:0:0:0:
109,192,266054,1,0,0:0:0:0:
402,192,266054,1,0,0:0:0:0:
329,192,266267,1,0,0:0:0:0:
256,192,266373,1,0,0:0:0:0:
36,192,266480,1,0,0:0:0:0:
182,192,266480,1,0,0:0:0:0:
475,192,266692,128,0,267012:0:0:0:0:
182,192,266692,1,0,0:0:0:0:
109,192,266905,1,0,0:0:0:0:
402,192,266905,1,0,0:0:0:0:
329,192,267012,128,0,267331:0:0:0:0:
36,192,267118,1,0,0:0:0:0:
109,192,267224,1,0,0:0:0:0:
36,192,267331,1,0,0:0:0:0:
182,192,267331,128,0,267969:0:0:0:0:
402,192,267331,1,0,0:0:0:0:
475,192,267544,1,0,0:0:0:0:
402,192,267756,1,0,0:0:0:0:
36,192,267756,1,0,0:0:0:0:
475,192,267969,128,0,268820:0:0:0:0:
109,192,267969,1,0,0:0:0:0:
182,192,268075,1,0,0:0:0:0:
36,192,268182,1,0,0:0:0:0:
256,192,268182,1,0,0:0:0:0:
402,192,268395,128,0,268820:0:0:0:0:
182,192,268395,1,0,0:0:0:0:
329,192,268607,1,0,0:0:0:0:
36,192,268607,1,0,0:0:0:0:
36,192,268820,128,0,269246:0:0:0:0:
182,192,268820,1,0,0:0:0:0:
329,192,269033,1,0,0:0:0:0:
109,192,269033,1,0,0:0:0:0:
475,192,269246,1,0,0:0:0:0:
182,192,269246,1,0,0:0:0:0:
402,192,269352,1,0,0:0:0:0:
329,192,269458,1,0,0:0:0:0:
109,192,269458,1,0,0:0:0:0:
256,192,269565,1,0,0:0:0:0:
402,192,269671,128,0,270948:0:0:0:0:
182,192,269671,1,0,0:0:0:0:
36,192,269671,1,0,0:0:0:0:
256,192,269884,1,0,0:0:0:0:
109,192,269884,1,0,0:0:0:0:
36,192,270097,1,0,0:0:0:0:
109,192,270310,1,0,0:0:0:0:
475,192,270310,1,0,0:0:0:0:
256,192,270522,1,0,0:0:0:0:
329,192,270735,1,0,0:0:0:0:
36,192,270735,1,0,0:0:0:0:
109,192,270948,1,0,0:0:0:0:
256,192,270948,1,0,0:0:0:0:
36,192,271267,1,0,0:0:0:0:
475,192,271267,1,0,0:0:0:0:
109,192,271586,1,0,0:0:0:0:
256,192,271586,1,0,0:0:0:0:
402,192,271586,1,0,0:0:0:0:
36,192,271905,1,0,0:0:0:0:
475,192,271905,1,0,0:0:0:0:
109,192,272224,1,0,0:0:0:0:
402,192,272224,1,0,0:0:0:0:
402,192,272437,1,0,0:0:0:0:
109,192,272437,1,0,0:0:0:0:
109,192,273075,128,0,281161:0:0:0:0:
402,192,273075,128,0,281161:0:0:0:0:
36,192,273075,1,0,0:0:0:0:
475,192,273075,1,0,0:0:0:0:
