osu file format v5

[General]
AudioFilename: Nomiya Ayumi - colourful.mp3
AudioLeadIn: 0
PreviewTime: 68454
Countdown: 1
SampleSet: Soft
StackLeniency: 0.7
Mode: 0
LetterboxInBreaks: 1
EditorDistanceSpacing: 1

[Metadata]
Title:colourful
Artist:Nomiya Ayumi
Creator:himydanny
Version:Normal
Source:
Tags:

[Difficulty]
HPDrainRate:5
CircleSize:4
OverallDifficulty:5
SliderMultiplier:1.5
SliderTickRate:2

[Events]
//Background and Video events
0,0,"1.jpg"
//Break Periods
2,64634,65363
2,100380,117859
2,134628,141357
//Storyboard Layer 0 (Background)
//Storyboard Layer 1 (Fail)
//Storyboard Layer 2 (Pass)
//Storyboard Layer 3 (Foreground)
//Storyboard Sound Samples
//Background Colour Transformations
3,100,0,0,0

[TimingPoints]
17212,499.998336805266,4,2,1,100,1,0
70444,-100,4,2,1,100,0,0
156444,-100,4,2,1,100,0,0

[Colours]
Combo1 : 237,248,29
Combo2 : 55,4,232
Combo3 : 253,154,19
Combo4 : 218,20,183
Combo5 : 240,32,15

[HitObjects]
125,123,17211,2,0,B|242:-5|398:124,1,300,0|2
322,150,18461,2,0,B|247:79|169:167,1,150,0|0
193,222,19211,1,2
318,221,19711,1,2
389,262,21211,6,0,B|252:364|98:266,1,300,2|0
171,230,22461,2,0,B|253:282|334:224,2,150,2|2|0
172,151,23711,1,8
322,151,24211,1,8
23,122,25211,6,0,B|9:314|193:335,1,300,0|0
183,334,26461,1,0
328,334,26961,1,2
354,263,27211,1,2
341,189,27461,1,2
176,35,28211,5,0
137,99,28461,1,0
101,165,28711,1,2
42,303,29211,1,2
154,301,29586,1,2
341,301,30211,5,0
382,238,30461,1,0
419,172,30711,1,2
476,33,31211,1,2
363,30,31586,1,2
250,30,31961,1,2
214,98,32211,1,2
174,161,32461,1,2
363,285,33211,6,0,B|242:385|63:281,1,300,0|2
49,223,34461,2,0,B|22:143|43:43,1,150,0|0
110,52,35211,2,0,B|181:8|264:60,3,150,2|2|2|2
402,57,37211,6,0,B|520:177|404:334,1,300,0|2
333,318,38461,2,0,B|252:262|180:324,1,150,2|0
118,318,39211,1,2
109,243,39461,1,2
99,168,39711,2,8,B|53:111|184:92|132:20,2,150,8|8|0
238,111,41211,6,0,B|420:-2|471:229,1,300,0|2
388,205,42461,2,0,B|379:95|270:169,1,150,2|0
226,205,43211,1,2
276,260,43461,1,2
62,331,44211,5,2
37,260,44461,1,2
32,185,44711,2,8,B|104:140|-14:69|63:28,2,150,8|8|0
155,99,46211,5,2
207,152,46461,1,2
263,201,46711,2,0,B|368:231|256:276|372:312,1,150,8|8
489,245,47711,1,0
449,181,47961,1,0
470,109,48211,1,8
409,64,48461,1,8
256,192,49211,12,0,51711
98,156,52211,5,2
98,231,52461,1,2
94,305,52711,2,0,B|209:359|325:333|394:295,1,300,2|2
385,225,53961,1,2
386,150,54211,1,8
385,75,54461,1,8
310,66,54711,2,0,B|172:32|96:278,1,300,8|0
256,252,56211,5,2
181,253,56461,1,2
105,253,56711,1,8
331,52,57711,1,8
362,198,58211,1,8
251,299,58711,1,8
120,225,59211,1,8
176,127,59586,1,8
368,128,60211,6,2,B|432:195|384:275,2,150
224,128,61711,6,0,B|160:192|224:272,2,150,0|2|2
368,128,63211,1,2
400,192,63461,1,2
336,240,63711,1,8
224,288,64086,1,8
160,192,64461,1,8
176,96,66711,5,2
176,240,67211,5,2
320,240,67711,5,2
320,96,68211,5,2
256,192,68711,12,0,70211
86,96,70711,6,0,B|181:11|317:98,1,225,0|8
263,153,71711,2,0,B|196:97|117:161,1,150,0|10
120,304,72711,2,0,B|195:371|264:293,2,150,2|10|2
73,161,74211,5,2
120,102,74461,1,2
173,49,74711,2,0,B|244:-4|319:60,1,150,8|2
381,80,75461,1,0
421,144,75711,1,0
391,222,75961,1,2
337,274,76211,2,0,B|223:325|206:202,3,150,8|0|8|0
161,183,77961,5,2
86,192,78211,1,8
74,117,78461,1,2
148,106,78711,1,2
297,92,79211,1,8
407,114,79586,1,2
449,218,79961,5,2
353,277,80336,1,8
260,213,80711,2,0,B|221:297|182:315|127:306|125:92,1,300,2|0
181,59,81961,5,0
239,105,82211,1,8
294,155,82461,1,0
341,212,82711,1,2
490,214,83211,1,8
430,309,83586,1,2
317,314,83961,1,0
204,308,84336,1,8
256,192,84711,12,0,86211
172,40,86711,6,0,B|9:144|433:148|8:143|170:280,1,300,8|0
224,224,87961,1,0
259,157,88211,1,8
320,112,88461,1,0
398,100,88711,2,8,B|486:170|389:256,2,150,0|8|0
260,40,90211,5,8
196,79,90461,1,0
159,144,90711,2,0,B|108:232|206:288,1,150,0|8
334,295,91711,2,0,B|476:162|100:162|476:161|315:23,1,300
198,104,93211,1,2
198,254,93711,1,2
272,256,93961,5,2
346,258,94211,1,2
346,182,94461,1,0
346,106,94711,1,8
196,105,95211,1,8
83,105,95586,1,8
79,217,95961,5,2
79,329,96336,1,2
180,280,96711,2,2,B|184:175|307:216,2,150,2|2|2
180,280,97961,5,2
254,282,98211,1,8
328,285,98461,1,2
402,288,98711,2,0,B|497:265|436:154,1,150,0|8
332,157,99586,2,2,B|424:87|321:-1,1,187.5,2|8
422,55,119211,6,0,B|500:120|448:219,1,150,8|0
429,256,119961,1,2
368,300,120211,1,8
343,228,120461,2,8,B|394:152|309:83,1,150,0|2
237,74,121211,1,8
237,186,121586,1,2
98,52,123211,6,8,B|24:104|67:200,1,150,8|0
77,256,123961,1,2
141,293,124211,1,8
149,222,124461,2,8,B|135:125|203:80,1,150,2|0
262,117,125211,1,8
262,191,125461,1,0
315,243,125711,1,0
465,244,126211,1,8
448,82,127211,6,8,B|351:44|312:132,1,150,8|2
386,148,127961,1,0
387,222,128211,1,8
311,222,128461,2,2,B|254:303|158:256,1,150,2|0
117,214,129211,1,8
100,140,129461,1,2
298,34,130211,5,2
351,87,130461,1,2
401,142,130711,1,8
255,103,131211,1,8
330,186,131586,1,8
212,332,132211,5,2
165,273,132461,1,2
125,209,132711,1,8
263,266,133211,1,8
194,176,133586,1,8
127,84,133961,1,2
201,86,134211,1,8
275,86,134461,1,8
60,335,142711,6,0,B|207:342|283:162,1,300
357,165,143961,1,2
431,163,144211,1,2
428,88,144461,1,2
353,89,144711,1,8
202,83,145211,1,8
89,83,145586,1,8
71,319,146211,6,0,B|230:13|225:722|233:2|394:336,1,450,0|2
454,288,147961,2,0,B|330:30|327:292|197:37,1,375,2|0
137,85,149461,1,2
95,147,149711,1,2
107,258,150086,1,2
219,267,150461,2,2,B|335:377|416:374|430:323|448:5,1,525,0|0
297,29,152711,5,2
294,179,153211,5,2
194,66,153711,5,2
191,219,154211,5,2
256,192,154711,12,0,156211
61,97,156711,6,8,B|132:13|212:109|212:109|210:108,1,150,8|2
176,164,157461,1,8
163,238,157711,2,8,B|235:326|312:216,1,150,2|8
298,169,158461,1,8
310,95,158711,2,8,B|378:24|466:106,2,150,2|8|2
399,215,160211,6,0,B|357:368|166:15|357:370|158:273,1,300,2|8
56,175,161711,1,2
106,119,161961,1,2
153,176,162211,1,2
206,123,162461,2,0,B|289:10|341:7|407:311,1,375,0|2
329,306,163961,5,2
271,257,164211,1,2
200,281,164461,1,2
126,264,164711,1,8
57,130,165211,1,8
165,101,165586,1,8
212,203,165961,5,2
311,255,166336,1,2
418,222,166711,1,2
85,49,167961,5,2
61,120,168211,1,2
129,151,168461,1,2
101,220,168711,1,8
209,323,169211,1,8
321,313,169586,1,8
418,256,169961,5,2
385,148,170336,1,2
256,192,170711,12,0,172211
414,135,172711,6,8,B|438:24|313:48,1,150,0|8
288,94,173461,1,0
230,142,173711,2,8,B|232:256|360:204,1,150,0|8
394,180,174461,1,0
433,116,174711,2,10,B|335:51|268:86|166:228,1,300,2|0
295,304,176211,5,2
350,253,176461,1,2
399,196,176711,1,2
286,97,177211,1,8
286,97,177711,2,2,B|201:32|138:150,2,150,2|8|2
295,246,179211,1,8
219,246,179461,1,2
143,246,179711,1,2
95,306,179961,5,2
169,307,180211,1,8
243,308,180461,1,2
318,308,180711,2,8,B|426:301|411:188,1,150,2|8
394,103,181586,1,8
288,128,181961,6,2,B|119:71,1,150,0|0
70,75,182711,2,2,B|-68:196|75:343,1,300,2|2
142,337,183961,5,2
208,302,184211,1,2
272,339,184461,1,2
339,306,184711,2,2,B|433:253|373:163,1,150,10|8
276,77,185711,2,2,B|196:22|112:85,2,150,2|2|2
256,192,186961,12,0,188711
