osu file format v6

[General]
AudioFilename: (06) [Nomiya Ayumi] Sleeping Beauty.mp3
AudioLeadIn: 0
PreviewTime: 120630
Countdown: 1
SampleSet: Normal
StackLeniency: 0.4
Mode: 0
LetterboxInBreaks: 1

[Editor]
DistanceSpacing: 1.20000004768372
BeatDivisor: 4
GridSize: 8

[Metadata]
Title:Sleeping Beauty
Artist:Nomiya Ayumi
Creator:jericho2442
Version:Hard
Source:
Tags:touhou colors sleeping beauty

[Difficulty]
HPDrainRate:5
CircleSize:5
OverallDifficulty:6
SliderMultiplier:1.6
SliderTickRate:2

[Events]
//Background and Video events
0,0,"Cover.jpg"
//Break Periods
2,105381,119600
2,152725,153584
2,173350,179600
//Storyboard Layer 0 (Background)
//Storyboard Layer 1 (Fail)
//Storyboard Layer 2 (Pass)
//Storyboard Layer 3 (Foreground)
//Storyboard Sound Samples
//Background Colour Transformations
3,100,163,162,255

[TimingPoints]
650,468.75,4,1,0,100,1,0
21157,-100,4,2,0,100,0,0
21626,-100,4,1,0,100,0,0
23032,-100,4,2,0,100,0,0
23501,-100,4,1,0,100,0,0
24907,-100,4,2,0,100,0,0
25376,-100,4,1,0,100,0,0
26548,-100,4,2,0,20,0,0
27485,-100,4,2,0,45,0,0
27954,-100,4,2,0,70,0,0
28892,-100,4,1,0,100,0,0
64985,-100,4,2,0,100,0,0
65220,-100,4,1,0,100,0,0
66040,-100,4,2,0,100,0,0
67564,-100,4,1,0,100,0,0
79985,-100,4,2,0,100,0,0
80220,-100,4,1,0,100,0,0
80923,-100,4,1,0,26,0,0
81392,-100,4,1,0,51,0,0
81860,-100,4,1,0,79,0,0
82095,-100,4,1,0,100,0,0
98970,-100,4,2,0,100,0,0
99204,-100,4,1,0,100,0,0
100142,-100,4,2,0,100,0,0
100376,-100,4,1,0,100,0,0
100845,-100,4,2,0,100,0,0
101079,-100,4,1,0,100,0,0
120650,-100,4,1,0,100,0,1
126157,-100,4,2,0,100,0,1
126626,-100,4,1,0,100,0,1
128032,-100,4,2,0,100,0,1
128501,-100,4,1,0,100,0,1
129907,-100,4,2,0,100,0,1
130376,-100,4,1,0,100,0,1
131782,-100,4,2,0,100,0,1
132251,-100,4,1,0,100,0,1
133657,-100,4,2,0,100,0,1
134126,-100,4,1,0,100,0,1
150532,-100,4,1,0,100,0,1
151001,-100,4,1,0,71,0,1
151470,-100,4,1,0,49,0,1
151939,-100,4,1,0,34,0,1
152525,-100,4,1,0,100,0,0
218970,-100,4,2,0,100,0,0
219439,-100,4,1,0,100,0,0
220845,-100,4,2,0,100,0,0
221314,-100,4,1,0,100,0,0
225650,-100,4,1,0,100,0,1
227407,-100,4,2,0,100,0,1
229282,-100,4,1,0,100,0,1
238423,-100,4,1,0,30,0,1
238892,-100,4,1,0,55,0,1
239360,-100,4,1,0,71,0,1
239829,-100,4,1,0,100,0,1
246157,-100,4,2,0,100,0,1
246626,-100,4,1,0,100,0,1
248032,-100,4,2,0,100,0,1
248501,-100,4,1,0,100,0,1
249907,-100,4,2,0,100,0,1
250376,-100,4,1,0,100,0,1
251548,-100,4,2,0,20,0,1
252017,-100,4,2,0,49,0,1
252485,-100,4,2,0,65,0,1
252954,-100,4,2,0,80,0,1
253423,-100,4,2,0,100,0,1
254126,-100,4,1,0,100,0,0

[Colours]
Combo1 : 0,0,255
Combo2 : 0,0,0
Combo3 : 183,0,91

[HitObjects]
80,152,15650,2,0,C|128:56|208:56,1,160
303,56,16587,2,0,C|354:60|402:156,1,160
424,216,17290,1,0
256,344,19165,6,0,C|256:256,1,80
256,136,19868,2,0,C|168:120|112:192,1,160
120,296,20806,1,0
184,296,21040,1,0
248,296,21275,1,2
312,296,21509,1,2
376,296,21743,2,0,C|424:216|376:152,1,160
264,136,22681,5,0
200,136,22915,1,0
136,136,23150,1,2
72,136,23384,1,2
72,200,23618,2,0,C|232:200,1,160
360,216,24556,5,0
424,216,24790,1,0
424,152,25025,1,2
424,88,25259,1,2
424,24,25493,1,0
296,24,25962,1,0
168,24,26431,5,0
104,24,26665,2,0,C|104:72,18,40,0|0|0|0|0|0|0|0|0|0|0|0|0|0|0|0|0|0|4
64,112,30884,6,0,C|144:48,1,80,0|8
208,64,31353,1,0
288,64,31587,1,8
368,64,31821,2,0,C|440:120,2,80,0|8|0
64,272,32759,6,0,C|144:336,1,80,0|8
208,320,33228,1,0
288,320,33462,1,8
368,320,33696,1,0
368,240,33931,2,0,C|368:200,2,40,0|8|0
248,80,34634,5,0
320,144,34868,1,8
320,240,35103,1,0
248,304,35337,1,8
168,240,35571,1,0
168,144,35806,1,8
248,80,36040,1,0
248,176,36275,5,8
248,272,36509,1,0
184,344,36743,1,8
88,344,36978,1,0
16,280,37212,1,8
96,232,37446,1,0
128,248,37564,1,8
152,264,37681,1,0
184,280,37798,1,8
208,296,37915,1,0
232,312,38032,1,8
256,328,38150,1,4
336,256,38384,5,0
336,160,38618,1,8
336,256,38853,1,0
424,216,39087,1,8
336,256,39321,1,0
416,312,39556,1,8
336,256,39790,1,0
240,256,40025,5,0
144,256,40259,1,0
72,192,40493,1,8
144,256,40728,1,0
48,272,40962,1,8
144,256,41196,1,0
96,336,41431,2,0,C|120:304,2,40,0|8|0
40,32,42134,6,0,C|40:128,1,80,0|8
40,208,42603,1,0
112,152,42837,1,8
112,248,43071,1,0
192,296,43306,2,0,C|272:352,1,80,8|0
304,240,43775,5,0
344,168,44009,2,0,C|384:88,1,80,8|0
344,168,44478,2,0,C|288:264,1,80,8|0
336,168,44946,1,4
312,160,45064,1,8
288,152,45181,1,0
256,144,45298,1,8
224,136,45415,1,0
192,128,45532,1,8
160,120,45650,1,4
32,280,45884,6,0,C|80:280|112:240,1,80
160,184,46353,2,0,C|208:184|240:224,1,80,8|2
232,304,46821,2,0,C|280:288|312:248,1,80
312,168,47290,2,4,C|360:168|392:208,1,80,8|2
392,288,47759,2,0,C|440:288|472:248,1,80
464,168,48228,2,0,C|464:120|424:88,1,80,8|2
352,56,48696,2,0,C|332:33|284:33,1,80
288,32,49048,1,8
288,32,49165,1,2
48,56,49634,5,0
48,136,49868,2,0,C|128:136,1,80,0|8
48,216,50337,2,0,C|144:216,1,80,0|8
48,296,50806,2,0,C|136:296,1,80,0|8
224,296,51275,5,0
320,296,51509,2,0,C|320:208,1,80,0|8
320,120,51978,2,0,C|320:32,1,80,0|8
224,40,52446,1,0
200,56,52564,1,8
176,72,52681,1,0
152,88,52798,1,8
128,104,52915,1,0
104,120,53032,1,8
80,136,53150,1,4
120,256,53384,6,0,C|56:312,1,80,0|8
120,256,53853,2,0,C|184:320,1,80,0|8
120,256,54321,2,0,C|208:176,1,80,0|8
120,256,54790,1,2
136,80,55259,6,0,C|216:80,1,80,0|8
296,80,55728,2,0,C|208:80,1,80,0|8
216,184,56196,1,0
216,80,56431,2,2,C|216:40,2,40
248,352,57134,6,0,C|176:296,1,80,0|8
248,352,57603,2,0,C|328:288,1,80,0|8
248,184,58071,6,0,C|184:248,1,80,0|8
248,184,58540,2,0,C|312:248,1,80,0|8
248,352,59009,6,0,C|184:296,1,80,0|8
248,352,59478,2,0,C|328:296,1,80,0|8
408,296,59946,1,0
424,272,60064,1,8
440,248,60181,1,0
456,216,60298,1,8
464,184,60415,1,0
464,152,60532,1,8
464,120,60650,5,0
368,120,60884,1,0
368,216,61118,1,0
272,216,61353,1,0
112,120,61821,5,0
112,24,62056,1,0
208,24,62290,2,0,C|208:192,1,160
208,280,62993,1,0
208,376,63228,1,0
368,376,63696,1,0
368,280,63931,2,0,C|368:232|320:192,1,80
280,144,64400,6,0,C|240:120|224:88,1,80
136,56,64868,1,0
72,128,65103,1,0
16,208,65337,2,0,C|80:272,1,80
144,328,65806,2,0,C|208:272,1,80
203,276,66157,1,0
204,274,66275,1,0
204,274,66392,1,0
204,274,66509,1,0
204,274,66626,1,0
204,274,66743,1,0
204,274,66860,1,0
204,274,66978,1,0
204,274,67095,1,0
204,274,67212,1,4
40,344,68150,6,0,C|112:288,1,80
184,240,68618,1,0
264,192,68853,2,0,C|352:160|360:64,1,160
264,96,69556,2,0,C|168:96,1,80
64,336,70259,1,0
160,328,70493,1,0
248,296,70728,1,0
328,240,70962,1,0
368,152,71196,1,0
368,56,71431,5,0
272,56,71665,1,0
176,56,71900,1,0
176,248,72368,1,0
368,248,72837,1,0
176,248,73306,1,0
336,360,73775,2,0,C|336:280,1,80
336,184,74243,2,0,C|336:96,1,80
184,360,75650,6,0,C|184:280,2,80
280,360,76353,2,0,C|456:360,1,160
440,264,77056,2,0,C|440:184,2,80
344,264,77759,2,0,C|264:264,2,80
344,168,78462,2,0,C|344:64,2,80
344,88,79165,1,0
248,88,79400,5,0
152,88,79634,1,0
56,88,79868,1,0
56,184,80103,1,2
56,280,80337,1,0
152,280,80571,1,0
248,280,80806,1,0
248,184,81040,2,0,C|248:144,10,40,0|0|0|0|0|0|0|0|0|0|4
24,32,83150,6,0,C|96:88,1,80
168,32,83618,1,0
240,88,83853,1,0
256,256,84321,5,0
320,192,84556,1,0
256,128,84790,1,0
184,192,85025,1,0
256,256,85259,1,0
320,192,85493,1,0
256,128,85728,1,0
184,192,85962,1,0
256,256,86196,1,0
328,320,86431,6,0,C|432:320,1,80
408,224,86900,2,0,C|408:56,1,160
304,224,87837,2,0,C|304:64,1,160
200,224,88775,1,0
144,304,89009,1,0
24,152,89478,1,0
256,352,90650,6,0,C|256:192,1,160
256,96,91353,1,0
56,40,91821,5,0
56,136,92056,1,0
56,232,92290,1,0
56,328,92525,2,0,C|248:328,1,160
312,328,93228,1,0
456,40,93696,5,0
456,136,93931,1,0
456,232,94165,1,0
456,328,94400,2,0,C|264:328,1,160
200,328,95103,1,0
256,192,95337,12,0,96743
32,352,97212,6,0,C|32:176,1,160
136,352,98150,2,0,C|136:192,1,160
136,96,98853,1,0
232,96,99087,1,2
328,96,99321,1,0
424,96,99556,2,0,C|424:272,1,160
424,352,100259,1,0
328,352,100493,5,0
232,352,100728,1,0
136,352,100962,1,0
40,352,101196,1,0
40,304,101314,1,0
40,256,101431,1,0
40,160,101665,1,0
40,64,101900,1,0
136,64,102134,1,0
232,64,102368,1,0
312,112,102603,2,0,C|440:208,1,160
440,304,103306,6,0,C|352:304,1,80
264,304,103775,1,0
72,304,104243,1,0
72,112,104712,1,0
264,112,105181,1,0
80,232,120650,6,0,C|128:328|208:328,1,160
303,328,121587,2,0,C|354:324|402:228,1,160
440,144,122290,1,0
432,48,122525,1,0
440,144,122759,1,0
352,112,122993,1,0
440,144,123228,1,0
376,216,123462,1,0
440,144,123696,1,0
376,216,123931,1,0
256,344,124165,6,0,C|256:256,1,80
256,168,124868,2,0,C|272:80|200:24,1,160
120,32,125571,1,0
120,128,125806,1,0
120,224,126040,1,0
120,320,126275,1,2
216,320,126509,1,2
312,320,126743,2,0,C|392:368|456:320,1,160
56,40,127681,5,0
56,136,127915,1,0
56,232,128150,1,2
56,328,128384,1,2
152,328,128618,2,0,C|312:328,1,160
216,152,129556,5,0
312,152,129790,1,0
408,152,130025,1,2
312,152,130259,1,2
216,152,130493,1,0
24,152,130962,1,0
248,344,131431,6,0,C|200:272,1,80
248,344,131900,2,2,C|304:272,1,80
344,200,132368,2,0,C|224:88,1,160
40,40,133306,5,0
40,136,133540,1,0
40,232,133775,1,2
40,328,134009,1,2
136,328,134243,2,0,C|304:328,1,160
488,328,135181,2,0,C|488:152,1,160,0|4
448,32,136118,5,0
256,32,136587,1,0
64,32,137056,6,0,C|64:112,1,80
64,112,137525,2,0,C|160:112,1,80
144,112,137993,2,0,C|144:192,1,80
144,192,138462,2,0,C|240:192,1,80
224,192,138931,2,0,C|224:280,1,80
224,272,139400,6,0,C|384:272,1,160
224,168,140337,2,0,C|392:168,1,160
480,24,141275,1,0
384,24,141509,1,0
288,24,141743,1,0
192,24,141978,1,0
96,24,142212,2,0,C|96:136,1,80
96,200,142681,6,0,C|96:296,1,80
192,280,143150,2,0,C|240:208,1,80,0|0
192,280,143618,2,0,C|264:336,1,80
192,280,144087,2,0,C|96:280,1,80
64,168,144556,6,0,C|64:88,1,80
64,168,145025,2,0,C|160:168,1,80
64,168,145493,2,0,C|64:256,1,80
232,224,145962,6,0,C|232:304,1,80
232,304,146431,2,0,C|328:304,1,80
312,304,146900,2,0,C|312:224,1,80
312,224,147368,2,0,B|224:224,1,80,0|0
232,224,147837,2,0,B|144:224,1,80
152,224,148306,1,0
256,344,148775,5,0
256,200,149243,1,0
256,56,149712,1,0
400,56,150181,1,0
400,200,150650,2,0,C|352:200,16,40,0|0|0|0|0|0|0|0|0|0|0|0|0|0|0|0|4
256,360,154634,5,0
256,280,154868,1,8
256,200,155103,1,0
256,120,155337,1,8
256,40,155571,1,0
176,40,155806,2,0,C|120:112,1,80,8|0
120,184,156275,5,0
200,184,156509,2,0,C|248:120,1,80,0|8
200,184,156978,2,0,C|256:256,1,80,0|8
200,184,157446,1,0
232,184,157564,1,8
264,184,157681,1,0
296,184,157798,1,8
328,184,157915,1,0
360,184,158032,1,8
392,184,158150,1,4
400,344,158384,6,0,C|400:264,1,80
400,184,158853,2,0,C|400:264,1,80,8|2
320,344,159321,2,0,C|320:264,1,80
320,184,159790,2,0,C|320:264,1,80,8|2
240,344,160259,2,0,C|240:264,1,80
240,184,160728,2,0,C|240:264,1,80,8|2
144,264,161196,1,0
48,264,161431,2,2,C|48:224,2,40
48,40,162134,5,0
48,136,162368,1,8
144,136,162603,1,0
144,232,162837,1,8
240,232,163071,1,0
240,328,163306,1,8
336,328,163540,1,0
432,328,163775,5,0
432,232,164009,2,0,C|432:152,3,80,0|8|0|10
432,56,164946,2,0,C|360:56,6,40,0|8|8|8|0|0|4
400,144,165884,5,0
392,240,166118,1,8
344,320,166353,1,0
248,320,166587,1,8
152,320,166821,1,0
80,256,167056,1,8
80,160,167290,1,0
120,72,167525,5,0
208,40,167759,1,0
296,72,167993,1,8
296,168,168228,1,0
224,232,168462,1,8
152,160,168696,1,0
56,160,168931,2,8,B|56:208,2,40
96,32,169634,6,0,C|24:88,1,80,0|8
40,176,170103,2,0,C|104:240,1,80,0|8
192,232,170571,2,0,C|264:176,1,80,0|8
264,88,171040,2,0,C|184:16,1,80,0|8
112,72,171509,2,0,C|112:152,1,80,0|8
112,248,171978,2,0,C|112:344,1,80,0|8
208,328,172446,1,0
240,328,172564,1,8
272,328,172681,1,0
304,328,172798,1,8
336,328,172915,1,0
368,328,173032,1,8
400,328,173150,1,4
312,80,180650,6,0,C|216:80,1,80
136,80,181118,1,0
40,80,181353,2,0,C|40:240,1,160
40,336,182056,1,0
136,336,182290,2,0,C|296:336,1,160
360,264,182993,1,0
416,184,183228,2,0,C|280:96,1,160
224,176,183931,2,0,C|160:240,1,80
88,168,184400,5,0
32,88,184634,1,0
32,184,184868,2,0,C|32:288|104:336,1,160
168,320,185571,2,0,C|264:320,1,80
344,312,186040,2,4,B|384:232|344:160|304:104|264:88|200:104|136:104|112:144|88:176|72:208|72:248|80:312|112:328,1,560
256,352,188150,5,0
256,256,188384,1,0
256,160,188618,2,0,C|200:80,1,80
40,128,189321,6,0,C|40:224,1,80
40,304,189790,1,0
168,216,190259,6,0,C|176:256|232:256,1,80
312,256,190728,2,0,C|349:257|352:215,1,80
352,120,191196,2,0,C|336:88|280:88,1,80
200,88,191665,2,0,C|160:88|160:136,1,80
160,320,192368,1,0
352,320,192837,1,0
352,128,193306,1,0
160,128,193775,1,0
160,224,194009,1,0
160,320,194243,1,0
256,320,194478,1,0
464,136,194946,6,0,C|464:88,2,40
464,232,195415,1,4
456,328,195650,6,0,C|320:208,1,160
264,160,196353,1,0
152,80,196821,1,0
72,136,197056,1,0
72,232,197290,1,0
72,352,197525,6,0,C|208:248,1,160
272,200,198228,1,0
424,96,198696,1,0
424,192,198931,1,0
424,96,199165,1,0
328,96,199400,6,0,C|144:96,1,160
168,192,200103,2,0,C|336:192,1,160
328,288,200806,2,0,C|160:288|160:288|160:152,1,320,0|0
248,24,202212,5,0
424,96,202681,1,0
248,184,203150,2,0,C|248:352,1,160
344,344,203853,2,0,C|176:344,1,160
88,344,204556,1,0
88,248,204790,1,0
88,152,205025,2,0,C|256:152,1,160
168,96,205728,2,0,C|168:256,1,160
264,256,206431,1,0
360,256,206665,1,0
360,160,206900,1,0
456,160,207134,1,0
456,256,207368,1,0
360,256,207603,2,0,C|256:120,1,160
208,56,208306,5,0
304,56,208540,1,0
400,56,208775,2,0,C|400:224,1,160
240,216,209712,2,0,C|424:216,1,160
88,56,210650,6,0,C|88:104,4,40
88,152,211353,1,0
88,352,211821,5,0
184,352,212056,1,0
280,352,212290,1,0
376,352,212525,2,0,C|376:304,4,40
472,352,213228,1,0
248,16,213696,5,0
248,112,213931,1,0
248,208,214165,1,0
248,304,214400,2,0,C|200:304,4,40
344,304,215103,1,0
440,176,215806,2,0,C|440:16,1,160
64,40,217212,5,0
256,40,217681,1,0
160,200,218150,2,0,C|160:360,1,160
256,360,218853,1,0
352,360,219087,1,2
448,360,219321,1,2
448,264,219556,1,0
456,40,220025,6,0,C|296:40,1,160
200,40,220728,1,0
104,40,220962,1,2
8,40,221196,1,2
8,136,221431,1,0
256,360,221900,6,0,C|256:200,1,160
256,104,222603,1,0
48,40,223071,6,0,C|48:136,1,80
144,120,223540,1,0
240,120,223775,2,0,C|240:224,1,80
336,200,224243,1,0
432,200,224478,2,0,C|432:288,1,80
240,272,225181,1,0
56,48,225650,6,0,C|208:160,1,160
448,344,226587,2,0,C|312:240,1,160
256,192,227290,1,0
160,192,227525,5,2
256,192,227759,1,2
256,96,227993,1,2
256,192,228228,1,2
352,192,228462,1,2
256,192,228696,1,2
256,288,228931,1,2
256,192,229165,1,0
320,264,229400,6,0,C|152:200,1,160
344,136,230337,2,0,C|168:136,1,160
184,40,231040,2,0,C|432:40,1,240
424,136,231978,1,0
424,232,232212,1,0
424,328,232446,1,0
328,328,232681,1,0
232,328,232915,6,0,C|144:96,1,240
240,104,233853,1,0
336,104,234087,1,0
432,104,234321,1,0
432,200,234556,1,0
432,296,234790,6,0,C|184:296,1,240
88,296,235728,2,0,C|88:216,1,80
184,216,236196,1,0
184,120,236431,1,0
184,24,236665,6,0,C|360:232,1,240
400,280,237603,2,0,C|464:216,1,80
400,281,238071,2,0,C|480:361,1,80
397,281,238540,1,0
365,281,238657,1,0
333,281,238775,1,0
301,281,238892,1,0
269,281,239009,1,0
237,281,239126,1,0
205,281,239243,1,0
173,281,239360,2,0,C|133:281,9,40
37,281,240650,6,0,C|37:113,1,160
144,280,241587,2,0,C|144:104,1,160
144,24,242290,2,0,B|328:24|328:24|328:96|328:96|216:96|216:96|216:184|216:184|328:184|328:184|328:248|328:248|328:264,1,640
248,272,244400,6,0,L|128:152,1,160
320,200,245337,2,0,L|200:80,1,160
200,184,246040,1,0
200,280,246275,5,2
296,280,246509,1,2
392,280,246743,1,0
488,280,246978,1,0
488,184,247212,1,0
488,88,247446,1,0
392,88,247681,1,0
296,88,247915,5,0
296,184,248150,1,2
392,184,248384,1,2
392,88,248618,1,0
296,88,248853,1,0
200,88,249087,1,0
104,88,249321,1,0
104,184,249556,1,0
104,280,249790,1,0
200,280,250025,5,2
296,280,250259,1,2
392,280,250493,1,0
488,280,250728,1,0
488,184,250962,1,0
488,88,251196,1,0
392,88,251431,1,0
296,88,251665,2,0,C|296:40,18,40,0|0|0|0|0|0|0|0|0|0|0|0|0|0|0|0|0|0|4
256,192,254243,12,4,255650
