osu file format v6

[General]
AudioFilename: (06) [Nomiya Ayumi] Sleeping Beauty.mp3
AudioLeadIn: 0
PreviewTime: 120630
Countdown: 1
SampleSet: Soft
StackLeniency: 0.6
Mode: 0
LetterboxInBreaks: 1

[Editor]
DistanceSpacing: 0.800000011920929
BeatDivisor: 4
GridSize: 8

[Metadata]
Title:Sleeping Beauty
Artist:Nomiya Ayumi
Creator:jericho2442
Version:Easy
Source:Colors album
Tags:touhou colors sleeping beauty

[Difficulty]
HPDrainRate:4
CircleSize:4
OverallDifficulty:4
SliderMultiplier:1
SliderTickRate:2

[Events]
//Background and Video events
0,0,"Cover.jpg"
//Break Periods
2,81474,82767
//Storyboard Layer 0 (Background)
//Storyboard Layer 1 (Fail)
//Storyboard Layer 2 (Pass)
//Storyboard Layer 3 (Foreground)
//Storyboard Sound Samples
//Background Colour Transformations
3,100,163,162,255

[TimingPoints]
650,468.75,4,2,0,100,1,0
120650,-100,4,1,0,100,0,1
150650,-100,4,1,0,100,0,0

[Colours]
Combo1 : 0,0,255
Combo2 : 0,0,0
Combo3 : 183,0,91

[HitObjects]
464,56,30650,1,0
384,56,31118,1,8
304,56,31587,2,0,B|216:64|208:120,1,100
160,152,32525,5,0
112,216,32993,1,8
72,288,33462,2,0,B|56:344|144:328,1,100
224,328,34400,6,0,B|336:328,1,100,0|8
400,328,35337,2,0,B|472:328|464:264,1,100
464,184,36275,6,0,B|464:72,1,100,0|8
384,88,37212,2,0,B|384:192,1,100
384,264,38150,5,0
384,344,38618,1,8
304,344,39087,1,0
224,344,39556,1,0
224,264,40025,1,0
224,184,40493,1,8
144,184,40962,1,0
144,104,41431,1,0
224,104,41900,6,0,B|288:104|288:184,1,100,0|8
288,248,42837,2,0,B|288:312,2,50,2|2|2
288,168,43775,2,0,B|288:96|216:104,1,100,0|8
152,104,44712,2,2,B|88:104,4,50,2|0|0|2|2
312,104,46587,6,0,B|376:104|376:104|376:160|376:160|424:160|424:160|424:216,1,200,0|2
320,312,48462,6,0,B|256:312|256:312|256:256|256:256|208:256|208:256|208:200,1,200,0|2
216,64,50337,6,0,B|312:64|312:64|312:176,1,200,0|2
312,328,52212,6,0,B|216:328|216:328|216:216,1,200,0|2
216,64,54087,6,0,B|432:64,1,200,0|2
424,224,55962,6,0,B|208:224,1,200,0|2
64,224,57837,6,0,B|0:224|0:224|0:296|0:296|80:296,1,200,0|2
208,224,59712,6,0,B|272:224|272:224|272:296|272:296|192:296,1,200,0|2
128,296,61118,5,0
128,216,61587,1,8
128,56,62525,5,0
208,56,62993,1,0
288,56,63462,1,8
368,192,64400,5,0
288,192,64868,1,0
208,192,65337,1,8
128,328,66275,5,0
208,328,66743,1,0
288,328,67212,1,8
416,232,68150,6,0,B|440:192|440:168|416:136,1,100
368,80,69087,1,8
320,232,70025,6,0,B|344:192|344:168|320:136,1,100
272,80,70962,1,8
104,80,71900,6,0,B|208:80,1,100
208,160,72837,2,0,B|88:160,1,100,8|0
104,240,73775,2,0,B|216:240,1,100
208,320,74712,1,8
368,320,75650,5,0
368,240,76118,2,0,B|368:120,1,100,2|8
208,144,77525,5,0
208,224,77993,2,0,B|208:328,1,100,2|8
88,216,79400,6,0,B|56:240|48:264|104:312,4,100,0|2|8|2|4
256,192,84087,5,0
336,192,84556,1,0
336,112,85025,1,8
176,112,85962,5,0
96,112,86431,1,0
96,192,86900,1,8
96,272,87368,2,0,B|168:352,1,100
240,344,88306,2,0,B|352:344,1,100,0|8
416,344,89243,2,0,B|504:256,1,100
480,112,90650,6,0,B|368:112,1,100,0|8
296,112,91587,2,0,B|232:112|232:176,1,100
232,256,92525,2,8,B|232:320|168:320,1,100,2|8
88,320,93462,2,0,B|56:320|32:304|40:240,1,100
40,168,94400,2,0,B|64:120|128:96|176:96|176:96|224:96,1,200
296,96,95806,1,8
400,312,97212,6,0,B|400:200,1,100,0|8
400,128,98150,2,2,B|320:32,1,100
256,48,99087,1,8
176,48,99556,1,8
96,48,100025,6,2,B|48:48|32:64|40:120,1,100
39,191,100962,2,8,B|33:236|49:252|97:252,1,100
176,248,101900,2,2,B|223:249|239:233|232:188,1,100
232,104,102837,2,8,B|226:60|242:44|290:44,1,100
368,48,103775,5,0
448,48,104243,1,8
448,128,104712,1,0
368,128,105181,1,8
288,128,105650,6,0,B|248:128|232:152|240:208,1,100
240,280,106587,1,2
240,360,107056,1,8
160,360,107525,6,0,B|48:360,1,100
56,280,108462,1,2
56,200,108931,1,8
88,128,109400,6,0,B|160:56,1,100
240,56,110337,2,0,B|312:128,1,100,2|8
360,184,111275,1,0
256,304,112212,6,0,B|256:200,1,100,0|8
256,120,113150,1,0
176,120,113618,1,8
224,56,114087,1,2
304,56,114556,1,8
352,120,115025,5,0
352,200,115493,1,8
304,264,115962,1,2
224,264,116431,1,8
176,200,116900,5,0
176,120,117368,1,8
224,56,117837,1,2
304,56,118306,1,8
384,56,118775,6,0,B|384:160,1,100,0|8
384,232,119712,2,0,B|272:232,1,100,2|8
200,232,120650,6,0,B|200:112,1,100,0|8
120,128,121587,2,0,B|120:232,1,100,0|8
120,304,122525,1,0
328,64,124400,6,0,B|368:80|384:104|384:144,1,100,0|8
384,216,125337,1,0
384,296,125806,1,8
304,296,126275,6,0,B|264:296|232:280|232:224,1,100,0|8
232,160,127212,1,0
232,80,127681,1,8
152,80,128150,6,0,B|112:80|104:104|104:160,1,100,0|8
104,232,129087,1,0
104,312,129556,1,8
184,312,130025,6,0,B|288:312,1,100,0|8
360,312,130962,2,0,B|456:256,1,100,0|8
448,184,131900,2,0,B|448:80,1,100,0|8
368,80,132837,2,0,B|248:80,1,100,0|8
192,80,133775,1,0
376,336,135650,6,0,B|416:296|400:240,1,100,0|8
400,160,136587,2,0,B|400:112|376:96|344:88,1,100,0|8
264,88,137525,2,0,B|192:88|160:120|144:176|160:232,1,200,0|8
312,192,139400,6,0,B|424:192,1,100,0|8
488,192,140337,2,0,B|488:88,1,100,0|8
408,88,141275,2,0,B|304:88,1,100,0|8
240,128,142212,5,0
176,176,142681,1,8
168,256,143150,6,0,B|168:360,1,100,0|8
248,352,144087,1,0
328,352,144556,1,8
408,352,145025,1,0
408,272,145493,1,8
408,192,145962,1,0
408,112,146431,1,8
408,32,146900,1,0
256,192,147134,12,4,150650
